Tags
Language
Tags
April 2024
Su Mo Tu We Th Fr Sa
31 1 2 3 4 5 6
7 8 9 10 11 12 13
14 15 16 17 18 19 20
21 22 23 24 25 26 27
28 29 30 1 2 3 4

Greenslade - Sundance: A Collection 1973-1975 (2019)

Posted By: delpotro
Greenslade - Sundance: A Collection 1973-1975 (2019)

Greenslade - Sundance: A Collection 1973-1975 (2019)
XLD Rip | FLAC (tracks+log+.cue) - 461 Mb | MP3 CBR 320 kbps - 183 Mb | 01:19:50
Progressive Rock | Label: Esoteric Recordings, Cherry Red Records

Esoteric Recordings are pleased to announce the release of a new re-mastered edition collection by the legendary band Greenslade.

Formed in 1972 by former Colosseum keyboard player Dave Greenslade, the band also featured former Web and Samurai member Dave Lawson (keyboards, vocals), former Colosseum bass player Tony Reeves and drummer Andrew McCulloch (formerly with King Crimson and Fields). The calibre of the members of Greenslade ensured that the group would be innovative, ground breaking and dynamic in their musical approach and would also be notable due to the absence of a guitarist within their ranks. Their self-titled debut album was released in February 1973 to much acclaim and featured such tracks as ‘Melange’, ‘Drowning Man’ and ‘Sundance’. This was followed later in the year by the classic album “Bedside Manners Are Extra”, another fine work featuring the legendary title track and pieces such as ‘Time to Dream’ and ‘Pilgrims Progress’. August 1974 saw the release of Spyglass Guest, the band’s most commercially successful and much-loved album, with compositions of the calibre of ‘Joie de Vivre’, ‘Spirit of the Dance’ and ‘Melancholic Race’.

Following the release of “Spyglass Guest”, Tony Reeves departed the band and was replaced by Martin Briley, who was to feature on the band’s next album. “Time and Tide” was issued in May 1975 and was the band’s final album of the 1970s and featured such excellent compositions as ‘Flattery Stakes’, ‘Waltz for a Fallen Idol’, ‘The Ass’s Ears’ and ‘Gangsters’ (a theme to a BBC TV play also issued as a single). “Time and Tide” was the band’s final album of the 1970s and the last to feature Dave Lawson and Andrew McCulloch in the line-up.

This collection gathers together the highlights of the four Greenslade albums originally issued by Warner Records between 1973 and 1975 and includes the rare live version of ‘Feathered Friends’ recorded at the Reading Festival in August 1973.
Tracklist:
1. Melange (07:29)
2. Drowning Man (05:50)
3. Sundance (08:47)
4. Feathered Friends (Live, Reading Festival, 24 August 1973, 2019 Remaster) (05:03)
5. Bedside Manners Are Extra (06:24)
6. Time To Dream (04:51)
7. Pilgrim's Progress (07:05)
8. Joie De Vivre (08:28)
9. Spirit of the Dance (05:09)
10. Melancholic Race (04:18)
11. Newsworth (03:04)
12. The Flattery Stakes (03:58)
13. Waltz For a Fallen Idol (03:18)
14. The Ass's Ears (03:24)
15. Gangsters (02:36)

X Lossless Decoder version 20191004 (152.0)

XLD extraction logfile from 2020-04-20 12:48:55 +0100

Greenslade / Sundance: A Collection 1973-1975

Used drive : MATSHITA BD-MLT UJ240AF (revision 1.00)
Media type : Pressed CD

Ripper mode : XLD Secure Ripper
Disable audio cache : OK for the drive with a cache less than 1375KiB
Make use of C2 pointers : NO
Read offset correction : 103
Max retry count : 25
Gap status : Analyzed, Appended (except HTOA)

TOC of the extracted CD
Track | Start | Length | Start sector | End sector
––––––––––––––––––––––––––––-
1 | 00:00:00 | 07:29:41 | 0 | 33715
2 | 07:29:41 | 05:50:70 | 33716 | 60035
3 | 13:20:36 | 08:47:52 | 60036 | 99612
4 | 22:08:13 | 05:03:11 | 99613 | 122348
5 | 27:11:24 | 06:23:61 | 122349 | 151134
6 | 33:35:10 | 04:51:37 | 151135 | 172996
7 | 38:26:47 | 07:05:64 | 172997 | 204935
8 | 45:32:36 | 08:28:38 | 204936 | 243073
9 | 54:00:74 | 05:09:29 | 243074 | 266277
10 | 59:10:28 | 04:18:53 | 266278 | 285680
11 | 63:29:06 | 03:05:50 | 285681 | 299605
12 | 66:34:56 | 04:00:46 | 299606 | 317651
13 | 70:35:27 | 03:18:64 | 317652 | 332565
14 | 73:54:16 | 03:24:53 | 332566 | 347918
15 | 77:18:69 | 02:31:14 | 347919 | 359257

AccurateRip Summary
Disc not found in AccurateRip DB.

All Tracks
Album gain : -5.81 dB
Peak : 0.988617
Statistics
Read error : 0
Jitter error (maybe fixed) : 0
Retry sector count : 0
Damaged sector count : 0

Track 01
Filename : /Users/imac/Working Folder/XLD/Greenslade - Sundance- A Collection 1973-1975 (2019) [FLAC]/01 - Greenslade - Melange.flac
/Users/imac/Working Folder/XLD/Greenslade - Sundance- A Collection 1973-1975 (2019) [MP3-320]/01 - Greenslade - Melange.mp3
/Users/imac/Working Folder/XLD/Greenslade - Sundance- A Collection 1973-1975 (2019) [MP3-V0]/01 - Greenslade - Melange.mp3
/Users/imac/Working Folder/XLD/Greenslade - Sundance- A Collection 1973-1975 (2019) [MP3-V2]/01 - Greenslade - Melange.mp3
Pre-gap length : 00:02:00

Track gain : -6.61 dB
Peak : 0.817566
CRC32 hash (test run) : 8E0E2B3A
CRC32 hash : 8E0E2B3A
CRC32 hash (skip zero) : 3A070CB8
AccurateRip v1 signature : A22D35F8
AccurateRip v2 signature : E73A6F7B
->Track not present in AccurateRip database.
Statistics
Read error : 0
Jitter error (maybe fixed) : 0
Retry sector count : 0
Damaged sector count : 0

Track 02
Filename : /Users/imac/Working Folder/XLD/Greenslade - Sundance- A Collection 1973-1975 (2019) [FLAC]/02 - Greenslade - Drowning Man.flac
/Users/imac/Working Folder/XLD/Greenslade - Sundance- A Collection 1973-1975 (2019) [MP3-320]/02 - Greenslade - Drowning Man.mp3
/Users/imac/Working Folder/XLD/Greenslade - Sundance- A Collection 1973-1975 (2019) [MP3-V0]/02 - Greenslade - Drowning Man.mp3
/Users/imac/Working Folder/XLD/Greenslade - Sundance- A Collection 1973-1975 (2019) [MP3-V2]/02 - Greenslade - Drowning Man.mp3
Pre-gap length : 00:02:14

Track gain : -5.50 dB
Peak : 0.817566
CRC32 hash (test run) : B5094FDC
CRC32 hash : B5094FDC
CRC32 hash (skip zero) : B423ABB9
AccurateRip v1 signature : 4D5665CB
AccurateRip v2 signature : 63DD609F
->Track not present in AccurateRip database.
Statistics
Read error : 0
Jitter error (maybe fixed) : 0
Retry sector count : 0
Damaged sector count : 0

Track 03
Filename : /Users/imac/Working Folder/XLD/Greenslade - Sundance- A Collection 1973-1975 (2019) [FLAC]/03 - Greenslade - Sundance.flac
/Users/imac/Working Folder/XLD/Greenslade - Sundance- A Collection 1973-1975 (2019) [MP3-320]/03 - Greenslade - Sundance.mp3
/Users/imac/Working Folder/XLD/Greenslade - Sundance- A Collection 1973-1975 (2019) [MP3-V0]/03 - Greenslade - Sundance.mp3
/Users/imac/Working Folder/XLD/Greenslade - Sundance- A Collection 1973-1975 (2019) [MP3-V2]/03 - Greenslade - Sundance.mp3
Pre-gap length : 00:01:62

Track gain : -6.36 dB
Peak : 0.817566
CRC32 hash (test run) : 2014217F
CRC32 hash : 2014217F
CRC32 hash (skip zero) : 54153C49
AccurateRip v1 signature : 72A98CB6
AccurateRip v2 signature : 06366BD2
->Track not present in AccurateRip database.
Statistics
Read error : 0
Jitter error (maybe fixed) : 0
Retry sector count : 0
Damaged sector count : 0

Track 04
Filename : /Users/imac/Working Folder/XLD/Greenslade - Sundance- A Collection 1973-1975 (2019) [FLAC]/04 - Greenslade - Feathered Friends [Live, Reading Festival, 24 August 1973, 2019 Remaster].flac
/Users/imac/Working Folder/XLD/Greenslade - Sundance- A Collection 1973-1975 (2019) [MP3-320]/04 - Greenslade - Feathered Friends [Live, Reading Festival, 24 August 1973, 2019 Remaster].mp3
/Users/imac/Working Folder/XLD/Greenslade - Sundance- A Collection 1973-1975 (2019) [MP3-V0]/04 - Greenslade - Feathered Friends [Live, Reading Festival, 24 August 1973, 2019 Remaster].mp3
/Users/imac/Working Folder/XLD/Greenslade - Sundance- A Collection 1973-1975 (2019) [MP3-V2]/04 - Greenslade - Feathered Friends [Live, Reading Festival, 24 August 1973, 2019 Remaster].mp3
Pre-gap length : 00:02:27

Track gain : -6.20 dB
Peak : 0.955078
CRC32 hash (test run) : BBA794F3
CRC32 hash : BBA794F3
CRC32 hash (skip zero) : A479803E
AccurateRip v1 signature : 9331D7F3
AccurateRip v2 signature : 4BFC3F10
->Track not present in AccurateRip database.
Statistics
Read error : 0
Jitter error (maybe fixed) : 0
Retry sector count : 0
Damaged sector count : 0

Track 05
Filename : /Users/imac/Working Folder/XLD/Greenslade - Sundance- A Collection 1973-1975 (2019) [FLAC]/05 - Greenslade - Bedside Manners Are Extra.flac
/Users/imac/Working Folder/XLD/Greenslade - Sundance- A Collection 1973-1975 (2019) [MP3-320]/05 - Greenslade - Bedside Manners Are Extra.mp3
/Users/imac/Working Folder/XLD/Greenslade - Sundance- A Collection 1973-1975 (2019) [MP3-V0]/05 - Greenslade - Bedside Manners Are Extra.mp3
/Users/imac/Working Folder/XLD/Greenslade - Sundance- A Collection 1973-1975 (2019) [MP3-V2]/05 - Greenslade - Bedside Manners Are Extra.mp3
Pre-gap length : 00:02:37

Track gain : -3.07 dB
Peak : 0.988617
CRC32 hash (test run) : 222A3BEB
CRC32 hash : 222A3BEB
CRC32 hash (skip zero) : 5C0AFCA3
AccurateRip v1 signature : DDFB5A4A
AccurateRip v2 signature : B65ED30E
->Track not present in AccurateRip database.
Statistics
Read error : 0
Jitter error (maybe fixed) : 0
Retry sector count : 0
Damaged sector count : 0

Track 06
Filename : /Users/imac/Working Folder/XLD/Greenslade - Sundance- A Collection 1973-1975 (2019) [FLAC]/06 - Greenslade - Time to Dream.flac
/Users/imac/Working Folder/XLD/Greenslade - Sundance- A Collection 1973-1975 (2019) [MP3-320]/06 - Greenslade - Time to Dream.mp3
/Users/imac/Working Folder/XLD/Greenslade - Sundance- A Collection 1973-1975 (2019) [MP3-V0]/06 - Greenslade - Time to Dream.mp3
/Users/imac/Working Folder/XLD/Greenslade - Sundance- A Collection 1973-1975 (2019) [MP3-V2]/06 - Greenslade - Time to Dream.mp3
Pre-gap length : 00:01:51

Track gain : -7.66 dB
Peak : 0.988617
CRC32 hash (test run) : 0452ACEB
CRC32 hash : 0452ACEB
CRC32 hash (skip zero) : BE1D9D00
AccurateRip v1 signature : 7379D8B1
AccurateRip v2 signature : 12F41540
->Track not present in AccurateRip database.
Statistics
Read error : 0
Jitter error (maybe fixed) : 0
Retry sector count : 0
Damaged sector count : 0

Track 07
Filename : /Users/imac/Working Folder/XLD/Greenslade - Sundance- A Collection 1973-1975 (2019) [FLAC]/07 - Greenslade - Pilgrim's Progress.flac
/Users/imac/Working Folder/XLD/Greenslade - Sundance- A Collection 1973-1975 (2019) [MP3-320]/07 - Greenslade - Pilgrim's Progress.mp3
/Users/imac/Working Folder/XLD/Greenslade - Sundance- A Collection 1973-1975 (2019) [MP3-V0]/07 - Greenslade - Pilgrim's Progress.mp3
/Users/imac/Working Folder/XLD/Greenslade - Sundance- A Collection 1973-1975 (2019) [MP3-V2]/07 - Greenslade - Pilgrim's Progress.mp3
Pre-gap length : 00:01:60

Track gain : -6.27 dB
Peak : 0.988617
CRC32 hash (test run) : 5070C031
CRC32 hash : 5070C031
CRC32 hash (skip zero) : 748D150E
AccurateRip v1 signature : 1C3D7BDB
AccurateRip v2 signature : 254F49C5
->Track not present in AccurateRip database.
Statistics
Read error : 0
Jitter error (maybe fixed) : 0
Retry sector count : 0
Damaged sector count : 0

Track 08
Filename : /Users/imac/Working Folder/XLD/Greenslade - Sundance- A Collection 1973-1975 (2019) [FLAC]/08 - Greenslade - Joie de Vivre.flac
/Users/imac/Working Folder/XLD/Greenslade - Sundance- A Collection 1973-1975 (2019) [MP3-320]/08 - Greenslade - Joie de Vivre.mp3
/Users/imac/Working Folder/XLD/Greenslade - Sundance- A Collection 1973-1975 (2019) [MP3-V0]/08 - Greenslade - Joie de Vivre.mp3
/Users/imac/Working Folder/XLD/Greenslade - Sundance- A Collection 1973-1975 (2019) [MP3-V2]/08 - Greenslade - Joie de Vivre.mp3
Pre-gap length : 00:02:67

Track gain : -5.60 dB
Peak : 0.927948
CRC32 hash (test run) : 81543725
CRC32 hash : 81543725
CRC32 hash (skip zero) : 5E788AB8
AccurateRip v1 signature : 4F278BA8
AccurateRip v2 signature : AE4E2B1D
->Track not present in AccurateRip database.
Statistics
Read error : 0
Jitter error (maybe fixed) : 0
Retry sector count : 0
Damaged sector count : 0

Track 09
Filename : /Users/imac/Working Folder/XLD/Greenslade - Sundance- A Collection 1973-1975 (2019) [FLAC]/09 - Greenslade - Spirit of the Dance.flac
/Users/imac/Working Folder/XLD/Greenslade - Sundance- A Collection 1973-1975 (2019) [MP3-320]/09 - Greenslade - Spirit of the Dance.mp3
/Users/imac/Working Folder/XLD/Greenslade - Sundance- A Collection 1973-1975 (2019) [MP3-V0]/09 - Greenslade - Spirit of the Dance.mp3
/Users/imac/Working Folder/XLD/Greenslade - Sundance- A Collection 1973-1975 (2019) [MP3-V2]/09 - Greenslade - Spirit of the Dance.mp3
Pre-gap length : 00:02:54

Track gain : -6.60 dB
Peak : 0.927948
CRC32 hash (test run) : 5B1D8C91
CRC32 hash : 5B1D8C91
CRC32 hash (skip zero) : 577B0178
AccurateRip v1 signature : 4105038E
AccurateRip v2 signature : 18D84586
->Track not present in AccurateRip database.
Statistics
Read error : 0
Jitter error (maybe fixed) : 0
Retry sector count : 0
Damaged sector count : 0

Track 10
Filename : /Users/imac/Working Folder/XLD/Greenslade - Sundance- A Collection 1973-1975 (2019) [FLAC]/10 - Greenslade - Melancholic Race.flac
/Users/imac/Working Folder/XLD/Greenslade - Sundance- A Collection 1973-1975 (2019) [MP3-320]/10 - Greenslade - Melancholic Race.mp3
/Users/imac/Working Folder/XLD/Greenslade - Sundance- A Collection 1973-1975 (2019) [MP3-V0]/10 - Greenslade - Melancholic Race.mp3
/Users/imac/Working Folder/XLD/Greenslade - Sundance- A Collection 1973-1975 (2019) [MP3-V2]/10 - Greenslade - Melancholic Race.mp3
Pre-gap length : 00:01:46

Track gain : -4.84 dB
Peak : 0.927948
CRC32 hash (test run) : 6BDD53B2
CRC32 hash : 6BDD53B2
CRC32 hash (skip zero) : 866E392A
AccurateRip v1 signature : 65D67189
AccurateRip v2 signature : 3F17E3EA
->Track not present in AccurateRip database.
Statistics
Read error : 0
Jitter error (maybe fixed) : 0
Retry sector count : 0
Damaged sector count : 0

Track 11
Filename : /Users/imac/Working Folder/XLD/Greenslade - Sundance- A Collection 1973-1975 (2019) [FLAC]/11 - Greenslade - Newsworth.flac
/Users/imac/Working Folder/XLD/Greenslade - Sundance- A Collection 1973-1975 (2019) [MP3-320]/11 - Greenslade - Newsworth.mp3
/Users/imac/Working Folder/XLD/Greenslade - Sundance- A Collection 1973-1975 (2019) [MP3-V0]/11 - Greenslade - Newsworth.mp3
/Users/imac/Working Folder/XLD/Greenslade - Sundance- A Collection 1973-1975 (2019) [MP3-V2]/11 - Greenslade - Newsworth.mp3
Pre-gap length : 00:02:65

Track gain : -5.22 dB
Peak : 0.977325
CRC32 hash (test run) : B46A69A0
CRC32 hash : B46A69A0
CRC32 hash (skip zero) : CB381C35
AccurateRip v1 signature : 23ED1267
AccurateRip v2 signature : 34285A32
->Track not present in AccurateRip database.
Statistics
Read error : 0
Jitter error (maybe fixed) : 0
Retry sector count : 0
Damaged sector count : 0

Track 12
Filename : /Users/imac/Working Folder/XLD/Greenslade - Sundance- A Collection 1973-1975 (2019) [FLAC]/12 - Greenslade - The Flattery Stakes.flac
/Users/imac/Working Folder/XLD/Greenslade - Sundance- A Collection 1973-1975 (2019) [MP3-320]/12 - Greenslade - The Flattery Stakes.mp3
/Users/imac/Working Folder/XLD/Greenslade - Sundance- A Collection 1973-1975 (2019) [MP3-V0]/12 - Greenslade - The Flattery Stakes.mp3
/Users/imac/Working Folder/XLD/Greenslade - Sundance- A Collection 1973-1975 (2019) [MP3-V2]/12 - Greenslade - The Flattery Stakes.mp3
Pre-gap length : 00:01:26

Track gain : -5.22 dB
Peak : 0.977325
CRC32 hash (test run) : 2799A408
CRC32 hash : 2799A408
CRC32 hash (skip zero) : 99F54347
AccurateRip v1 signature : 554CB889
AccurateRip v2 signature : A6BE6B48
->Track not present in AccurateRip database.
Statistics
Read error : 0
Jitter error (maybe fixed) : 0
Retry sector count : 0
Damaged sector count : 0

Track 13
Filename : /Users/imac/Working Folder/XLD/Greenslade - Sundance- A Collection 1973-1975 (2019) [FLAC]/13 - Greenslade - Waltz for a Fallen Idol.flac
/Users/imac/Working Folder/XLD/Greenslade - Sundance- A Collection 1973-1975 (2019) [MP3-320]/13 - Greenslade - Waltz for a Fallen Idol.mp3
/Users/imac/Working Folder/XLD/Greenslade - Sundance- A Collection 1973-1975 (2019) [MP3-V0]/13 - Greenslade - Waltz for a Fallen Idol.mp3
/Users/imac/Working Folder/XLD/Greenslade - Sundance- A Collection 1973-1975 (2019) [MP3-V2]/13 - Greenslade - Waltz for a Fallen Idol.mp3
Pre-gap length : 00:02:57

Track gain : -0.80 dB
Peak : 0.839172
CRC32 hash (test run) : 6D9D4A15
CRC32 hash : 6D9D4A15
CRC32 hash (skip zero) : B73EC586
AccurateRip v1 signature : 1C04FB1E
AccurateRip v2 signature : 50E3890D
->Track not present in AccurateRip database.
Statistics
Read error : 0
Jitter error (maybe fixed) : 0
Retry sector count : 0
Damaged sector count : 0

Track 14
Filename : /Users/imac/Working Folder/XLD/Greenslade - Sundance- A Collection 1973-1975 (2019) [FLAC]/14 - Greenslade - The Ass's Ears.flac
/Users/imac/Working Folder/XLD/Greenslade - Sundance- A Collection 1973-1975 (2019) [MP3-320]/14 - Greenslade - The Ass's Ears.mp3
/Users/imac/Working Folder/XLD/Greenslade - Sundance- A Collection 1973-1975 (2019) [MP3-V0]/14 - Greenslade - The Ass's Ears.mp3
/Users/imac/Working Folder/XLD/Greenslade - Sundance- A Collection 1973-1975 (2019) [MP3-V2]/14 - Greenslade - The Ass's Ears.mp3

Track gain : -4.74 dB
Peak : 0.977295
CRC32 hash (test run) : 09DADAD1
CRC32 hash : 09DADAD1
CRC32 hash (skip zero) : D7767029
AccurateRip v1 signature : 10B86EC9
AccurateRip v2 signature : 77DC5F86
->Track not present in AccurateRip database.
Statistics
Read error : 0
Jitter error (maybe fixed) : 0
Retry sector count : 0
Damaged sector count : 0

Track 15
Filename : /Users/imac/Working Folder/XLD/Greenslade - Sundance- A Collection 1973-1975 (2019) [FLAC]/15 - Greenslade - Gangsters.flac
/Users/imac/Working Folder/XLD/Greenslade - Sundance- A Collection 1973-1975 (2019) [MP3-320]/15 - Greenslade - Gangsters.mp3
/Users/imac/Working Folder/XLD/Greenslade - Sundance- A Collection 1973-1975 (2019) [MP3-V0]/15 - Greenslade - Gangsters.mp3
/Users/imac/Working Folder/XLD/Greenslade - Sundance- A Collection 1973-1975 (2019) [MP3-V2]/15 - Greenslade - Gangsters.mp3
Pre-gap length : 00:02:16

Track gain : -6.24 dB
Peak : 0.977295
CRC32 hash (test run) : BA6AB207
CRC32 hash : BA6AB207
CRC32 hash (skip zero) : 9136E812
AccurateRip v1 signature : 8E0DAD6F
AccurateRip v2 signature : 749B1453
->Track not present in AccurateRip database.
Statistics
Read error : 0
Jitter error (maybe fixed) : 0
Retry sector count : 0
Damaged sector count : 0

No errors occurred

End of status report

––-BEGIN XLD SIGNATURE––-
CPW71FP73LecSJkvYClPUMx6tFsxZu_WNxup_6qYEMaGK9GTPmbyZlG5_3ym8VQY3zBobufHD.q0oAUHzTSM1aw.c97DPzCutku.tUG
––-END XLD SIGNATURE––-

Thanks to the Original ripper swampsnake !