Subcategories

Greg Howe - Wheelhouse (2017)

Posted By: delpotro
Greg Howe - Wheelhouse (2017)

Greg Howe - Wheelhouse (2017)
EAC Rip | FLAC (tracks+log+.cue) - 297 Mb | MP3 CBR 320 kbps - 102 Mb | Scans - 8 Mb | 00:44:38
Shred, Jazz Fusion, Rock | Label: Bad Racket

Greg Howe's new album, "Wheelhouse", which is due out later this year, marks a highly anticipated return to his solo instrumental work. It features Greg Howe at his best along with an appearance from guitar legend, Richie Kotzen (Winery Dogs, Mr. Big). Described by Howe as his most personal work to date, the album is destined to again set the bar for guitarists everywhere. Musical trends may come and go, but you always know what's in store with a new Greg Howe release, and this veteran shredder certainly won't disappoint with this breathtaking showcase as one of the best rock/fusion players in the world.
Tracklist:
01. Tempest Pulse
02. 2 in 1
03. Throw Down
04. Landslide
05. Key to Open
06. Push On
07. Let It Slip
08. I Wonder
09. Shady Lane (feat. Richie Kotzen)

Exact Audio Copy V1.1 from 23. June 2015

EAC extraction logfile from 21. November 2017, 19:46

Greg Howe / Wheelhouse

Used drive : TSSTcorpCDDVDW SH-224DB Adapter: 1 ID: 0

Read mode : Secure
Utilize accurate stream : Yes
Defeat audio cache : Yes
Make use of C2 pointers : No

Read offset correction : 6
Overread into Lead-In and Lead-Out : No
Fill up missing offset samples with silence : Yes
Delete leading and trailing silent blocks : No
Null samples used in CRC calculations : Yes
Used interface : Native Win32 interface for Win NT & 2000
Gap handling : Appended to previous track

Used output format : User Defined Encoder
Selected bitrate : 1024 kBit/s
Quality : High
Add ID3 tag : No
Command line compressor : C:\Program Files (x86)\Exact Audio Copy\win64\flac.exe
Additional command line options : -8 -V -T "ARTIST=%artist%" -T "TITLE=%title%" -T "ALBUM=%albumtitle%" -T "DATE=%year%" -T "TRACKNUMBER=%tracknr%" -T "GENRE=%genre%" -T "COMMENT=%comment%" %source% -o %dest%


TOC of the extracted CD

Track | Start | Length | Start sector | End sector
––––––––––––––––––––––––––––-
1 | 0:00.00 | 5:21.44 | 0 | 24118
2 | 5:21.44 | 6:05.30 | 24119 | 51523
3 | 11:26.74 | 4:24.27 | 51524 | 71350
4 | 15:51.26 | 6:23.36 | 71351 | 100111
5 | 22:14.62 | 1:49.34 | 100112 | 108320
6 | 24:04.21 | 4:40.19 | 108321 | 129339
7 | 28:44.40 | 5:00.12 | 129340 | 151851
8 | 33:44.52 | 5:06.47 | 151852 | 174848
9 | 38:51.24 | 5:47.25 | 174849 | 200898


Track 1

Filename F:\Sket4er\Greg Howe – Wheelhouse 2017\01 Tempest Pulse.wav

Pre-gap length 0:00:02.00

Peak level 98.8 %
Extraction speed 2.0 X
Track quality 100.0 %
Test CRC 5654BD30
Copy CRC 5654BD30
Track not present in AccurateRip database
Copy OK

Track 2

Filename F:\Sket4er\Greg Howe – Wheelhouse 2017\02 2 In 1.wav

Peak level 98.8 %
Extraction speed 2.3 X
Track quality 100.0 %
Test CRC 53A74BAE
Copy CRC 53A74BAE
Track not present in AccurateRip database
Copy OK

Track 3

Filename F:\Sket4er\Greg Howe – Wheelhouse 2017\03 Throw Down.wav

Peak level 98.8 %
Extraction speed 2.4 X
Track quality 100.0 %
Test CRC EF6463FB
Copy CRC EF6463FB
Track not present in AccurateRip database
Copy OK

Track 4

Filename F:\Sket4er\Greg Howe – Wheelhouse 2017\04 Landslide.wav

Peak level 98.8 %
Extraction speed 2.4 X
Track quality 99.9 %
Test CRC 8E12B807
Copy CRC 8E12B807
Track not present in AccurateRip database
Copy OK

Track 5

Filename F:\Sket4er\Greg Howe – Wheelhouse 2017\05 Key To Open.wav

Peak level 98.8 %
Extraction speed 2.3 X
Track quality 100.0 %
Test CRC 49D5021C
Copy CRC 49D5021C
Track not present in AccurateRip database
Copy OK

Track 6

Filename F:\Sket4er\Greg Howe – Wheelhouse 2017\06 Push On.wav

Peak level 98.8 %
Extraction speed 2.9 X
Track quality 100.0 %
Test CRC C3D03225
Copy CRC C3D03225
Track not present in AccurateRip database
Copy OK

Track 7

Filename F:\Sket4er\Greg Howe – Wheelhouse 2017\07 Let It Slip.wav

Peak level 98.8 %
Extraction speed 3.1 X
Track quality 100.0 %
Test CRC 66DEBE93
Copy CRC 66DEBE93
Track not present in AccurateRip database
Copy OK

Track 8

Filename F:\Sket4er\Greg Howe – Wheelhouse 2017\08 I Wonder.wav

Peak level 98.8 %
Extraction speed 3.2 X
Track quality 100.0 %
Test CRC 49C6E53C
Copy CRC 49C6E53C
Track not present in AccurateRip database
Copy OK

Track 9

Filename F:\Sket4er\Greg Howe – Wheelhouse 2017\09 Shady Lane.wav

Peak level 98.8 %
Extraction speed 3.4 X
Track quality 100.0 %
Test CRC FE736251
Copy CRC FE736251
Track not present in AccurateRip database
Copy OK


None of the tracks are present in the AccurateRip database

No errors occurred

End of status report

–– CUETools DB Plugin V2.1.6

[CTDB TOCID: LeYG2oGESiMx_T4ah6MsnQGs2Rc-] found
Submit result: LeYG2oGESiMx_T4ah6MsnQGs2Rc- has been confirmed
Track | CTDB Status
1 | (2/2) Accurately ripped
2 | (2/2) Accurately ripped
3 | (2/2) Accurately ripped
4 | (2/2) Accurately ripped
5 | (2/2) Accurately ripped
6 | (2/2) Accurately ripped
7 | (2/2) Accurately ripped
8 | (2/2) Accurately ripped
9 | (2/2) Accurately ripped


==== Log checksum 7AB8A422A11963177E476603BF23C6828247DF95F53C53683CF364FBB3CEECD9 ====



Greg Howe - Wheelhouse (2017)

Thanks to the Original ripper markav10 !