Subcategories

Hank Crawford - True Blue (1964) {2013 Japan Jazz Best Collection 1000 Series WPCR-27469}

Posted By: ruskaval
Hank Crawford - True Blue (1964) {2013 Japan Jazz Best Collection 1000 Series WPCR-27469}

Hank Crawford - True Blue (1964) {2013 Japan Jazz Best Collection 1000 Series WPCR-27469}
EAC rip (secure mode) | FLAC (tracks)+CUE+LOG -> 229 Mb | MP3 @320 -> 85 Mb
Full Artwork @ 300 dpi (jpg) -> 10 Mb | 5% repair rar | 24-bit remaster
© 1963-64, 2013 Atlantic / Warner Japan / WEA / Rhino | WPCR-27469
Jazz / Hard Bop / Soul Jazz / Saxophone

Features 24 bit remastering and comes with a mini-description. A cool cooker from altoist Hank Crawford – cut in a tightly-grooving ensemble mode that really reflects his roots with Ray Charles! The tunes are mostly short, but have a great sense of personality – a vibrant approach that comes not just from Hank's lead solos, but also from the group backing by players who include James Clay and Wilbur Brown on tenor, Charlie Patterson on trumpet, and Sonny Forriest on guitar. Hank plays a bit of piano at times, and both John Hunt and Phil Guilbeau get in some trumpet solos too.
Hank Crawford - True Blue (1964) {2013 Japan Jazz Best Collection 1000 Series WPCR-27469}


Personnel
Hank Crawford (Alto Saxophone)
Julius Brooks (Trumpet) - 2,4,8
Phil Guilbeau (Trumpet) - 3,5-7
John Hunt (Trumpet) - 1,9,10
Charlie Patterson (Trumpet) - 1,9,10
Wilbur Brown (Tenor Saxophone) - 1,2,4,8-10
James Clay (Tenor Saxophone) - 3,5-7
Leroy Cooper (Baritone Saxophone) - 2-8
Alexander Nelson (Baritone Saxophone) - 1,9,10
Sonny Forriest (Guitar) - 3,5-7
Charles Green (Double Bass) - 2,4,8
Edgar Willis (Double Bass) - 3,5-7
Lewis Worrell (Double Bass) - 1,9,10
Bruno Carr (Drums) - 3,5-7
Carl Lott (Drums) - 1,9,10
Milt Turner (Drums) - 2,4,8

Track Listing
01 - Shake A-Plenty
02 - Mellow Down
03 - Read 'Em And Weep
04 - Merry Christmas Baby
05 - Save Your Love For Me
06 - Skunky Green
07 - Two Years Of Torture
08 - Blues In Bloom
09 - Got You On My Mind
10 - Shooby

Exact Audio Copy V1.3 from 2. September 2016

EAC extraction logfile from 1. May 2019, 19:19

Hank Crawford / True Blue

Used drive : ATAPI iHAS122 F Adapter: 1 ID: 0

Read mode : Secure
Utilize accurate stream : Yes
Defeat audio cache : Yes
Make use of C2 pointers : No

Read offset correction : 6
Overread into Lead-In and Lead-Out : No
Fill up missing offset samples with silence : Yes
Delete leading and trailing silent blocks : No
Null samples used in CRC calculations : Yes
Used interface : Native Win32 interface for Win NT & 2000
Gap handling : Appended to previous track

Used output format : User Defined Encoder
Selected bitrate : 1024 kBit/s
Quality : High
Add ID3 tag : No
Command line compressor : C:\Program Files (x86)\Exact Audio Copy_v1.3\Flac\flac.exe
Additional command line options : -8 -V -T "ARTIST=%artist%" -T "TITLE=%title%" -T "ALBUM=%albumtitle%" -T "DATE=%year%" -T "TRACKNUMBER=%tracknr%" -T "TOTALTRACKS=%numtracks%" -T "GENRE=%genre%" -T "ALBUMARTIST=%albumartist%" -T "ALBUM ARTIST=%albumartist%" -T "COMMENT=EAC Secure Mode, Test & Copy, AccurateRip, FLAC -8" %source%


TOC of the extracted CD

Track | Start | Length | Start sector | End sector
––––––––––––––––––––––––––––-
1 | 0:00.00 | 2:36.43 | 0 | 11742
2 | 2:36.43 | 3:01.11 | 11743 | 25328
3 | 5:37.54 | 3:15.48 | 25329 | 40001
4 | 8:53.27 | 3:50.55 | 40002 | 57306
5 | 12:44.07 | 3:56.73 | 57307 | 75079
6 | 16:41.05 | 2:37.25 | 75080 | 86879
7 | 19:18.30 | 4:27.11 | 86880 | 106915
8 | 23:45.41 | 4:14.51 | 106916 | 126016
9 | 28:00.17 | 3:12.45 | 126017 | 140461
10 | 31:12.62 | 4:23.37 | 140462 | 160223


Track 1

Filename F:\_EAC\Hank Crawford - True Blue (1964) [FLAC] {Japan WPCR-27469}\01 - Shake A-Plenty.wav

Pre-gap length 0:00:02.00

Peak level 100.0 %
Extraction speed 4.4 X
Track quality 100.0 %
Test CRC AE308886
Copy CRC AE308886
Accurately ripped (confidence 3) [AFC588D4] (AR v2)
Copy OK

Track 2

Filename F:\_EAC\Hank Crawford - True Blue (1964) [FLAC] {Japan WPCR-27469}\02 - Mellow Down.wav

Pre-gap length 0:00:01.63

Peak level 100.0 %
Extraction speed 4.7 X
Track quality 100.0 %
Test CRC 2EAA2639
Copy CRC 2EAA2639
Accurately ripped (confidence 3) [4CD644D3] (AR v2)
Copy OK

Track 3

Filename F:\_EAC\Hank Crawford - True Blue (1964) [FLAC] {Japan WPCR-27469}\03 - Read 'Em And Weep.wav

Pre-gap length 0:00:01.29

Peak level 97.6 %
Extraction speed 5.2 X
Track quality 100.0 %
Test CRC B1FB9859
Copy CRC B1FB9859
Accurately ripped (confidence 3) [C1F5521E] (AR v2)
Copy OK

Track 4

Filename F:\_EAC\Hank Crawford - True Blue (1964) [FLAC] {Japan WPCR-27469}\04 - Merry Christmas Baby.wav

Pre-gap length 0:00:01.29

Peak level 100.0 %
Extraction speed 4.6 X
Track quality 99.9 %
Test CRC 0129B2CB
Copy CRC 0129B2CB
Accurately ripped (confidence 3) [D744179A] (AR v2)
Copy OK

Track 5

Filename F:\_EAC\Hank Crawford - True Blue (1964) [FLAC] {Japan WPCR-27469}\05 - Save Your Love For Me.wav

Pre-gap length 0:00:01.12

Peak level 100.0 %
Extraction speed 6.0 X
Track quality 100.0 %
Test CRC C189E6B5
Copy CRC C189E6B5
Accurately ripped (confidence 3) [E22F0223] (AR v2)
Copy OK

Track 6

Filename F:\_EAC\Hank Crawford - True Blue (1964) [FLAC] {Japan WPCR-27469}\06 - Skunky Green.wav

Pre-gap length 0:00:01.04

Peak level 100.0 %
Extraction speed 4.5 X
Track quality 99.9 %
Test CRC ADCF6BC2
Copy CRC ADCF6BC2
Accurately ripped (confidence 3) [F69BD824] (AR v2)
Copy OK

Track 7

Filename F:\_EAC\Hank Crawford - True Blue (1964) [FLAC] {Japan WPCR-27469}\07 - Two Years Of Torture.wav

Pre-gap length 0:00:01.31

Peak level 100.0 %
Extraction speed 6.6 X
Track quality 100.0 %
Test CRC 46D9801A
Copy CRC 46D9801A
Accurately ripped (confidence 3) [0B6B5DD1] (AR v2)
Copy OK

Track 8

Filename F:\_EAC\Hank Crawford - True Blue (1964) [FLAC] {Japan WPCR-27469}\08 - Blues In Bloom.wav

Pre-gap length 0:00:01.17

Peak level 100.0 %
Extraction speed 6.9 X
Track quality 100.0 %
Test CRC 0B8C4ABD
Copy CRC 0B8C4ABD
Accurately ripped (confidence 3) [F689863A] (AR v2)
Copy OK

Track 9

Filename F:\_EAC\Hank Crawford - True Blue (1964) [FLAC] {Japan WPCR-27469}\09 - Got You On My Mind.wav

Pre-gap length 0:00:01.19

Peak level 100.0 %
Extraction speed 6.9 X
Track quality 100.0 %
Test CRC 4D17E479
Copy CRC 4D17E479
Accurately ripped (confidence 3) [78930860] (AR v2)
Copy OK

Track 10

Filename F:\_EAC\Hank Crawford - True Blue (1964) [FLAC] {Japan WPCR-27469}\10 - Shooby.wav

Pre-gap length 0:00:01.29

Peak level 100.0 %
Extraction speed 7.4 X
Track quality 100.0 %
Test CRC D965C5AC
Copy CRC D965C5AC
Accurately ripped (confidence 3) [E8F1E180] (AR v2)
Copy OK


All tracks accurately ripped

No errors occurred

End of status report

–– CUETools DB Plugin V2.1.6

[CTDB TOCID: CKR7LmJxvYbexROfv_BNBrtN_EM-] found
Submit result: CKR7LmJxvYbexROfv_BNBrtN_EM- has been confirmed
Track | CTDB Status
1 | (10/10) Accurately ripped
2 | (10/10) Accurately ripped
3 | (10/10) Accurately ripped
4 | (10/10) Accurately ripped
5 | (10/10) Accurately ripped
6 | (10/10) Accurately ripped
7 | (10/10) Accurately ripped
8 | (10/10) Accurately ripped
9 | (10/10) Accurately ripped
10 | (10/10) Accurately ripped


==== Log checksum 06369CFE7B1F98B537A818334FB4F653D945D06D0F5DC52B6199B8290E079BD3 ====


Hank Crawford - True Blue (1964) {2013 Japan Jazz Best Collection 1000 Series WPCR-27469}

Hank Crawford - True Blue (1964) {2013 Japan Jazz Best Collection 1000 Series WPCR-27469}


see more Japan Jazz Best Collection 1000 Series 24bit Remaster…


===