Subcategories

Coleman Hawkins - Hawkins! Eldridge! Hodges! Alive! At The Village Gate! (1962) {Verve 513 755-2 rel 1992}

Posted By: ruskaval
Coleman Hawkins - Hawkins! Eldridge! Hodges! Alive! At The Village Gate! (1962) {Verve 513 755-2 rel 1992}

Coleman Hawkins - Hawkins! Eldridge! Hodges! Alive! At The Village Gate! (1962) {Verve 513 755-2 rel 1992}
EAC rip (secure mode) | FLAC (tracks)+CUE+LOG -> 450 Mb | MP3 @320 -> 171 Mb
Full Artwork @ 300 dpi (jpg) -> 21 Mb | 5% repair rar
© 1962, 1992 Verve / PolyGram | 513 755-2
Jazz / Mainstream Jazz / Hard Bop / Swing / Saxophone / Trumpet

From the mid-'50s until Coleman Hawkins's death in 1969, the tenor-saxophonist frequently teamed up with trumpeter Roy Eldridge to form a potent team. However, Hawkins rarely met altoist Johnny Hodges on the bandstand, making this encounter a special event. Long versions of "Satin Doll," "Perdido" and "The Rabbit in Jazz" give these three classic jazzmen (who are ably assisted by the Tommy Flanagan Trio) chances to stretch out and inspire each other. The remainder of this CD has Eldridge and Hodges absent while Coleman Hawkins (on "new" versions of "Mack the Knife," "It's the Talk of the Town," "Bean and the Boys" and "Caravan") heads the quartet for some excellent playing. Timeless music played by some of the top veteran stylists of the swing era.
Something wonderful happened to Coleman Hawkins at the end of his career – record companies started letting him record in really long formats, stretching out creatively on extended solos that continued to push the boundaries of his talents! This set is a prime example of that shift – as it features Hawkins alongside Roy Eldridge and Johnny Hodges – all working with trio backing by Tommy Flanagan, Major Holley, and Eddie Locke in a live setting at the Village Gate. Tracks are all well over ten minutes long – 2 at eleven minutes, and 1 at sixteen – and they allow the three lead soloists to really stretch out in a warmly improvisatory manner that surpasses even the easygoing Verve studio sessions of the 50s. Titles include "Satin Doll", "Perdido", and "The Rabbit In Jazz". Plus, added to these 3 are 4 more bonus tracks from the Hawkins Alive album – recorded at the same time, but without the other 2 soloists. These titles include "It's The Talk Of The Town", "Mack The Knife", "Caravan", and "Bean & The Boys".

Personnel:
Coleman Hawkins (tenor saxophone)
Roy Eldridge (trumpet)
Johnny Hodges (alto saxophone)
Tommy Flanagan (piano)
Major Holley (bass)
Eddie Locke (drums)

Recorded live at the Village Gate, New York City on August 13 & 15, 1962

tracklist:
01 - Satin Doll
02 - Perdido
03 - Rabbit in Jazz
04 - MacK the Kiife
05 - Talk of Town
06 - Bean and Boys
07 - Caravan

Exact Audio Copy V1.0 beta 1 from 15. November 2010

EAC extraction logfile from 3. May 2013, 14:59

Coleman Hawkins / Hawkins! Eldridge! Hodges! - Alive! At The Village Gate

Used drive : Optiarc DVD RW AD-7200A Adapter: 0 ID: 0

Read mode : Secure
Utilize accurate stream : Yes
Defeat audio cache : Yes
Make use of C2 pointers : No

Read offset correction : 48
Overread into Lead-In and Lead-Out : No
Fill up missing offset samples with silence : Yes
Delete leading and trailing silent blocks : No
Null samples used in CRC calculations : Yes
Used interface : Native Win32 interface for Win NT & 2000
Gap handling : Appended to previous track

Used output format : User Defined Encoder
Selected bitrate : 768 kBit/s
Quality : High
Add ID3 tag : No
Command line compressor : C:\Program Files\Exact Audio Copy\Flac\flac.exe
Additional command line options : -8 -V -T "ARTIST=%a" -T "TITLE=%t" -T "ALBUM=%g" -T "DATE=%y" -T "TRACKNUMBER=%n" -T "TOTALTRACKS=%x" -T "GENRE=%m" -T "ALBUMARTIST=%v" -T "ALBUM ARTIST=%v" -T "COMMENT=EAC Secure Mode, Test & Copy, AccurateRip, FLAC -8" %s


TOC of the extracted CD

Track | Start | Length | Start sector | End sector
––––––––––––––––––––––––––––-
1 | 0:00.33 | 11:18.00 | 33 | 50882
2 | 11:18.33 | 11:38.30 | 50883 | 103262
3 | 22:56.63 | 16:51.55 | 103263 | 179142
4 | 39:48.43 | 8:29.25 | 179143 | 217342
5 | 48:17.68 | 7:23.57 | 217343 | 250624
6 | 55:41.50 | 6:56.20 | 250625 | 281844
7 | 62:37.70 | 10:31.03 | 281845 | 329172


Track 1

Filename D:\Coleman Hawkins - Hawkins! Eldridge! Hodges! Alive! At The Village Gate! (1962) [FLAC]\01 - Satin Doll.wav

Pre-gap length 0:00:02.33

Peak level 91.6 %
Extraction speed 3.0 X
Track quality 100.0 %
Test CRC 5FB13F23
Copy CRC 5FB13F23
Accurately ripped (confidence 3) [B84D5E2B]
Copy OK

Track 2

Filename D:\Coleman Hawkins - Hawkins! Eldridge! Hodges! Alive! At The Village Gate! (1962) [FLAC]\02 - Perdido.wav

Pre-gap length 0:00:02.60

Peak level 96.2 %
Extraction speed 3.7 X
Track quality 100.0 %
Test CRC DCD93BF8
Copy CRC DCD93BF8
Accurately ripped (confidence 3) [88F8CDA9]
Copy OK

Track 3

Filename D:\Coleman Hawkins - Hawkins! Eldridge! Hodges! Alive! At The Village Gate! (1962) [FLAC]\03 - Rabbit in Jazz.wav

Pre-gap length 0:00:02.58

Peak level 89.1 %
Extraction speed 4.4 X
Track quality 100.0 %
Test CRC EAACBCF9
Copy CRC EAACBCF9
Accurately ripped (confidence 3) [8A13E89D]
Copy OK

Track 4

Filename D:\Coleman Hawkins - Hawkins! Eldridge! Hodges! Alive! At The Village Gate! (1962) [FLAC]\04 - MacK the Kiife.wav

Pre-gap length 0:00:02.60

Peak level 78.4 %
Extraction speed 4.8 X
Track quality 100.0 %
Test CRC 75BB0BEA
Copy CRC 75BB0BEA
Accurately ripped (confidence 3) [CEF8EEDB]
Copy OK

Track 5

Filename D:\Coleman Hawkins - Hawkins! Eldridge! Hodges! Alive! At The Village Gate! (1962) [FLAC]\05 - Talk of Town.wav

Peak level 68.0 %
Extraction speed 5.1 X
Track quality 100.0 %
Test CRC 2840B5A8
Copy CRC 2840B5A8
Accurately ripped (confidence 3) [151130C3]
Copy OK

Track 6

Filename D:\Coleman Hawkins - Hawkins! Eldridge! Hodges! Alive! At The Village Gate! (1962) [FLAC]\06 - Bean and Boys.wav

Peak level 91.1 %
Extraction speed 5.3 X
Track quality 100.0 %
Test CRC 8666A567
Copy CRC 8666A567
Accurately ripped (confidence 3) [C53331C6]
Copy OK

Track 7

Filename D:\Coleman Hawkins - Hawkins! Eldridge! Hodges! Alive! At The Village Gate! (1962) [FLAC]\07 - Caravan.wav

Pre-gap length 0:00:02.60

Peak level 100.0 %
Extraction speed 5.8 X
Track quality 100.0 %
Test CRC 404FA01E
Copy CRC 404FA01E
Accurately ripped (confidence 3) [EA667D29]
Copy OK


All tracks accurately ripped

No errors occurred

End of status report

==== Log checksum 0C340D9A173C7ED4AFE62A4101D6F6E935E9B08BF3A925EE038AF6D8A2E37051 ====


Coleman Hawkins - Hawkins! Eldridge! Hodges! Alive! At The Village Gate! (1962) {Verve 513 755-2 rel 1992}

Coleman Hawkins - Hawkins! Eldridge! Hodges! Alive! At The Village Gate! (1962) {Verve 513 755-2 rel 1992}



===