Subcategories

Helios - Caesura

Posted By: FLESH
Helios - Caesura

Helios - Caesura
Electronic, Rock, Acoustic, Downtempo, Ambient
FLAC+cue+log | 278.0 Mb | MP3, 192 Kbps | 67.5 Mb | Covers
Label: Type Records | Catalog#: TYPE042 | Country: UK | Released: 11 Nov 2008

Tracklisting:
1 Hope Valley Hill (5:18)
2 Come With Nothings (5:03)
3 Glimpse (5:51)
4 Fourteen Drawings (4:32)
5 Backlight (4:50)
6 The Red Truth (4:38)
7 A Mountain Of Ice (4:24)
8 Mima (4:40)
9 Shoulder To Hand (5:17)
10 Hollie (4:38)

Exact Audio Copy V0.99 prebeta 4 from 23. January 2008

EAC extraction logfile from 7. December 2008, 15:38

Helios / Caesura

Used drive : TEAC CD-W540E Adapter: 3 ID: 0

Read mode : Secure
Utilize accurate stream : Yes
Defeat audio cache : Yes
Make use of C2 pointers : No

Read offset correction : 686
Overread into Lead-In and Lead-Out : No
Fill up missing offset samples with silence : Yes
Delete leading and trailing silent blocks : No
Null samples used in CRC calculations : Yes
Used interface : Native Win32 interface for Win NT & 2000

Used output format : Internal WAV Routines
Sample format : 44.100 Hz; 16 Bit; Stereo


TOC of the extracted CD

Track | Start | Length | Start sector | End sector
––––––––––––––––––––––––––––-
1 | 0:00.00 | 5:18.11 | 0 | 23860
2 | 5:18.11 | 5:03.18 | 23861 | 46603
3 | 10:21.29 | 5:51.29 | 46604 | 72957
4 | 16:12.58 | 4:32.40 | 72958 | 93397
5 | 20:45.23 | 4:50.13 | 93398 | 115160
6 | 25:35.36 | 4:38.53 | 115161 | 136063
7 | 30:14.14 | 4:24.58 | 136064 | 155921
8 | 34:38.72 | 4:40.44 | 155922 | 176965
9 | 39:19.41 | 5:17.00 | 176966 | 200740
10 | 44:36.41 | 4:38.34 | 200741 | 221624


Range status and errors

Selected range

Filename F:\www.subj.biz\Моя музыка\Helios - Caesura\Helios - Caesura.wav

Peak level 96.8 %
Range quality 100.0 %
Copy CRC 2F6AEFCA
Copy OK

No errors occurred


AccurateRip summary

Track 1 not present in database
Track 2 not present in database
Track 3 not present in database
Track 4 not present in database
Track 5 not present in database
Track 6 not present in database
Track 7 not present in database
Track 8 not present in database
Track 9 not present in database
Track 10 not present in database

None of the tracks are present in the AccurateRip database

End of status report


lossless
Скачать с RapidShare
Part 1 | Part 2 | Part 3

MP3
Скачать с RapidShare
MP3

Covers
Covers

Folder1 Music RapidShare
Folder2 Music RapidShare

Welcome to my Blog