Subcategories

Ike & Tina Turner - The Archive Series Volumes 1 - 6 (2009) {6CD Set Yellow Label-SPV Digitally remastered}

Posted By: ruskaval
Ike & Tina Turner - The Archive Series Volumes 1 - 6 (2009) {6CD Set Yellow Label-SPV Digitally remastered}

Ike & Tina Turner - The Archive Series Volumes 1 - 6 (2009) {6CD Set Yellow Label-SPV Digitally remastered}
EAC rip (secure mode) | FLAC (tracks)+CUE+LOG -> 2.04 Gb | MP3 @320 -> 804 Mb
Full Artwork @ 300 dpi (png) -> 186 Mb | 5% repair rar
© 2009 Yellow Label / SPV GmbH
R&B / Funk / Soul / Rock'n Roll

SPV launched their series of archival Ike & Tina Turner collections with this double-disc set, which curiously enough is the least interesting installment in the program so far. The Archive Series, Vols. 1 & 2: Hits and Classics is devoted to songs already familiar to casual listeners, but the only real-deal Ike & Tina hits included on this set are "It's Gonna Work Out Fine," "Nutbush City Limits," "Proud Mary," and "River Deep, Mountain High" (the latter two each appearing twice), while nearly everything else is a cover of a tune associated with another artist.

The tracks collected here are all alternate takes or live recordings, so you're not going to hear the performances of these songs you're likely to remember; the bodaciously funky arrangements of "River Deep, Mountain High" that pop up here are a lot more Ike Turner than Phil Spector ("It Only Took a Moment," credited to the Ikettes, sounds much more like Mr. Wall of Sound's work, with Tina all but inaudible and the singers clearly aping the Crystals), while the recut of "It's Gonna Work out Fine" is a solid but grooved-up version from the 1970s. Ike & Tina sound just fine shaking out R&B classics like "Ooh Poo Pah Doo," "Knock on Wood," and "Tweedle Dee," but "Ode to Billy Joe," "Something," and "Stand by Me" are not the sort of stuff this act was ever meant to play, though there's no arguing that Tina never gives less than a hundred percent and Ike and his sidemen sound tight and emphatic on even the most wrong-headed material. The liner notes offer no information about recording dates, musicians, or other such details, and can't even get the most simple facts straight; "Don't Look Back," credited to "Unknown," is actually "She Belongs to Me" by a little-known tunesmith named Bob Dylan. (What? You've heard of him?) The other episodes in SPV's Archive Series unearth some worthwhile buried treasure, but most of what's on Hits and Classics slipped through the cracks for a reason, though even when Ike & Tina Turner were heading the wrong way they clearly traveled there in style.

Ike & Tina Turner - The Archive Series Volumes 1 - 6 (2009) {6CD Set Yellow Label-SPV Digitally remastered}

The Archive Series, Vols. 1 & 2: Hits and Classics - SPV 305912 2CD


Tracklist:
Volume 1:

01 - Nutbush City Limits
02 - Don't Fight It (Feel It)
03 - River Deep Mountain High (Version)
04 - Help Me Make It (Through The Night)
05 - Come Together
06 - Money
07 - Living For The City
08 - I Gotta Man
09 - Ya Ya
10 - Louie Louie
11 - The Locomotion
12 - Tweedle Dee
13 - Beauty Is Just Skin Deep (The Ikettes)
14 - Stand By Me
15 - Ode To Billy Joe
16 - Drift Away
17 - Proud Mary
18 - Get Back
19 - Gimme Some Lovin'

Ike & Tina Turner - The Archive Series Volumes 1 - 6 (2009) {6CD Set Yellow Label-SPV Digitally remastered}


Volume 2:
01 - River Deep, Mountain High
02 - I Wanna Take You Higher
03 - I Wanna Jump
04 - You Are My Sunshine (Live)
05 - Sugar Sugar
06 - Twist And Shout
07 - Philadelphia Freedom
08 - It Only Took A Moment (The Ikettes)
09 - You're No Good (The Ikettes)
10 - Proud Mary (Live)
11 - Shame Shame Shame
12 - I Can't Stop Loving You (Live)
13 - Think It's Gonna Work Out Fine
14 - Don't Look Back
15 - Lean On Me
16 - Knock On Wood
17 - Keeps You Guessing
18 - Ain't Nobody's Business
19 - So Fine
20 - Ooh Poo Pah Doo (Live)
21 - Something

Ike & Tina Turner - The Archive Series Volumes 1 - 6 (2009) {6CD Set Yellow Label-SPV Digitally remastered}


Exact Audio Copy V0.99 prebeta 5 from 4. May 2009

EAC extraction logfile from 23. February 2010, 17:42

Ike & Tina Turner / THE HITS & CLASSICS Vol.1 CD.1

Used drive : PIONEER DVD-RW DVR-112D Adapter: 5 ID: 1

Read mode : Secure
Utilize accurate stream : Yes
Defeat audio cache : Yes
Make use of C2 pointers : No

Read offset correction : 48
Overread into Lead-In and Lead-Out : No
Fill up missing offset samples with silence : Yes
Delete leading and trailing silent blocks : No
Null samples used in CRC calculations : Yes
Used interface : Installed external ASPI interface
Gap handling : Appended to previous track

Used output format : User Defined Encoder
Selected bitrate : 320 kBit/s
Quality : High
Add ID3 tag : No
Command line compressor : C:\Programme\FLAC\flac.exe
Additional command line options : -8 -V -T "ARTIST=%a" -T "TITLE=%t" -T "ALBUM=%g" -T "DATE=%y" -T "TRACKNUMBER=%n" -T "TOTALTRACKS=%x" -T "GENRE=%m" -T "ALBUMARTIST=%v" -T "ALBUM ARTIST=%v" -T "COMMENT=EAC V0.99 prebeta 4, Secure Mode, Test & Copy, Accurat


TOC of the extracted CD

Track | Start | Length | Start sector | End sector
––––––––––––––––––––––––––––-
1 | 0:00.00 | 2:54.56 | 0 | 13105
2 | 2:54.56 | 2:09.44 | 13106 | 22824
3 | 5:04.25 | 3:55.65 | 22825 | 40514
4 | 9:00.15 | 2:55.12 | 40515 | 53651
5 | 11:55.27 | 3:36.52 | 53652 | 69903
6 | 15:32.04 | 2:35.23 | 69904 | 81551
7 | 18:07.27 | 3:25.03 | 81552 | 96929
8 | 21:32.30 | 4:31.10 | 96930 | 117264
9 | 26:03.40 | 2:45.27 | 117265 | 129666
10 | 28:48.67 | 2:41.46 | 129667 | 141787
11 | 31:30.38 | 1:56.71 | 141788 | 150558
12 | 33:27.34 | 3:10.70 | 150559 | 164878
13 | 36:38.29 | 2:13.40 | 164879 | 174893
14 | 38:51.69 | 3:47.16 | 174894 | 191934
15 | 42:39.10 | 4:08.40 | 191935 | 210574
16 | 46:47.50 | 3:18.25 | 210575 | 225449
17 | 50:06.00 | 2:37.73 | 225450 | 237297
18 | 52:43.73 | 2:48.46 | 237298 | 249943
19 | 55:32.44 | 2:39.61 | 249944 | 261929


Track 1

Filename C:\music\Ike & Tina Turner - The Archive Series Volumes 1&2 (2008) [FLAC] {Hits & Classics}\Volume 1\01 - Nutbush City Limits.wav

Pre-gap length 0:00:02.00

Peak level 100.0 %
Track quality 100.0 %
Test CRC C99634EB
Copy CRC C99634EB
Track not present in AccurateRip database
Copy OK

Track 2

Filename C:\music\Ike & Tina Turner - The Archive Series Volumes 1&2 (2008) [FLAC] {Hits & Classics}\Volume 1\02 - Don't Fight It (Feel It).wav

Pre-gap length 0:00:02.00

Peak level 100.0 %
Track quality 100.0 %
Test CRC 94C74EBA
Copy CRC 94C74EBA
Track not present in AccurateRip database
Copy OK

Track 3

Filename C:\music\Ike & Tina Turner - The Archive Series Volumes 1&2 (2008) [FLAC] {Hits & Classics}\Volume 1\03 - River Deep Mountain High (Version).wav

Pre-gap length 0:00:02.00

Peak level 100.0 %
Track quality 100.0 %
Test CRC AA6A04CD
Copy CRC AA6A04CD
Track not present in AccurateRip database
Copy OK

Track 4

Filename C:\music\Ike & Tina Turner - The Archive Series Volumes 1&2 (2008) [FLAC] {Hits & Classics}\Volume 1\04 - Help Me Make It (Through The Night).wav

Pre-gap length 0:00:02.00

Peak level 100.0 %
Track quality 100.0 %
Test CRC 8CF0F267
Copy CRC 8CF0F267
Track not present in AccurateRip database
Copy OK

Track 5

Filename C:\music\Ike & Tina Turner - The Archive Series Volumes 1&2 (2008) [FLAC] {Hits & Classics}\Volume 1\05 - Come Together.wav

Pre-gap length 0:00:02.00

Peak level 100.0 %
Track quality 100.0 %
Test CRC 075DFF81
Copy CRC 075DFF81
Track not present in AccurateRip database
Copy OK

Track 6

Filename C:\music\Ike & Tina Turner - The Archive Series Volumes 1&2 (2008) [FLAC] {Hits & Classics}\Volume 1\06 - Money.wav

Pre-gap length 0:00:02.00

Peak level 100.0 %
Track quality 100.0 %
Test CRC 3052D786
Copy CRC 3052D786
Track not present in AccurateRip database
Copy OK

Track 7

Filename C:\music\Ike & Tina Turner - The Archive Series Volumes 1&2 (2008) [FLAC] {Hits & Classics}\Volume 1\07 - Living For The City.wav

Pre-gap length 0:00:02.00

Peak level 100.0 %
Track quality 100.0 %
Test CRC 535439C2
Copy CRC 535439C2
Track not present in AccurateRip database
Copy OK

Track 8

Filename C:\music\Ike & Tina Turner - The Archive Series Volumes 1&2 (2008) [FLAC] {Hits & Classics}\Volume 1\08 - I Gotta Man.wav

Pre-gap length 0:00:02.00

Peak level 100.0 %
Track quality 100.0 %
Test CRC E17A9788
Copy CRC E17A9788
Track not present in AccurateRip database
Copy OK

Track 9

Filename C:\music\Ike & Tina Turner - The Archive Series Volumes 1&2 (2008) [FLAC] {Hits & Classics}\Volume 1\09 - Ya Ya.wav

Pre-gap length 0:00:02.00

Peak level 100.0 %
Track quality 99.9 %
Test CRC B87DFA33
Copy CRC B87DFA33
Track not present in AccurateRip database
Copy OK

Track 10

Filename C:\music\Ike & Tina Turner - The Archive Series Volumes 1&2 (2008) [FLAC] {Hits & Classics}\Volume 1\10 - Louie Louie.wav

Pre-gap length 0:00:02.00

Peak level 100.0 %
Track quality 100.0 %
Test CRC 58680343
Copy CRC 58680343
Track not present in AccurateRip database
Copy OK

Track 11

Filename C:\music\Ike & Tina Turner - The Archive Series Volumes 1&2 (2008) [FLAC] {Hits & Classics}\Volume 1\11 - The Locomotion.wav

Pre-gap length 0:00:02.00

Peak level 100.0 %
Track quality 100.0 %
Test CRC 57F5F031
Copy CRC 57F5F031
Track not present in AccurateRip database
Copy OK

Track 12

Filename C:\music\Ike & Tina Turner - The Archive Series Volumes 1&2 (2008) [FLAC] {Hits & Classics}\Volume 1\12 - Tweedle Dee.wav

Pre-gap length 0:00:02.00

Peak level 100.0 %
Track quality 99.9 %
Test CRC BC1DE708
Copy CRC BC1DE708
Track not present in AccurateRip database
Copy OK

Track 13

Filename C:\music\Ike & Tina Turner - The Archive Series Volumes 1&2 (2008) [FLAC] {Hits & Classics}\Volume 1\13 - Beauty Is Just Skin Deep (The Ikettes).wav

Pre-gap length 0:00:02.00

Peak level 100.0 %
Track quality 100.0 %
Test CRC 7B28D672
Copy CRC 7B28D672
Track not present in AccurateRip database
Copy OK

Track 14

Filename C:\music\Ike & Tina Turner - The Archive Series Volumes 1&2 (2008) [FLAC] {Hits & Classics}\Volume 1\14 - Stand By Me.wav

Pre-gap length 0:00:02.00

Peak level 100.0 %
Track quality 100.0 %
Test CRC 7CDE6FA3
Copy CRC 7CDE6FA3
Track not present in AccurateRip database
Copy OK

Track 15

Filename C:\music\Ike & Tina Turner - The Archive Series Volumes 1&2 (2008) [FLAC] {Hits & Classics}\Volume 1\15 - Ode To Billy Joe.wav

Pre-gap length 0:00:02.00

Peak level 100.0 %
Track quality 100.0 %
Test CRC 8D25C178
Copy CRC 8D25C178
Track not present in AccurateRip database
Copy OK

Track 16

Filename C:\music\Ike & Tina Turner - The Archive Series Volumes 1&2 (2008) [FLAC] {Hits & Classics}\Volume 1\16 - Drift Away.wav

Pre-gap length 0:00:02.00

Peak level 100.0 %
Track quality 100.0 %
Test CRC 9359D0CD
Copy CRC 9359D0CD
Track not present in AccurateRip database
Copy OK

Track 17

Filename C:\music\Ike & Tina Turner - The Archive Series Volumes 1&2 (2008) [FLAC] {Hits & Classics}\Volume 1\17 - Proud Mary.wav

Pre-gap length 0:00:02.00

Peak level 100.0 %
Track quality 100.0 %
Test CRC 45B31149
Copy CRC 45B31149
Track not present in AccurateRip database
Copy OK

Track 18

Filename C:\music\Ike & Tina Turner - The Archive Series Volumes 1&2 (2008) [FLAC] {Hits & Classics}\Volume 1\18 - Get Back.wav

Pre-gap length 0:00:02.00

Peak level 100.0 %
Track quality 100.0 %
Test CRC 2DAA24C0
Copy CRC 2DAA24C0
Track not present in AccurateRip database
Copy OK

Track 19

Filename C:\music\Ike & Tina Turner - The Archive Series Volumes 1&2 (2008) [FLAC] {Hits & Classics}\Volume 1\19 - Gimme Some Lovin'.wav

Pre-gap length 0:00:02.00

Peak level 100.0 %
Track quality 100.0 %
Test CRC CD644DBD
Copy CRC CD644DBD
Track not present in AccurateRip database
Copy OK


None of the tracks are present in the AccurateRip database

No errors occurred

End of status report

Exact Audio Copy V0.99 prebeta 5 from 4. May 2009

EAC extraction logfile from 23. February 2010, 18:15

Ike & Tina Turner / THE HITS & CLASSICS Vol.2 CD.2

Used drive : PIONEER DVD-RW DVR-112D Adapter: 5 ID: 1

Read mode : Secure
Utilize accurate stream : Yes
Defeat audio cache : Yes
Make use of C2 pointers : No

Read offset correction : 48
Overread into Lead-In and Lead-Out : No
Fill up missing offset samples with silence : Yes
Delete leading and trailing silent blocks : No
Null samples used in CRC calculations : Yes
Used interface : Installed external ASPI interface
Gap handling : Appended to previous track

Used output format : User Defined Encoder
Selected bitrate : 320 kBit/s
Quality : High
Add ID3 tag : No
Command line compressor : C:\Programme\FLAC\flac.exe
Additional command line options : -8 -V -T "ARTIST=%a" -T "TITLE=%t" -T "ALBUM=%g" -T "DATE=%y" -T "TRACKNUMBER=%n" -T "TOTALTRACKS=%x" -T "GENRE=%m" -T "ALBUMARTIST=%v" -T "ALBUM ARTIST=%v" -T "COMMENT=EAC V0.99 prebeta 4, Secure Mode, Test & Copy, Accurat


TOC of the extracted CD

Track | Start | Length | Start sector | End sector
––––––––––––––––––––––––––––-
1 | 0:00.00 | 3:27.06 | 0 | 15530
2 | 3:27.06 | 2:51.27 | 15531 | 28382
3 | 6:18.33 | 2:35.31 | 28383 | 40038
4 | 8:53.64 | 3:18.37 | 40039 | 54925
5 | 12:12.26 | 2:37.49 | 54926 | 66749
6 | 14:50.00 | 2:58.70 | 66750 | 80169
7 | 17:48.70 | 4:10.04 | 80170 | 98923
8 | 21:58.74 | 2:26.41 | 98924 | 109914
9 | 24:25.40 | 2:39.19 | 109915 | 121858
10 | 27:04.59 | 6:57.12 | 121859 | 153145
11 | 34:01.71 | 2:46.30 | 153146 | 165625
12 | 36:48.26 | 3:42.60 | 165626 | 182335
13 | 40:31.11 | 2:25.62 | 182336 | 193272
14 | 42:56.73 | 4:00.26 | 193273 | 211298
15 | 46:57.24 | 3:06.01 | 211299 | 225249
16 | 50:03.25 | 2:31.15 | 225250 | 236589
17 | 52:34.40 | 3:10.25 | 236590 | 250864
18 | 55:44.65 | 2:03.32 | 250865 | 260121
19 | 57:48.22 | 2:34.17 | 260122 | 271688
20 | 60:22.39 | 3:03.66 | 271689 | 285479
21 | 63:26.30 | 4:03.00 | 285480 | 303704


Track 1

Filename C:\music\Ike & Tina Turner - The Archive Series Volumes 1&2 (2008) [FLAC] {Hits & Classics}\Volume 2\01 - River Deep, Mountain High.wav

Pre-gap length 0:00:02.00

Peak level 100.0 %
Track quality 100.0 %
Test CRC 418B97A4
Copy CRC 418B97A4
Track not present in AccurateRip database
Copy OK

Track 2

Filename C:\music\Ike & Tina Turner - The Archive Series Volumes 1&2 (2008) [FLAC] {Hits & Classics}\Volume 2\02 - I Wanna Take You Higher.wav

Pre-gap length 0:00:02.00

Peak level 100.0 %
Track quality 99.9 %
Test CRC 832DC16B
Copy CRC 832DC16B
Track not present in AccurateRip database
Copy OK

Track 3

Filename C:\music\Ike & Tina Turner - The Archive Series Volumes 1&2 (2008) [FLAC] {Hits & Classics}\Volume 2\03 - I Wanna Jump.wav

Pre-gap length 0:00:02.00

Peak level 100.0 %
Track quality 99.9 %
Test CRC BCE8671E
Copy CRC BCE8671E
Track not present in AccurateRip database
Copy OK

Track 4

Filename C:\music\Ike & Tina Turner - The Archive Series Volumes 1&2 (2008) [FLAC] {Hits & Classics}\Volume 2\04 - You Are My Sunshine (Live).wav

Pre-gap length 0:00:02.00

Peak level 100.0 %
Track quality 100.0 %
Test CRC 48D23E68
Copy CRC 48D23E68
Track not present in AccurateRip database
Copy OK

Track 5

Filename C:\music\Ike & Tina Turner - The Archive Series Volumes 1&2 (2008) [FLAC] {Hits & Classics}\Volume 2\05 - Sugar Sugar.wav

Pre-gap length 0:00:02.00

Peak level 82.3 %
Track quality 100.0 %
Test CRC 2353DB54
Copy CRC 2353DB54
Track not present in AccurateRip database
Copy OK

Track 6

Filename C:\music\Ike & Tina Turner - The Archive Series Volumes 1&2 (2008) [FLAC] {Hits & Classics}\Volume 2\06 - Twist And Shout.wav

Pre-gap length 0:00:02.00

Peak level 100.0 %
Track quality 100.0 %
Test CRC 860E3A13
Copy CRC 860E3A13
Track not present in AccurateRip database
Copy OK

Track 7

Filename C:\music\Ike & Tina Turner - The Archive Series Volumes 1&2 (2008) [FLAC] {Hits & Classics}\Volume 2\07 - Philadelphia Freedom.wav

Pre-gap length 0:00:02.00

Peak level 100.0 %
Track quality 99.9 %
Test CRC 1FB8E653
Copy CRC 1FB8E653
Track not present in AccurateRip database
Copy OK

Track 8

Filename C:\music\Ike & Tina Turner - The Archive Series Volumes 1&2 (2008) [FLAC] {Hits & Classics}\Volume 2\08 - It Only Took A Moment (The Ikettes).wav

Pre-gap length 0:00:02.00

Peak level 100.0 %
Track quality 100.0 %
Test CRC A018C890
Copy CRC A018C890
Track not present in AccurateRip database
Copy OK

Track 9

Filename C:\music\Ike & Tina Turner - The Archive Series Volumes 1&2 (2008) [FLAC] {Hits & Classics}\Volume 2\09 - You're No Good (The Ikettes).wav

Pre-gap length 0:00:02.00

Peak level 100.0 %
Track quality 100.0 %
Test CRC 6D280309
Copy CRC 6D280309
Track not present in AccurateRip database
Copy OK

Track 10

Filename C:\music\Ike & Tina Turner - The Archive Series Volumes 1&2 (2008) [FLAC] {Hits & Classics}\Volume 2\10 - Proud Mary (Live).wav

Pre-gap length 0:00:02.00

Peak level 100.0 %
Track quality 99.9 %
Test CRC 470AAB25
Copy CRC 470AAB25
Track not present in AccurateRip database
Copy OK

Track 11

Filename C:\music\Ike & Tina Turner - The Archive Series Volumes 1&2 (2008) [FLAC] {Hits & Classics}\Volume 2\11 - Shame Shame Shame.wav

Pre-gap length 0:00:02.00

Peak level 100.0 %
Track quality 100.0 %
Test CRC 966B36DF
Copy CRC 966B36DF
Track not present in AccurateRip database
Copy OK

Track 12

Filename C:\music\Ike & Tina Turner - The Archive Series Volumes 1&2 (2008) [FLAC] {Hits & Classics}\Volume 2\12 - I Can't Stop Loving You (Live).wav

Pre-gap length 0:00:02.00

Peak level 93.4 %
Track quality 99.9 %
Test CRC C4D9EE8A
Copy CRC C4D9EE8A
Track not present in AccurateRip database
Copy OK

Track 13

Filename C:\music\Ike & Tina Turner - The Archive Series Volumes 1&2 (2008) [FLAC] {Hits & Classics}\Volume 2\13 - Think It's Gonna Work Out Fine.wav

Pre-gap length 0:00:02.00

Peak level 100.0 %
Track quality 100.0 %
Test CRC F5CFBE4D
Copy CRC F5CFBE4D
Track not present in AccurateRip database
Copy OK

Track 14

Filename C:\music\Ike & Tina Turner - The Archive Series Volumes 1&2 (2008) [FLAC] {Hits & Classics}\Volume 2\14 - Don't Look Back.wav

Pre-gap length 0:00:02.00

Peak level 71.9 %
Track quality 100.0 %
Test CRC 5C37722B
Copy CRC 5C37722B
Track not present in AccurateRip database
Copy OK

Track 15

Filename C:\music\Ike & Tina Turner - The Archive Series Volumes 1&2 (2008) [FLAC] {Hits & Classics}\Volume 2\15 - Lean On Me.wav

Pre-gap length 0:00:02.00

Peak level 100.0 %
Track quality 100.0 %
Test CRC B079B0C9
Copy CRC B079B0C9
Track not present in AccurateRip database
Copy OK

Track 16

Filename C:\music\Ike & Tina Turner - The Archive Series Volumes 1&2 (2008) [FLAC] {Hits & Classics}\Volume 2\16 - Knock On Wood.wav

Pre-gap length 0:00:02.00

Peak level 100.0 %
Track quality 100.0 %
Test CRC D17EBD21
Copy CRC D17EBD21
Track not present in AccurateRip database
Copy OK

Track 17

Filename C:\music\Ike & Tina Turner - The Archive Series Volumes 1&2 (2008) [FLAC] {Hits & Classics}\Volume 2\17 - Keeps You Guessing.wav

Pre-gap length 0:00:02.00

Peak level 85.9 %
Track quality 100.0 %
Test CRC 4CCD7314
Copy CRC 4CCD7314
Track not present in AccurateRip database
Copy OK

Track 18

Filename C:\music\Ike & Tina Turner - The Archive Series Volumes 1&2 (2008) [FLAC] {Hits & Classics}\Volume 2\18 - Ain't Nobody's Business.wav

Pre-gap length 0:00:02.00

Peak level 100.0 %
Track quality 100.0 %
Test CRC 26ECDD21
Copy CRC 26ECDD21
Track not present in AccurateRip database
Copy OK

Track 19

Filename C:\music\Ike & Tina Turner - The Archive Series Volumes 1&2 (2008) [FLAC] {Hits & Classics}\Volume 2\19 - So Fine.wav

Pre-gap length 0:00:02.00

Peak level 100.0 %
Track quality 100.0 %
Test CRC 0312EE32
Copy CRC 0312EE32
Track not present in AccurateRip database
Copy OK

Track 20

Filename C:\music\Ike & Tina Turner - The Archive Series Volumes 1&2 (2008) [FLAC] {Hits & Classics}\Volume 2\20 - Ooh Poo Pah Doo (Live).wav

Pre-gap length 0:00:02.00

Peak level 100.0 %
Track quality 100.0 %
Test CRC 97DC6672
Copy CRC 97DC6672
Track not present in AccurateRip database
Copy OK

Track 21

Filename C:\music\Ike & Tina Turner - The Archive Series Volumes 1&2 (2008) [FLAC] {Hits & Classics}\Volume 2\21 - Something.wav

Pre-gap length 0:00:02.00

Peak level 100.0 %
Track quality 100.0 %
Test CRC 1CA2D72A
Copy CRC 1CA2D72A
Track not present in AccurateRip database
Copy OK


None of the tracks are present in the AccurateRip database

No errors occurred

End of status report


Ike & Tina Turner - The Archive Series Volumes 1 - 6 (2009) {6CD Set Yellow Label-SPV Digitally remastered}


===
Ike & Tina Turner - The Archive Series Volumes 1 - 6 (2009) {6CD Set Yellow Label-SPV Digitally remastered}

The Archive Series, Vol. 3: Movin' - SPV 306172 CD

One in a series of six CDs collecting rare and unreleased material by Ike & Tina Turner, Archive Series, Vol. 3: Movin' is a hodgepodge of live and studio material from the 1960s and '70s, with no clarification in the liner notes about what was cut where and when, and who might be backing up the Turners on any of these sessions (though we're told the great New Orleans R&B vocalist Johnny Adams contributed backing vocals on "Bolic"). So this disc is a bit of a mess – but it's a pretty great mess, with lots of excellent soul and funk chestnuts on deck. Leading off with the sweet and swinging funk of "Sweet Rhode Island Red," this set rolls through extended live blues workouts ("My Man's Wedding Vows"), soulful country covers ("I'm Movin' On"), distinctive reworkings of classic R&B numbers ("Stagger Lee and Billy" and "Put on Your Tight Pants," the latter of which is a barely disguised version of "Hi-Heeled Sneakers"), Meters-style Southern funk ("Took a Trip"), swaggering and confident soul ("Gonna Find Me a Substitute"), souped-up girl group numbers ("Troubles on My Mind" by the Ikettes) and lots more. For the most part, the audio quality is just fine (some of the mixes sound just a bit curious, but not so much that they're unlistenable), and Ike and his various bands over the years are tight and enthusiastically grooving throughout, while Tina sounds like a force of nature whenever she chooses to let her vocal cords go to work. The packaging is unimaginative, the liner notes are dodgy (Martin Celmins' essay mentions that this two-disc set includes two versions of "River Deep, Mountain High" – except the package only features one CD and "River Deep" doesn't appear at all) and the sequence jumps all over the pace, but this features 53 minutes of music from one of the greatest acts in R&B when they were near the top of their game. Not great as a historical document, but if you're looking for the good groove, you'll find it here.

Tracklist:
01 - Sweet Rhode Island Red
02 - What Kind Of Love
03 - Rockin' 'n Rolling
04 - Sexy Ida
05 - Took A Trip
06 - No More Lovin'
07 - Bolic (with Johnny Adams)
08 - I'm Movin' On
09 - Gonna Find Me A Substitute
10 - My Man's Wedding Vows
11 - The Twist
12 - Troubles On My Mind (The Ikettes)
13 - Better Get Steppin'
14 - Put On Your Tight Pants (Hi Heel Sneakers)
15 - Done Got Over It
16 - Stagger Lee and Billy
17 - Dust My Broom
18 - Ain't That A Shame

Exact Audio Copy V0.99 prebeta 5 from 4. May 2009

EAC extraction logfile from 20. April 2010, 19:06

Ike & Tina Turner / The Archive Series Volume 3 Movin'

Used drive : Optiarc DVD RW AD-5170A Adapter: 0 ID: 1

Read mode : Secure
Utilize accurate stream : Yes
Defeat audio cache : Yes
Make use of C2 pointers : No

Read offset correction : 48
Overread into Lead-In and Lead-Out : No
Fill up missing offset samples with silence : Yes
Delete leading and trailing silent blocks : No
Null samples used in CRC calculations : Yes
Used interface : Installed external ASPI interface
Gap handling : Appended to previous track

Used output format : User Defined Encoder
Selected bitrate : 320 kBit/s
Quality : High
Add ID3 tag : No
Command line compressor : C:\Programme\Exact Audio Copy\Flac\flac.exe
Additional command line options : -8 -V -T "ARTIST=%a" -T "TITLE=%t" -T "ALBUM=%g" -T "DATE=%y" -T "TRACKNUMBER=%n" -T "TOTALTRACKS=%x" -T "GENRE=%m" -T "ALBUMARTIST=%v" -T "ALBUM ARTIST=%v" -T "COMMENT=EAC V0.99 prebeta 4, Secure Mode, Test & Copy, Accurat


TOC of the extracted CD

Track | Start | Length | Start sector | End sector
––––––––––––––––––––––––––––-
1 | 0:00.00 | 3:08.17 | 0 | 14116
2 | 3:08.17 | 2:18.59 | 14117 | 24525
3 | 5:27.01 | 2:56.49 | 24526 | 37774
4 | 8:23.50 | 2:25.50 | 37775 | 48699
5 | 10:49.25 | 4:07.13 | 48700 | 67237
6 | 14:56.38 | 3:24.17 | 67238 | 82554
7 | 18:20.55 | 2:26.71 | 82555 | 93575
8 | 20:47.51 | 2:45.57 | 93576 | 106007
9 | 23:33.33 | 2:31.56 | 106008 | 117388
10 | 26:05.14 | 6:03.74 | 117389 | 144687
11 | 32:09.13 | 3:27.74 | 144688 | 160286
12 | 35:37.12 | 1:49.04 | 160287 | 168465
13 | 37:26.16 | 2:40.13 | 168466 | 180478
14 | 40:06.29 | 2:50.08 | 180479 | 193236
15 | 42:56.37 | 2:37.24 | 193237 | 205035
16 | 45:33.61 | 2:48.57 | 205036 | 217692
17 | 48:22.43 | 2:37.10 | 217693 | 229477
18 | 50:59.53 | 2:28.11 | 229478 | 240588


Track 1

Filename E:\music\Ike & Tina Turner - The Archive Series Volume3 (2009) [FLAC] {Movin'}\01 - Sweet Rhode Island Red.wav

Pre-gap length 0:00:02.00

Peak level 100.0 %
Track quality 99.8 %
Test CRC 80DD6956
Copy CRC 80DD6956
Track not present in AccurateRip database
Copy OK

Track 2

Filename E:\music\Ike & Tina Turner - The Archive Series Volume3 (2009) [FLAC] {Movin'}\02 - What Kind Of Love.wav

Pre-gap length 0:00:02.00

Peak level 100.0 %
Track quality 99.9 %
Test CRC 2A7FAFD9
Copy CRC 2A7FAFD9
Track not present in AccurateRip database
Copy OK

Track 3

Filename E:\music\Ike & Tina Turner - The Archive Series Volume3 (2009) [FLAC] {Movin'}\03 - Rockin' 'n Rolling.wav

Pre-gap length 0:00:02.00

Peak level 100.0 %
Track quality 99.9 %
Test CRC 4AF50604
Copy CRC 4AF50604
Track not present in AccurateRip database
Copy OK

Track 4

Filename E:\music\Ike & Tina Turner - The Archive Series Volume3 (2009) [FLAC] {Movin'}\04 - Sexy Ida.wav

Pre-gap length 0:00:02.00

Peak level 100.0 %
Track quality 100.0 %
Test CRC 14217D3B
Copy CRC 14217D3B
Track not present in AccurateRip database
Copy OK

Track 5

Filename E:\music\Ike & Tina Turner - The Archive Series Volume3 (2009) [FLAC] {Movin'}\05 - Took A Trip.wav

Pre-gap length 0:00:02.00

Peak level 100.0 %
Track quality 100.0 %
Test CRC CE83A224
Copy CRC CE83A224
Track not present in AccurateRip database
Copy OK

Track 6

Filename E:\music\Ike & Tina Turner - The Archive Series Volume3 (2009) [FLAC] {Movin'}\06 - No More Lovin'.wav

Pre-gap length 0:00:02.00

Peak level 100.0 %
Track quality 99.9 %
Test CRC 13E2C069
Copy CRC 13E2C069
Track not present in AccurateRip database
Copy OK

Track 7

Filename E:\music\Ike & Tina Turner - The Archive Series Volume3 (2009) [FLAC] {Movin'}\07 - Bolic (with Johnny Adams).wav

Pre-gap length 0:00:02.00

Peak level 100.0 %
Track quality 100.0 %
Test CRC 8C27AC62
Copy CRC 8C27AC62
Track not present in AccurateRip database
Copy OK

Track 8

Filename E:\music\Ike & Tina Turner - The Archive Series Volume3 (2009) [FLAC] {Movin'}\08 - I'm Movin' On.wav

Pre-gap length 0:00:02.00

Peak level 100.0 %
Track quality 100.0 %
Test CRC A6FFC785
Copy CRC A6FFC785
Track not present in AccurateRip database
Copy OK

Track 9

Filename E:\music\Ike & Tina Turner - The Archive Series Volume3 (2009) [FLAC] {Movin'}\09 - Gonna Find Me A Substitute.wav

Pre-gap length 0:00:02.00

Peak level 100.0 %
Track quality 99.9 %
Test CRC 9E855D3E
Copy CRC 9E855D3E
Track not present in AccurateRip database
Copy OK

Track 10

Filename E:\music\Ike & Tina Turner - The Archive Series Volume3 (2009) [FLAC] {Movin'}\10 - My Man's Wedding Vows.wav

Pre-gap length 0:00:02.00

Peak level 100.0 %
Track quality 100.0 %
Test CRC F70D6860
Copy CRC F70D6860
Track not present in AccurateRip database
Copy OK

Track 11

Filename E:\music\Ike & Tina Turner - The Archive Series Volume3 (2009) [FLAC] {Movin'}\11 - The Twist.wav

Pre-gap length 0:00:02.00

Peak level 100.0 %
Track quality 99.9 %
Test CRC 10F4D017
Copy CRC 10F4D017
Track not present in AccurateRip database
Copy OK

Track 12

Filename E:\music\Ike & Tina Turner - The Archive Series Volume3 (2009) [FLAC] {Movin'}\12 - Troubles On My Mind (The Ikettes).wav

Pre-gap length 0:00:02.00

Peak level 100.0 %
Track quality 100.0 %
Test CRC 57E3BC06
Copy CRC 57E3BC06
Track not present in AccurateRip database
Copy OK

Track 13

Filename E:\music\Ike & Tina Turner - The Archive Series Volume3 (2009) [FLAC] {Movin'}\13 - Better Get Steppin'.wav

Pre-gap length 0:00:02.00

Peak level 100.0 %
Track quality 100.0 %
Test CRC 30DC390F
Copy CRC 30DC390F
Track not present in AccurateRip database
Copy OK

Track 14

Filename E:\music\Ike & Tina Turner - The Archive Series Volume3 (2009) [FLAC] {Movin'}\14 - Put On Your Tight Pants (Hi Heel Sneakers).wav

Pre-gap length 0:00:02.00

Peak level 100.0 %
Track quality 100.0 %
Test CRC 1E21D990
Copy CRC 1E21D990
Track not present in AccurateRip database
Copy OK

Track 15

Filename E:\music\Ike & Tina Turner - The Archive Series Volume3 (2009) [FLAC] {Movin'}\15 - Done Got Over It.wav

Pre-gap length 0:00:02.00

Peak level 100.0 %
Track quality 100.0 %
Test CRC 1BF9E173
Copy CRC 1BF9E173
Track not present in AccurateRip database
Copy OK

Track 16

Filename E:\music\Ike & Tina Turner - The Archive Series Volume3 (2009) [FLAC] {Movin'}\16 - Stagger Lee and Billy.wav

Pre-gap length 0:00:02.00

Peak level 100.0 %
Track quality 100.0 %
Test CRC D662A982
Copy CRC D662A982
Track not present in AccurateRip database
Copy OK

Track 17

Filename E:\music\Ike & Tina Turner - The Archive Series Volume3 (2009) [FLAC] {Movin'}\17 - Dust My Broom.wav

Pre-gap length 0:00:02.00

Peak level 100.0 %
Track quality 100.0 %
Test CRC C7C87E9D
Copy CRC C7C87E9D
Track not present in AccurateRip database
Copy OK

Track 18

Filename E:\music\Ike & Tina Turner - The Archive Series Volume3 (2009) [FLAC] {Movin'}\18 - Ain't That A Shame.wav

Pre-gap length 0:00:02.00

Peak level 100.0 %
Track quality 100.0 %
Test CRC A9087D33
Copy CRC A9087D33
Track not present in AccurateRip database
Copy OK


None of the tracks are present in the AccurateRip database

No errors occurred

End of status report


Ike & Tina Turner - The Archive Series Volumes 1 - 6 (2009) {6CD Set Yellow Label-SPV Digitally remastered}

Ike & Tina Turner - The Archive Series Volumes 1 - 6 (2009) {6CD Set Yellow Label-SPV Digitally remastered}


===
Ike & Tina Turner - The Archive Series Volumes 1 - 6 (2009) {6CD Set Yellow Label-SPV Digitally remastered}

The Archive Series, Vol. 4: Shakin' - SPV 306182 CD

Ike & Tina Turner were one of the most powerful forces in R&B during their heyday in the 1960s and '70s, and the six-volume ARCHIVES series collects valuable live and studio rarities from the duo's prime. Volume four, SHAKIN', features a number of Ike originals such as "I'm Gonna Cut You Loose," as well as smokin' takes on Lloyd Price's "Stagger Lee" and Etta James's "Something's Got a Hold on Me." While Ike Turner is an undisputed rock-&-roll legend and a brilliant arranger and band leader, the main attraction here is, as one might expect, Tina Turner.

Tracklist:
01 - Poor Fool
02 - Good Good Loving
03 - Something's Got A Hold On Me
04 - I Had A Notion
05 - Too Many Tears In My Eyes
06 - I'm Gonna Cut You Loose
07 - (Am I) A Fool In Love
08 - This Man's Crazy
09 - Stagger Lee
10 - Oh My My (Can You Boogie)
11 - Why Oh Why
12 - Poor Little Fool
13 - I'm Falling In Love
14 - Kinda Strange
15 - Shake A Tail Feather
16 - Why Should I
17 - You Paid Me Back
18 - You Can't Blame Me
19 - There's Nothing I Wouldn't Do
20 - Let The Good Times Roll

Exact Audio Copy V0.99 prebeta 5 from 4. May 2009

EAC extraction logfile from 20. April 2010, 18:20

Ike & Tina Turner / The Archive Series Vol 4 Shakin'

Used drive : Optiarc DVD RW AD-5170A Adapter: 0 ID: 1

Read mode : Secure
Utilize accurate stream : Yes
Defeat audio cache : Yes
Make use of C2 pointers : No

Read offset correction : 48
Overread into Lead-In and Lead-Out : No
Fill up missing offset samples with silence : Yes
Delete leading and trailing silent blocks : No
Null samples used in CRC calculations : Yes
Used interface : Installed external ASPI interface
Gap handling : Appended to previous track

Used output format : User Defined Encoder
Selected bitrate : 320 kBit/s
Quality : High
Add ID3 tag : No
Command line compressor : C:\Programme\Exact Audio Copy\Flac\flac.exe
Additional command line options : -8 -V -T "ARTIST=%a" -T "TITLE=%t" -T "ALBUM=%g" -T "DATE=%y" -T "TRACKNUMBER=%n" -T "TOTALTRACKS=%x" -T "GENRE=%m" -T "ALBUMARTIST=%v" -T "ALBUM ARTIST=%v" -T "COMMENT=EAC V0.99 prebeta 4, Secure Mode, Test & Copy, Accurat


TOC of the extracted CD

Track | Start | Length | Start sector | End sector
––––––––––––––––––––––––––––-
1 | 0:00.00 | 2:29.60 | 0 | 11234
2 | 2:29.60 | 2:24.44 | 11235 | 22078
3 | 4:54.29 | 2:36.12 | 22079 | 33790
4 | 7:30.41 | 2:23.63 | 33791 | 44578
5 | 9:54.29 | 2:42.71 | 44579 | 56799
6 | 12:37.25 | 2:35.08 | 56800 | 68432
7 | 15:12.33 | 2:51.24 | 68433 | 81281
8 | 18:03.57 | 1:46.17 | 81282 | 89248
9 | 19:49.74 | 2:43.61 | 89249 | 101534
10 | 22:33.60 | 3:06.27 | 101535 | 115511
11 | 25:40.12 | 2:42.28 | 115512 | 127689
12 | 28:22.40 | 2:44.50 | 127690 | 140039
13 | 31:07.15 | 2:20.35 | 140040 | 150574
14 | 33:27.50 | 2:41.35 | 150575 | 162684
15 | 36:09.10 | 2:16.41 | 162685 | 172925
16 | 38:25.51 | 1:26.48 | 172926 | 179423
17 | 39:52.24 | 4:29.28 | 179424 | 199626
18 | 44:21.52 | 2:10.36 | 199627 | 209412
19 | 46:32.13 | 2:43.26 | 209413 | 221663
20 | 49:15.39 | 2:21.59 | 221664 | 232297


Track 1

Filename E:\music\Ike & Tina Turner - The Archive Series Volume 4 (2009) [FLAC] {Shakin'}\01 - Poor Fool.wav

Pre-gap length 0:00:02.00

Peak level 100.0 %
Track quality 100.0 %
Test CRC 6DD9AEC6
Copy CRC 6DD9AEC6
Track not present in AccurateRip database
Copy OK

Track 2

Filename E:\music\Ike & Tina Turner - The Archive Series Volume 4 (2009) [FLAC] {Shakin'}\02 - Good Good Loving.wav

Pre-gap length 0:00:02.00

Peak level 100.0 %
Track quality 100.0 %
Test CRC DF9A9964
Copy CRC DF9A9964
Track not present in AccurateRip database
Copy OK

Track 3

Filename E:\music\Ike & Tina Turner - The Archive Series Volume 4 (2009) [FLAC] {Shakin'}\03 - Something's Got A Hold On Me.wav

Pre-gap length 0:00:02.00

Peak level 100.0 %
Track quality 100.0 %
Test CRC A55F5239
Copy CRC A55F5239
Track not present in AccurateRip database
Copy OK

Track 4

Filename E:\music\Ike & Tina Turner - The Archive Series Volume 4 (2009) [FLAC] {Shakin'}\04 - I Had A Notion.wav

Pre-gap length 0:00:02.00

Peak level 100.0 %
Track quality 100.0 %
Test CRC 91E99B2B
Copy CRC 91E99B2B
Track not present in AccurateRip database
Copy OK

Track 5

Filename E:\music\Ike & Tina Turner - The Archive Series Volume 4 (2009) [FLAC] {Shakin'}\05 - Too Many Tears In My Eyes.wav

Pre-gap length 0:00:02.00

Peak level 100.0 %
Track quality 100.0 %
Test CRC 88769DF5
Copy CRC 88769DF5
Track not present in AccurateRip database
Copy OK

Track 6

Filename E:\music\Ike & Tina Turner - The Archive Series Volume 4 (2009) [FLAC] {Shakin'}\06 - I'm Gonna Cut You Loose.wav

Pre-gap length 0:00:02.00

Peak level 100.0 %
Track quality 100.0 %
Test CRC FC18F49C
Copy CRC FC18F49C
Track not present in AccurateRip database
Copy OK

Track 7

Filename E:\music\Ike & Tina Turner - The Archive Series Volume 4 (2009) [FLAC] {Shakin'}\07 - (Am I) A Fool In Love.wav

Pre-gap length 0:00:02.00

Peak level 100.0 %
Track quality 99.9 %
Test CRC E9F76DA1
Copy CRC E9F76DA1
Track not present in AccurateRip database
Copy OK

Track 8

Filename E:\music\Ike & Tina Turner - The Archive Series Volume 4 (2009) [FLAC] {Shakin'}\08 - This Man's Crazy.wav

Pre-gap length 0:00:02.00

Peak level 100.0 %
Track quality 99.8 %
Test CRC 656E4848
Copy CRC 656E4848
Track not present in AccurateRip database
Copy OK

Track 9

Filename E:\music\Ike & Tina Turner - The Archive Series Volume 4 (2009) [FLAC] {Shakin'}\09 - Stagger Lee.wav

Pre-gap length 0:00:02.00

Peak level 100.0 %
Track quality 100.0 %
Test CRC 2FC25CA7
Copy CRC 2FC25CA7
Track not present in AccurateRip database
Copy OK

Track 10

Filename E:\music\Ike & Tina Turner - The Archive Series Volume 4 (2009) [FLAC] {Shakin'}\10 - Oh My My (Can You Boogie).wav

Pre-gap length 0:00:02.00

Peak level 100.0 %
Track quality 100.0 %
Test CRC 2D27F80D
Copy CRC 2D27F80D
Track not present in AccurateRip database
Copy OK

Track 11

Filename E:\music\Ike & Tina Turner - The Archive Series Volume 4 (2009) [FLAC] {Shakin'}\11 - Why Oh Why.wav

Pre-gap length 0:00:02.00

Peak level 100.0 %
Track quality 99.9 %
Test CRC 6F40E3B6
Copy CRC 6F40E3B6
Track not present in AccurateRip database
Copy OK

Track 12

Filename E:\music\Ike & Tina Turner - The Archive Series Volume 4 (2009) [FLAC] {Shakin'}\12 - Poor Little Fool.wav

Pre-gap length 0:00:02.00

Peak level 100.0 %
Track quality 100.0 %
Test CRC EF57E7F3
Copy CRC EF57E7F3
Track not present in AccurateRip database
Copy OK

Track 13

Filename E:\music\Ike & Tina Turner - The Archive Series Volume 4 (2009) [FLAC] {Shakin'}\13 - I'm Falling In Love.wav

Pre-gap length 0:00:02.00

Peak level 100.0 %
Track quality 99.9 %
Test CRC 6E35D3B5
Copy CRC 6E35D3B5
Track not present in AccurateRip database
Copy OK

Track 14

Filename E:\music\Ike & Tina Turner - The Archive Series Volume 4 (2009) [FLAC] {Shakin'}\14 - Kinda Strange.wav

Pre-gap length 0:00:02.00

Peak level 100.0 %
Track quality 100.0 %
Test CRC 3FAC0108
Copy CRC 3FAC0108
Track not present in AccurateRip database
Copy OK

Track 15

Filename E:\music\Ike & Tina Turner - The Archive Series Volume 4 (2009) [FLAC] {Shakin'}\15 - Shake A Tail Feather.wav

Pre-gap length 0:00:02.00

Peak level 100.0 %
Track quality 100.0 %
Test CRC 4CF4E5F9
Copy CRC 4CF4E5F9
Track not present in AccurateRip database
Copy OK

Track 16

Filename E:\music\Ike & Tina Turner - The Archive Series Volume 4 (2009) [FLAC] {Shakin'}\16 - Why Should I.wav

Pre-gap length 0:00:02.00

Peak level 100.0 %
Track quality 99.8 %
Test CRC 0DFA66B6
Copy CRC 0DFA66B6
Track not present in AccurateRip database
Copy OK

Track 17

Filename E:\music\Ike & Tina Turner - The Archive Series Volume 4 (2009) [FLAC] {Shakin'}\17 - You Paid Me Back.wav

Pre-gap length 0:00:02.00

Peak level 100.0 %
Track quality 100.0 %
Test CRC 791E5992
Copy CRC 791E5992
Track not present in AccurateRip database
Copy OK

Track 18

Filename E:\music\Ike & Tina Turner - The Archive Series Volume 4 (2009) [FLAC] {Shakin'}\18 - You Can't Blame Me.wav

Pre-gap length 0:00:02.00

Peak level 100.0 %
Track quality 99.9 %
Test CRC 27A82D8D
Copy CRC 27A82D8D
Track not present in AccurateRip database
Copy OK

Track 19

Filename E:\music\Ike & Tina Turner - The Archive Series Volume 4 (2009) [FLAC] {Shakin'}\19 - There's Nothing I Wouldn't Do.wav

Pre-gap length 0:00:02.00

Peak level 100.0 %
Track quality 99.9 %
Test CRC 0737AD8F
Copy CRC 0737AD8F
Track not present in AccurateRip database
Copy OK

Track 20

Filename E:\music\Ike & Tina Turner - The Archive Series Volume 4 (2009) [FLAC] {Shakin'}\20 - Let The Good Times Roll.wav

Pre-gap length 0:00:02.00

Peak level 100.0 %
Track quality 99.9 %
Test CRC 666EED7B
Copy CRC 666EED7B
Track not present in AccurateRip database
Copy OK


None of the tracks are present in the AccurateRip database

No errors occurred

End of status report


Ike & Tina Turner - The Archive Series Volumes 1 - 6 (2009) {6CD Set Yellow Label-SPV Digitally remastered}

Ike & Tina Turner - The Archive Series Volumes 1 - 6 (2009) {6CD Set Yellow Label-SPV Digitally remastered}


===
Ike & Tina Turner - The Archive Series Volumes 1 - 6 (2009) {6CD Set Yellow Label-SPV Digitally remastered}

The Archive Series, Vol. 5: Pushin' - SPV 306432 CD

The fifth disc in SPV's series collecting rare and unreleased tracks from the Ike & Tina Turner archives proves once more what an incredibly consistent act they were – even without the presence of recording dates in the liner notes, it's obvious that this stuff spans the early '60s into the mid-'70s, and just about every track features a killer band blowing up a storm while Tina Turner sounds relentlessly soulful in front of the vocal mike. Kicking off with "Please Leave Me Alone" and "Finger Poppin'," two tracks featuring a big studio band playing polished but dynamic arrangements while Tina and the Ikettes wail as if they could communicate with the gods (any maybe they could), Pushin' also features a passionate gospel-influenced interpretation of the Curtis Mayfield number that gives the set its title; a slinky guitar-driven redo of "I Idolize You"; a cover of "Got My Mojo Working" that dares to turn the Muddy Waters anthem into a funk workout and succeeds; "You Shoulda Treated Me Right," which could pass for the Ray Charles band until Tina starts singing; and the good and greasy "Bootsie Whitelaw," which makes the most of Tina's Southern grit. Like the other volumes in this series, there's no telling when or where this material was recorded, and the fidelity wavers a bit from track to track (though not seriously so), but the sequence works even as the tunes leap back and forth through the decades, and the invariable strength of the performances makes Pushin' a rich and satisfying listening experience. And you're not likely to get better advice from an album this year than "If You Can Hully Gully (I Can Hully Gully Too)."

Tracklist:
01 - Please Leave Me Alone
02 - Finger Poppin'
03 - Shake A Hand
04 - Honey Child, I'm Over
05 - Fun Fun Fun
06 - Keep On Pushin'
07 - You Shoulda Treated Me Right
08 - Stormy Weather
09 - Bootsie Whitelaw
10 - If You Can Hully Gully (I Can Hully Gully Too)
11 - I Idolize You
12 - Got My Mojo Workin'
13 - Suffering With The Blues
14 - Humpty Dumpty
15 - Take The Time
16 - You Can't Have Your Cake
17 - Early One Morning
18 - Mississipi Rollin' Stone

Exact Audio Copy V0.99 prebeta 5 from 4. May 2009

EAC extraction logfile from 20. April 2010, 19:30

Ike & Tina Turner / The Archive Series Vol 5 Pushin'

Used drive : Optiarc DVD RW AD-5170A Adapter: 0 ID: 1

Read mode : Secure
Utilize accurate stream : Yes
Defeat audio cache : Yes
Make use of C2 pointers : No

Read offset correction : 48
Overread into Lead-In and Lead-Out : No
Fill up missing offset samples with silence : Yes
Delete leading and trailing silent blocks : No
Null samples used in CRC calculations : Yes
Used interface : Installed external ASPI interface
Gap handling : Appended to previous track

Used output format : User Defined Encoder
Selected bitrate : 320 kBit/s
Quality : High
Add ID3 tag : No
Command line compressor : C:\Programme\Exact Audio Copy\Flac\flac.exe
Additional command line options : -8 -V -T "ARTIST=%a" -T "TITLE=%t" -T "ALBUM=%g" -T "DATE=%y" -T "TRACKNUMBER=%n" -T "TOTALTRACKS=%x" -T "GENRE=%m" -T "ALBUMARTIST=%v" -T "ALBUM ARTIST=%v" -T "COMMENT=EAC V0.99 prebeta 4, Secure Mode, Test & Copy, Accurat


TOC of the extracted CD

Track | Start | Length | Start sector | End sector
––––––––––––––––––––––––––––-
1 | 0:00.00 | 3:18.67 | 0 | 14916
2 | 3:18.67 | 2:48.50 | 14917 | 27566
3 | 6:07.42 | 3:32.04 | 27567 | 43470
4 | 9:39.46 | 2:13.33 | 43471 | 53478
5 | 11:53.04 | 2:30.67 | 53479 | 64795
6 | 14:23.71 | 2:16.26 | 64796 | 75021
7 | 16:40.22 | 3:42.46 | 75022 | 91717
8 | 20:22.68 | 3:41.12 | 91718 | 108304
9 | 24:04.05 | 3:55.47 | 108305 | 125976
10 | 27:59.52 | 3:13.13 | 125977 | 140464
11 | 31:12.65 | 4:13.44 | 140465 | 159483
12 | 35:26.34 | 3:13.31 | 159484 | 173989
13 | 38:39.65 | 2:17.08 | 173990 | 184272
14 | 40:56.73 | 4:35.21 | 184273 | 204918
15 | 45:32.19 | 2:51.33 | 204919 | 217776
16 | 48:23.52 | 2:54.74 | 217777 | 230900
17 | 51:18.51 | 3:35.41 | 230901 | 247066
18 | 54:54.17 | 2:56.45 | 247067 | 260311


Track 1

Filename E:\music\Ike & Tina Turner - The Archive Series Volume5 (2009) [FLAC] {Pushin'}\01 - Please Leave Me Alone.wav

Pre-gap length 0:00:02.00

Peak level 100.0 %
Track quality 99.9 %
Test CRC C14F462C
Copy CRC C14F462C
Track not present in AccurateRip database
Copy OK

Track 2

Filename E:\music\Ike & Tina Turner - The Archive Series Volume5 (2009) [FLAC] {Pushin'}\02 - Finger Poppin'.wav

Pre-gap length 0:00:02.00

Peak level 99.5 %
Track quality 99.9 %
Test CRC 7D4B0578
Copy CRC 7D4B0578
Track not present in AccurateRip database
Copy OK

Track 3

Filename E:\music\Ike & Tina Turner - The Archive Series Volume5 (2009) [FLAC] {Pushin'}\03 - Shake A Hand.wav

Pre-gap length 0:00:02.00

Peak level 100.0 %
Track quality 100.0 %
Test CRC 185CC186
Copy CRC 185CC186
Track not present in AccurateRip database
Copy OK

Track 4

Filename E:\music\Ike & Tina Turner - The Archive Series Volume5 (2009) [FLAC] {Pushin'}\04 - Honey Child, I'm Over.wav

Pre-gap length 0:00:02.00

Peak level 100.0 %
Track quality 100.0 %
Test CRC 9C7D038A
Copy CRC 9C7D038A
Track not present in AccurateRip database
Copy OK

Track 5

Filename E:\music\Ike & Tina Turner - The Archive Series Volume5 (2009) [FLAC] {Pushin'}\05 - Fun Fun Fun.wav

Pre-gap length 0:00:02.00

Peak level 100.0 %
Track quality 100.0 %
Test CRC C7C77715
Copy CRC C7C77715
Track not present in AccurateRip database
Copy OK

Track 6

Filename E:\music\Ike & Tina Turner - The Archive Series Volume5 (2009) [FLAC] {Pushin'}\06 - Keep On Pushin'.wav

Pre-gap length 0:00:02.00

Peak level 100.0 %
Track quality 100.0 %
Test CRC 26F32A68
Copy CRC 26F32A68
Track not present in AccurateRip database
Copy OK

Track 7

Filename E:\music\Ike & Tina Turner - The Archive Series Volume5 (2009) [FLAC] {Pushin'}\07 - You Shoulda Treated Me Right.wav

Pre-gap length 0:00:02.00

Peak level 100.0 %
Track quality 100.0 %
Test CRC 332CCD0F
Copy CRC 332CCD0F
Track not present in AccurateRip database
Copy OK

Track 8

Filename E:\music\Ike & Tina Turner - The Archive Series Volume5 (2009) [FLAC] {Pushin'}\08 - Stormy Weather.wav

Pre-gap length 0:00:02.00

Peak level 100.0 %
Track quality 99.9 %
Test CRC C519597A
Copy CRC C519597A
Track not present in AccurateRip database
Copy OK

Track 9

Filename E:\music\Ike & Tina Turner - The Archive Series Volume5 (2009) [FLAC] {Pushin'}\09 - Bootsie Whitelaw.wav

Pre-gap length 0:00:02.00

Peak level 100.0 %
Track quality 100.0 %
Test CRC C5651FBA
Copy CRC C5651FBA
Track not present in AccurateRip database
Copy OK

Track 10

Filename E:\music\Ike & Tina Turner - The Archive Series Volume5 (2009) [FLAC] {Pushin'}\10 - If You Can Hully Gully (I Can Hully Gully Too).wav

Pre-gap length 0:00:02.00

Peak level 100.0 %
Track quality 100.0 %
Test CRC E0267704
Copy CRC E0267704
Track not present in AccurateRip database
Copy OK

Track 11

Filename E:\music\Ike & Tina Turner - The Archive Series Volume5 (2009) [FLAC] {Pushin'}\11 - I Idolize You.wav

Pre-gap length 0:00:02.00

Peak level 100.0 %
Track quality 100.0 %
Test CRC ED180D08
Copy CRC ED180D08
Track not present in AccurateRip database
Copy OK

Track 12

Filename E:\music\Ike & Tina Turner - The Archive Series Volume5 (2009) [FLAC] {Pushin'}\12 - Got My Mojo Workin'.wav

Pre-gap length 0:00:02.00

Peak level 100.0 %
Track quality 100.0 %
Test CRC C382D1C9
Copy CRC C382D1C9
Track not present in AccurateRip database
Copy OK

Track 13

Filename E:\music\Ike & Tina Turner - The Archive Series Volume5 (2009) [FLAC] {Pushin'}\13 - Suffering With The Blues.wav

Pre-gap length 0:00:02.00

Peak level 100.0 %
Track quality 100.0 %
Test CRC 281C7AB6
Copy CRC 281C7AB6
Track not present in AccurateRip database
Copy OK

Track 14

Filename E:\music\Ike & Tina Turner - The Archive Series Volume5 (2009) [FLAC] {Pushin'}\14 - Humpty Dumpty.wav

Pre-gap length 0:00:02.00

Peak level 100.0 %
Track quality 99.9 %
Test CRC 40031501
Copy CRC 40031501
Track not present in AccurateRip database
Copy OK

Track 15

Filename E:\music\Ike & Tina Turner - The Archive Series Volume5 (2009) [FLAC] {Pushin'}\15 - Take The Time.wav

Pre-gap length 0:00:02.00

Peak level 100.0 %
Track quality 100.0 %
Test CRC B7FF5472
Copy CRC B7FF5472
Track not present in AccurateRip database
Copy OK

Track 16

Filename E:\music\Ike & Tina Turner - The Archive Series Volume5 (2009) [FLAC] {Pushin'}\16 - You Can't Have Your Cake.wav

Pre-gap length 0:00:02.00

Peak level 75.8 %
Track quality 99.9 %
Test CRC E3DE7443
Copy CRC E3DE7443
Track not present in AccurateRip database
Copy OK

Track 17

Filename E:\music\Ike & Tina Turner - The Archive Series Volume5 (2009) [FLAC] {Pushin'}\17 - Early One Morning.wav

Pre-gap length 0:00:02.00

Peak level 100.0 %
Track quality 100.0 %
Test CRC 1C6CA5F4
Copy CRC 1C6CA5F4
Track not present in AccurateRip database
Copy OK

Track 18

Filename E:\music\Ike & Tina Turner - The Archive Series Volume5 (2009) [FLAC] {Pushin'}\18 - Mississipi Rollin' Stone.wav

Pre-gap length 0:00:02.00

Peak level 100.0 %
Track quality 100.0 %
Test CRC 05C555F9
Copy CRC 05C555F9
Track not present in AccurateRip database
Copy OK


None of the tracks are present in the AccurateRip database

No errors occurred

End of status report


Ike & Tina Turner - The Archive Series Volumes 1 - 6 (2009) {6CD Set Yellow Label-SPV Digitally remastered}

Ike & Tina Turner - The Archive Series Volumes 1 - 6 (2009) {6CD Set Yellow Label-SPV Digitally remastered}


===
Ike & Tina Turner - The Archive Series Volumes 1 - 6 (2009) {6CD Set Yellow Label-SPV Digitally remastered}

The Archive Series, Vol. 6: Rollin' - SPV 306442 CD

Rollin' is the sixth and the last volume (at least for the moment) in SPV's series of compilations featuring rare archival material by Ike & Tina Turner, and it has roughly the same strengths and weaknesses as the other discs that preceded it. Like the earlier volumes, Rollin' has liner notes that don't offer much in the way of specifics about the music included, and absolutely no details about when and where these tracks were recorded (they were clearly cut over a fairly broad span of time) and why they failed to emerge until now. But past these offenses to pop culture scholarship, Rollin' delivers 54 minutes of really great music from one of the truly magnificent acts in the history of R&B. Tina Turner's vocals are invariably powerful and display a greater stylistic range than she's given credit for, and say what you will about Ike Turner as a husband or role model, but these tracks confirm the man was a terrific guitarist and incredible bandleader who led his group through the dawn of soul in the late '50s to the swaggering funk of the 1970s and sounded firmly of the moment at every turn. And together, Ike & Tina could not only write a fine tune but knew how to turn a cover into something entirely their own; cue up the re-imaginings of Bill Withers' "Use Me," Hoyt Axton's "Never Been to Spain," and B.B. King's "Why I Sing the Blues" and you'll hear bold, inventive performances that reconstruct the songs from the ground up. Given the huge amount of material they recorded for a large number of labels, Ike & Tina Turner's music hasn't been given the comprehensive reissue treatment it deserves, but Rollin' (like the other discs in this series) helps make clear just how good and how multifaceted this duo really was, and that's a worthy accomplishment.

Tracklist:
01 - Why I Sing The Blues
02 - Keep On Using Me
03 - Tell The Truth
04 - Golden Empire
05 - I Can't Believe What You Say
06 - Chicken
07 - Still Keep Missing You
08 - It's All Over Now, Baby
09 - Down In The Valley
10 - Baby Get It On
11 - Jo Jo
12 - I'm Right
13 - Tra La La La
14 - Never Been To Spain
15 - Your Love Is Mine
16 - I Know (You Don't Love Me No More)
17 - You'll Always Be My Baby
18 - Give It To Me

Exact Audio Copy V0.99 prebeta 5 from 4. May 2009

EAC extraction logfile from 20. April 2010, 20:07

Ike & Tina Turner / The Archive Series Vol 6 Rollin'

Used drive : Optiarc DVD RW AD-5170A Adapter: 0 ID: 1

Read mode : Secure
Utilize accurate stream : Yes
Defeat audio cache : Yes
Make use of C2 pointers : No

Read offset correction : 48
Overread into Lead-In and Lead-Out : No
Fill up missing offset samples with silence : Yes
Delete leading and trailing silent blocks : No
Null samples used in CRC calculations : Yes
Used interface : Installed external ASPI interface
Gap handling : Appended to previous track

Used output format : User Defined Encoder
Selected bitrate : 320 kBit/s
Quality : High
Add ID3 tag : No
Command line compressor : C:\Programme\Exact Audio Copy\Flac\flac.exe
Additional command line options : -8 -V -T "ARTIST=%a" -T "TITLE=%t" -T "ALBUM=%g" -T "DATE=%y" -T "TRACKNUMBER=%n" -T "TOTALTRACKS=%x" -T "GENRE=%m" -T "ALBUMARTIST=%v" -T "ALBUM ARTIST=%v" -T "COMMENT=EAC V0.99 prebeta 4, Secure Mode, Test & Copy, Accurat


TOC of the extracted CD

Track | Start | Length | Start sector | End sector
––––––––––––––––––––––––––––-
1 | 0:00.00 | 3:24.32 | 0 | 15331
2 | 3:24.32 | 2:37.29 | 15332 | 27135
3 | 6:01.61 | 2:26.62 | 27136 | 38147
4 | 8:28.48 | 3:42.40 | 38148 | 54837
5 | 12:11.13 | 3:30.54 | 54838 | 70641
6 | 15:41.67 | 3:19.46 | 70642 | 85612
7 | 19:01.38 | 3:17.59 | 85613 | 100446
8 | 22:19.22 | 3:17.49 | 100447 | 115270
9 | 25:36.71 | 2:29.15 | 115271 | 126460
10 | 28:06.11 | 3:08.53 | 126461 | 140613
11 | 31:14.64 | 2:35.61 | 140614 | 152299
12 | 33:50.50 | 3:43.73 | 152300 | 169097
13 | 37:34.48 | 2:36.03 | 169098 | 180800
14 | 40:10.51 | 2:52.22 | 180801 | 193722
15 | 43:02.73 | 2:20.33 | 193723 | 204255
16 | 45:23.31 | 2:51.62 | 204256 | 217142
17 | 48:15.18 | 2:08.69 | 217143 | 226811
18 | 50:24.12 | 3:46.40 | 226812 | 243801


Track 1

Filename E:\music\Ike &Tina Turner - The Archive Series - Volume6 (2009) [FLAC] {Rollin'}\01 - Why I Sing The Blues.wav

Pre-gap length 0:00:02.00

Peak level 100.0 %
Track quality 100.0 %
Test CRC 2EEAF6B5
Copy CRC 2EEAF6B5
Track not present in AccurateRip database
Copy OK

Track 2

Filename E:\music\Ike &Tina Turner - The Archive Series - Volume6 (2009) [FLAC] {Rollin'}\02 - Keep On Using Me.wav

Pre-gap length 0:00:02.00

Peak level 100.0 %
Track quality 99.9 %
Test CRC 08C5C40B
Copy CRC 08C5C40B
Track not present in AccurateRip database
Copy OK

Track 3

Filename E:\music\Ike &Tina Turner - The Archive Series - Volume6 (2009) [FLAC] {Rollin'}\03 - Tell The Truth.wav

Pre-gap length 0:00:02.00

Peak level 100.0 %
Track quality 100.0 %
Test CRC 98100BE5
Copy CRC 98100BE5
Track not present in AccurateRip database
Copy OK

Track 4

Filename E:\music\Ike &Tina Turner - The Archive Series - Volume6 (2009) [FLAC] {Rollin'}\04 - Golden Empire.wav

Pre-gap length 0:00:02.00

Peak level 100.0 %
Track quality 100.0 %
Test CRC 25595A05
Copy CRC 25595A05
Track not present in AccurateRip database
Copy OK

Track 5

Filename E:\music\Ike &Tina Turner - The Archive Series - Volume6 (2009) [FLAC] {Rollin'}\05 - I Can't Believe What You Say.wav

Pre-gap length 0:00:02.00

Peak level 100.0 %
Track quality 100.0 %
Test CRC CC947D2D
Copy CRC CC947D2D
Track not present in AccurateRip database
Copy OK

Track 6

Filename E:\music\Ike &Tina Turner - The Archive Series - Volume6 (2009) [FLAC] {Rollin'}\06 - Chicken.wav

Pre-gap length 0:00:02.00

Peak level 100.0 %
Track quality 100.0 %
Test CRC 1E0946EE
Copy CRC 1E0946EE
Track not present in AccurateRip database
Copy OK

Track 7

Filename E:\music\Ike &Tina Turner - The Archive Series - Volume6 (2009) [FLAC] {Rollin'}\07 - Still Keep Missing You.wav

Pre-gap length 0:00:02.00

Peak level 100.0 %
Track quality 100.0 %
Test CRC A8604CA3
Copy CRC A8604CA3
Track not present in AccurateRip database
Copy OK

Track 8

Filename E:\music\Ike &Tina Turner - The Archive Series - Volume6 (2009) [FLAC] {Rollin'}\08 - It's All Over Now, Baby.wav

Pre-gap length 0:00:02.00

Peak level 100.0 %
Track quality 100.0 %
Test CRC 7DDF5543
Copy CRC 7DDF5543
Track not present in AccurateRip database
Copy OK

Track 9

Filename E:\music\Ike &Tina Turner - The Archive Series - Volume6 (2009) [FLAC] {Rollin'}\09 - Down In The Valley.wav

Pre-gap length 0:00:02.00

Peak level 100.0 %
Track quality 100.0 %
Test CRC EA31998C
Copy CRC EA31998C
Track not present in AccurateRip database
Copy OK

Track 10

Filename E:\music\Ike &Tina Turner - The Archive Series - Volume6 (2009) [FLAC] {Rollin'}\10 - Baby Get It On.wav

Pre-gap length 0:00:02.00

Peak level 100.0 %
Track quality 100.0 %
Test CRC 3AADC772
Copy CRC 3AADC772
Track not present in AccurateRip database
Copy OK

Track 11

Filename E:\music\Ike &Tina Turner - The Archive Series - Volume6 (2009) [FLAC] {Rollin'}\11 - Jo Jo.wav

Pre-gap length 0:00:02.00

Peak level 100.0 %
Track quality 100.0 %
Test CRC BFCBD3A8
Copy CRC BFCBD3A8
Track not present in AccurateRip database
Copy OK

Track 12

Filename E:\music\Ike &Tina Turner - The Archive Series - Volume6 (2009) [FLAC] {Rollin'}\12 - I'm Right.wav

Pre-gap length 0:00:02.00

Peak level 100.0 %
Track quality 100.0 %
Test CRC F43B9E7A
Copy CRC F43B9E7A
Track not present in AccurateRip database
Copy OK

Track 13

Filename E:\music\Ike &Tina Turner - The Archive Series - Volume6 (2009) [FLAC] {Rollin'}\13 - Tra La La La.wav

Pre-gap length 0:00:02.00

Peak level 100.0 %
Track quality 99.9 %
Test CRC F3448537
Copy CRC F3448537
Track not present in AccurateRip database
Copy OK

Track 14

Filename E:\music\Ike &Tina Turner - The Archive Series - Volume6 (2009) [FLAC] {Rollin'}\14 - Never Been To Spain.wav

Pre-gap length 0:00:02.00

Peak level 100.0 %
Track quality 100.0 %
Test CRC 000ACA5A
Copy CRC 000ACA5A
Track not present in AccurateRip database
Copy OK

Track 15

Filename E:\music\Ike &Tina Turner - The Archive Series - Volume6 (2009) [FLAC] {Rollin'}\15 - Your Love Is Mine.wav

Pre-gap length 0:00:02.00

Peak level 100.0 %
Track quality 99.9 %
Test CRC D1765576
Copy CRC D1765576
Track not present in AccurateRip database
Copy OK

Track 16

Filename E:\music\Ike &Tina Turner - The Archive Series - Volume6 (2009) [FLAC] {Rollin'}\16 - I Know (You Don't Love Me No More).wav

Pre-gap length 0:00:02.00

Peak level 100.0 %
Track quality 100.0 %
Test CRC D6138E04
Copy CRC D6138E04
Track not present in AccurateRip database
Copy OK

Track 17

Filename E:\music\Ike &Tina Turner - The Archive Series - Volume6 (2009) [FLAC] {Rollin'}\17 - You'll Always Be My Baby.wav

Pre-gap length 0:00:02.00

Peak level 100.0 %
Track quality 100.0 %
Test CRC 8D5572AD
Copy CRC 8D5572AD
Track not present in AccurateRip database
Copy OK

Track 18

Filename E:\music\Ike &Tina Turner - The Archive Series - Volume6 (2009) [FLAC] {Rollin'}\18 - Give It To Me.wav

Pre-gap length 0:00:02.00

Peak level 100.0 %
Track quality 100.0 %
Test CRC 8907BF1A
Copy CRC 8907BF1A
Track not present in AccurateRip database
Copy OK


None of the tracks are present in the AccurateRip database

No errors occurred

End of status report


Ike & Tina Turner - The Archive Series Volumes 1 - 6 (2009) {6CD Set Yellow Label-SPV Digitally remastered}

Ike & Tina Turner - The Archive Series Volumes 1 - 6 (2009) {6CD Set Yellow Label-SPV Digitally remastered}