Tags
Language
Tags

Indian Wells - Where the World Ends (2017) (Japan Edition)

Posted By: shamanicus
Indian Wells - Where the World Ends (2017) (Japan Edition)

Indian Wells - Where the World Ends (2017) (Japan Edition)
EAC Rip | FLAC (tracks+.cue, log) | Artwork (600dpi, png) | 420 mb | MP3 CBR 320kbps | RAR | 210 mb
Experimental, Ambient, Electronic | Label: Plancha / ARTPL-091

In the follow up to 2015’s Night Drops, Italian producer Indian Wells aka Pietro Iannuzzi returns with his third full length. Released via Los Angeles label Friends of Friends - home to the likes of Shlohmo, Nadastrom and Jerome Lol - Where The World Ends tackles the concept of borders that perpetuate our day to day politically, socially and geographically.

Growing up in an isolated region of southern Italy, Indian Wells has long since been aware of the confines and obstructions of borders and boundaries; from the aspect of feeling limited in his output studying in a small city, to the constant reminder of governments imposing borders upon migrants. Indian Wells has created an undulating journey through a sonic landscape which overcomes his borders, creating communication without boundaries through lush textures and vibrant woodwind percussion. Iannuzzi’s tendency to escape to the mountains is present too, take the glistening ambience and muffled altitude heard in ‘The Alps’.

Opener ‘Voices’ gently bubbles, building atmospheric layer upon atmospheric layer. The following track ‘Cascades’ is all in the name, cascading in trance-like synths, shimmering melodies reminiscent of a harp and a simple vocal loop heavy on the reverb. What’s evident throughout Where The World Ends is an inclination to introduce new, weightier sounds towards the latter stages of a track. Sometimes, in the punchy industrial bleeps of ‘Some Stripes’ or the ethereal vocal and atmospheric synths in ‘Forest Hills’, this habit works well. Elsewhere, in the dramatic cymbals in ‘Heart of Lights’ and the shrill bleeps of ‘Les Ardennes’, the change in tone is incongruous.

Most of the tracks on the record are five to six minutes long and there are moments this feels excessive. There’s a fine art to the subtlety of introducing new ideas and textures into a track which has already established its energy. In Where The World Ends, this art is, at times, slightly laboured. This said, Indian Wells sits comfortably in the same realm as the Caribous and Bonobos of the world; blissed out and carefully curated electronic music that excels in melody and atmosphere.

Tracklist:

01. Voices
02. Cascades
03. Forest Hills
04. Some Stripes
05. Heart Of Lights
06. The Alps
07. Les Ardennes
08. It's Where The World Ends
09. Parola
10. Dimension
11. It's Where The World Ends (Luke Abbott Alternative Mix)

Indian Wells - Where the World Ends (2017) (Japan Edition)


Exact Audio Copy V1.3 from 2. September 2016

EAC extraction logfile from 21. September 2017, 23:41

Indian Wells / Where The World Ends

Used drive : PLEXTOR DVDR PX-891SAW Adapter: 1 ID: 0

Read mode : Secure
Utilize accurate stream : Yes
Defeat audio cache : Yes
Make use of C2 pointers : No

Read offset correction : 48
Overread into Lead-In and Lead-Out : No
Fill up missing offset samples with silence : Yes
Delete leading and trailing silent blocks : No
Null samples used in CRC calculations : Yes
Used interface : Native Win32 interface for Win NT & 2000
Gap handling : Appended to previous track

Used output format : User Defined Encoder
Selected bitrate : 1024 kBit/s
Quality : High
Add ID3 tag : No
Command line compressor : C:\Program Files (x86)\Exact Audio Copy\Flac\flac.exe
Additional command line options : -8 -V -T "ARTIST=%artist%" -T "TITLE=%title%" -T "ALBUM=%albumtitle%" -T "DATE=%year%" -T "TRACKNUMBER=%tracknr%" -T "GENRE=%genre%" -T "PERFORMER=%albuminterpret%" -T "COMPOSER=%composer%" %haslyrics%–tag-from-file=LYRICS="%lyricsfile%"%haslyrics% -T "ALBUMARTIST=%albumartist%" -T "DISCNUMBER=%cdnumber%" -T "TOTALDISCS=%totalcds%" -T "TOTALTRACKS=%numtracks%" -T "COMMENT=%comment%" %source% -o %dest%


TOC of the extracted CD

Track | Start | Length | Start sector | End sector
––––––––––––––––––––––––––––-
1 | 0:00.00 | 4:42.25 | 0 | 21174
2 | 4:42.25 | 4:55.56 | 21175 | 43355
3 | 9:38.06 | 5:29.44 | 43356 | 68074
4 | 15:07.50 | 6:36.67 | 68075 | 97841
5 | 21:44.42 | 5:39.24 | 97842 | 123290
6 | 27:23.66 | 6:39.30 | 123291 | 153245
7 | 34:03.21 | 5:36.23 | 153246 | 178468
8 | 39:39.44 | 6:01.23 | 178469 | 205566
9 | 45:40.67 | 4:58.25 | 205567 | 227941
10 | 50:39.17 | 5:39.43 | 227942 | 253409
11 | 56:18.60 | 6:01.24 | 253410 | 280508


Track 1

Filename D:\Rips\01 - Voices.wav

Pre-gap length 0:00:02.00

Peak level 95.4 %
Extraction speed 5.1 X
Track quality 100.0 %
Test CRC 88F51B06
Copy CRC 88F51B06
Track not present in AccurateRip database
Copy OK

Track 2

Filename D:\Rips\02 - Cascades.wav

Peak level 98.8 %
Extraction speed 5.8 X
Track quality 100.0 %
Test CRC CB4EF0E9
Copy CRC CB4EF0E9
Track not present in AccurateRip database
Copy OK

Track 3

Filename D:\Rips\03 - Forest Hills.wav

Peak level 98.8 %
Extraction speed 6.5 X
Track quality 100.0 %
Test CRC E03D21C7
Copy CRC E03D21C7
Track not present in AccurateRip database
Copy OK

Track 4

Filename D:\Rips\04 - Some Stripes.wav

Peak level 95.4 %
Extraction speed 7.2 X
Track quality 100.0 %
Test CRC 056A23BE
Copy CRC 056A23BE
Track not present in AccurateRip database
Copy OK

Track 5

Filename D:\Rips\05 - Heart Of Lights.wav

Peak level 95.4 %
Extraction speed 7.6 X
Track quality 100.0 %
Test CRC 6FB5EFF2
Copy CRC 6FB5EFF2
Track not present in AccurateRip database
Copy OK

Track 6

Filename D:\Rips\06 - The Alps.wav

Peak level 98.8 %
Extraction speed 6.4 X
Track quality 99.9 %
Test CRC 37C366EE
Copy CRC 37C366EE
Track not present in AccurateRip database
Copy OK

Track 7

Filename D:\Rips\07 - Les Ardennes.wav

Peak level 95.4 %
Extraction speed 6.4 X
Track quality 99.9 %
Test CRC 69C4CC01
Copy CRC 69C4CC01
Track not present in AccurateRip database
Copy OK

Track 8

Filename D:\Rips\08 - It's Where The World Ends.wav

Peak level 98.8 %
Extraction speed 9.0 X
Track quality 100.0 %
Test CRC 3AAC5502
Copy CRC 3AAC5502
Track not present in AccurateRip database
Copy OK

Track 9

Filename D:\Rips\09 - Parola.wav

Peak level 98.8 %
Extraction speed 9.3 X
Track quality 100.0 %
Test CRC 4D7D1744
Copy CRC 4D7D1744
Track not present in AccurateRip database
Copy OK

Track 10

Filename D:\Rips\10 - Dimension.wav

Peak level 100.0 %
Extraction speed 9.7 X
Track quality 100.0 %
Test CRC 3FA9269B
Copy CRC 3FA9269B
Track not present in AccurateRip database
Copy OK

Track 11

Filename D:\Rips\11 - It's Where The World Ends (Luke Abbott Alternative Mix).wav

Peak level 100.0 %
Extraction speed 10.1 X
Track quality 100.0 %
Test CRC BA73B790
Copy CRC BA73B790
Track not present in AccurateRip database
Copy OK


None of the tracks are present in the AccurateRip database

No errors occurred

End of status report

–– CUETools DB Plugin V2.1.6

[CTDB TOCID: N84RoH95m9e84le57AW8o0WqTJ0-] found
Submit result: N84RoH95m9e84le57AW8o0WqTJ0- has been confirmed
Track | CTDB Status
1 | (1/1) Accurately ripped
2 | (1/1) Accurately ripped
3 | (1/1) Accurately ripped
4 | (1/1) Accurately ripped
5 | (1/1) Accurately ripped
6 | (1/1) Accurately ripped
7 | (1/1) Accurately ripped
8 | (1/1) Accurately ripped
9 | (1/1) Accurately ripped
10 | (1/1) Accurately ripped
11 | (1/1) Accurately ripped


==== Log checksum 10EEB82C8013269BEDD9D7F62C1D40A3B0D2EEC184B193EF36DC2517E1305442 ====


Thanks to the Original customer.