Subcategories

Charlie Parker - Integrale Charlie Parker, Vol. 3, "Lover Man", 1946-1947 (2011) {3CD Set Frémeaux & Associés FA1333}

Posted By: ruskaval
Charlie Parker - Integrale Charlie Parker, Vol. 3, "Lover Man", 1946-1947 (2011) {3CD Set Frémeaux & Associés FA1333}

Charlie Parker - Intégrale Charlie Parker, Vol. 3, "Lover Man", 1946-1947 (2011) {3CD Set Frémeaux & Associés FA1333}
EAC rip (secure mode) | FLAC (tracks)+CUE+LOG -> 600 Mb | MP3 @320 -> 401 Mb
Full Artwork @ 600 dpi (jpg) -> 320 Mb | 5% repair rar
© 1946-47, 2011 Frémeaux & Associés | FA 1333
Jazz / BeBop / Bop / Saxophone

When Bird left New York he was a king, but out in Los Angeles he was just another broke, weird, drunken nigger playing some strange music.

"Los Angeles is a city built on celebrating stars and Bird didn’t look like no star". -Miles Davis.

The aim of 'The Complete Charlie Parker', compiled for Frémeaux & Associés by Alain Tercinet, is to present (as far as possible) every studio-recording by Parker, together with titles featured in radio-broadcasts. Private recordings have been deliberately omitted from this selection to preserve a consistency of sound and aesthetic quality equal to the genius of this artist.
Charlie Parker - Integrale Charlie Parker, Vol. 3, "Lover Man", 1946-1947 (2011) {3CD Set Frémeaux & Associés FA1333}

1946: Bird settles in Los Angeles, signs contracts of exclusivity as with gravelotte and grants a percentage of his royalties to his dealer, then ingests regularly a mixture of bouzédrine and alcohol and is interned in psychiatry. Two years, between a septette and an All Stars (the formula of the quintet, ideal for the jazzman, flourishes thanks to Max Roach, Bud Powell, and Tommy Potter), who adobe Miles Davis prince of the trumpet, and some prestigious meetings of chance (Nat Cole, Lester Young), during which the saxophonist puts his soul on the table at each chorus. Like on this "Night In Tunisia", which leads to the peaks of creativity.
Charlie Parker - Integrale Charlie Parker, Vol. 3, "Lover Man", 1946-1947 (2011) {3CD Set Frémeaux & Associés FA1333}


fremeaux.com INFO

Track Listing
CD1

01 - Moose The Mooche
02 - Moose The Mooche (master)
03 - Moose The Mooche
04 - Yardbird Suite
05 - Yardbird Suite (master)
06 - Ornithology
07 - Ornithology (Bird Lore)
08 - Ornithology (master)
09 - Night In Tunisia (Famous alto break)
10 - Night In Tunisia
11 - Night In Tunisia (master)
12 - Announcement
13 - Jatp Blues
14 - I Got Rythm
15 - Announcement Medley
16 - Medley- Tea For Two, Body And Soul, Cherokee
17 - Ornithology

Charlie Parker - Integrale Charlie Parker, Vol. 3, "Lover Man", 1946-1947 (2011) {3CD Set Frémeaux & Associés FA1333}


CD2
01 - Max Is Making Wax
02 - Lover Man
03 - The Gipsy
04 - Be-Bop
05 - Home Cooking I (S' Wonderful)
06 - Home Cooking II (Cherokee)
07 - Home Cooking III (I Got Rhythm)
08 - Lullaby In Rhythm
09 - Yardbird Suite
10 - Blues
11 - This Is Always (master)
12 - This Is Always
13 - Dark Shadows
14 - Dark Shadows
15 - Dark Shadows (master)
16 - Dark Shadows
17 - Bird's Nest
18 - Bird's Nest
19 - Bird's Nest
20 - Cool Blues (Hot Blues)
21 - Cool Blues (Blowtop Blues)
22 - Cool Blues (master)
23 - Cool Blues

Charlie Parker - Integrale Charlie Parker, Vol. 3, "Lover Man", 1946-1947 (2011) {3CD Set Frémeaux & Associés FA1333}


CD3
01 - Relaxin' At Camarillo
02 - Relaxin' At Camarillo (master)
03 - Relaxin' At Camarillo
04 - Relaxin' At Camarillo
05 - Cheers
06 - Cheers
07 - Cheers
08 - Cheers (master)
09 - Carvin' The Bird
10 - Carvin' The Bird (master)
11 - Stupendous (master)
12 - Stupendous
13 - Dee Dee's Dance
14 - Donna Lee
15 - Donna Lee
16 - Donna Lee
17 - Donna Lee (master)
18 - Chasin' The Bird
19 - Chasin' The Bird
20 - Chasin' The Bird (master)
21 - Cheryl
22 - Buzzy
23 - Buzzy
24 - Buzzy
25 - Buzzy
26 - Buzzy (master)

Charlie Parker - Integrale Charlie Parker, Vol. 3, "Lover Man", 1946-1947 (2011) {3CD Set Frémeaux & Associés FA1333}


Exact Audio Copy V1.3 from 2. September 2016

EAC extraction logfile from 12. November 2018, 17:12

Charlie Parker / Integrale Charlie Parker, Vol. 3, Lover Man (CD1)

Used drive : ATAPI iHAS122 F Adapter: 1 ID: 1

Read mode : Secure
Utilize accurate stream : Yes
Defeat audio cache : Yes
Make use of C2 pointers : No

Read offset correction : 6
Overread into Lead-In and Lead-Out : No
Fill up missing offset samples with silence : Yes
Delete leading and trailing silent blocks : No
Null samples used in CRC calculations : Yes
Used interface : Native Win32 interface for Win NT & 2000
Gap handling : Appended to previous track

Used output format : User Defined Encoder
Selected bitrate : 1024 kBit/s
Quality : High
Add ID3 tag : No
Command line compressor : C:\Program Files (x86)\Exact Audio Copy_v1.3\Flac\flac.exe
Additional command line options : -8 -V -T "ARTIST=%artist%" -T "TITLE=%title%" -T "ALBUM=%albumtitle%" -T "DATE=%year%" -T "TRACKNUMBER=%tracknr%" -T "TOTALTRACKS=%numtracks%" -T "GENRE=%genre%" -T "ALBUMARTIST=%albumartist%" -T "ALBUM ARTIST=%albumartist%" -T "COMMENT=EAC Secure Mode, Test & Copy, AccurateRip, FLAC -8" %source%


TOC of the extracted CD

Track | Start | Length | Start sector | End sector
––––––––––––––––––––––––––––-
1 | 0:00.00 | 2:59.41 | 0 | 13465
2 | 2:59.41 | 3:04.21 | 13466 | 27286
3 | 6:03.62 | 2:56.54 | 27287 | 40540
4 | 9:00.41 | 2:40.39 | 40541 | 52579
5 | 11:41.05 | 2:55.10 | 52580 | 65714
6 | 14:36.15 | 3:01.08 | 65715 | 79297
7 | 17:37.23 | 3:19.13 | 79298 | 94235
8 | 20:56.36 | 3:02.51 | 94236 | 107936
9 | 23:59.12 | 0:49.74 | 107937 | 111685
10 | 24:49.11 | 3:08.05 | 111686 | 125790
11 | 27:57.16 | 3:05.43 | 125791 | 139708
12 | 31:02.59 | 2:16.03 | 139709 | 149911
13 | 33:18.62 | 11:02.08 | 149912 | 199569
14 | 44:20.70 | 13:00.12 | 199570 | 258081
15 | 57:21.07 | 1:20.03 | 258082 | 264084
16 | 58:41.10 | 8:28.04 | 264085 | 302188
17 | 67:09.14 | 3:10.73 | 302189 | 316511


Track 1

Filename D:\_EAC\Charlie Parker - Integrale Charlie Parker, Vol. 3, Lover Man (2011) [FLAC] {3CD}\CD1\01 - Moose The Mooche.wav

Pre-gap length 0:00:02.00

Peak level 87.8 %
Extraction speed 4.5 X
Track quality 100.0 %
Test CRC 17E5670C
Copy CRC 17E5670C
Accurately ripped (confidence 2) [9B8E42A2] (AR v2)
Copy OK

Track 2

Filename D:\_EAC\Charlie Parker - Integrale Charlie Parker, Vol. 3, Lover Man (2011) [FLAC] {3CD}\CD1\02 - Moose The Mooche (master).wav

Peak level 78.8 %
Extraction speed 3.9 X
Track quality 99.9 %
Test CRC 74D25053
Copy CRC 74D25053
Accurately ripped (confidence 2) [72CF572F] (AR v2)
Copy OK

Track 3

Filename D:\_EAC\Charlie Parker - Integrale Charlie Parker, Vol. 3, Lover Man (2011) [FLAC] {3CD}\CD1\03 - Moose The Mooche.wav

Peak level 73.6 %
Extraction speed 5.1 X
Track quality 100.0 %
Test CRC 59F1796A
Copy CRC 59F1796A
Accurately ripped (confidence 2) [0AA79202] (AR v2)
Copy OK

Track 4

Filename D:\_EAC\Charlie Parker - Integrale Charlie Parker, Vol. 3, Lover Man (2011) [FLAC] {3CD}\CD1\04 - Yardbird Suite.wav

Peak level 95.3 %
Extraction speed 5.3 X
Track quality 100.0 %
Test CRC 86260A05
Copy CRC 86260A05
Accurately ripped (confidence 2) [7FE469CB] (AR v2)
Copy OK

Track 5

Filename D:\_EAC\Charlie Parker - Integrale Charlie Parker, Vol. 3, Lover Man (2011) [FLAC] {3CD}\CD1\05 - Yardbird Suite (master).wav

Peak level 70.4 %
Extraction speed 5.7 X
Track quality 100.0 %
Test CRC 073EE986
Copy CRC 073EE986
Accurately ripped (confidence 2) [EBC4F2F5] (AR v2)
Copy OK

Track 6

Filename D:\_EAC\Charlie Parker - Integrale Charlie Parker, Vol. 3, Lover Man (2011) [FLAC] {3CD}\CD1\06 - Ornithology.wav

Peak level 93.7 %
Extraction speed 5.9 X
Track quality 100.0 %
Test CRC DA1D775B
Copy CRC DA1D775B
Accurately ripped (confidence 2) [97418FBF] (AR v2)
Copy OK

Track 7

Filename D:\_EAC\Charlie Parker - Integrale Charlie Parker, Vol. 3, Lover Man (2011) [FLAC] {3CD}\CD1\07 - Ornithology (Bird Lore).wav

Peak level 82.4 %
Extraction speed 5.1 X
Track quality 99.9 %
Test CRC 7711EE66
Copy CRC 7711EE66
Accurately ripped (confidence 2) [2D26129F] (AR v2)
Copy OK

Track 8

Filename D:\_EAC\Charlie Parker - Integrale Charlie Parker, Vol. 3, Lover Man (2011) [FLAC] {3CD}\CD1\08 - Ornithology (master).wav

Peak level 80.3 %
Extraction speed 6.4 X
Track quality 100.0 %
Test CRC D0879A38
Copy CRC D0879A38
Accurately ripped (confidence 2) [A2CB1889] (AR v2)
Copy OK

Track 9

Filename D:\_EAC\Charlie Parker - Integrale Charlie Parker, Vol. 3, Lover Man (2011) [FLAC] {3CD}\CD1\09 - Night In Tunisia (Famous alto break).wav

Peak level 71.9 %
Extraction speed 4.5 X
Track quality 100.0 %
Test CRC C15D2716
Copy CRC C15D2716
Accurately ripped (confidence 2) [539D822D] (AR v2)
Copy OK

Track 10

Filename D:\_EAC\Charlie Parker - Integrale Charlie Parker, Vol. 3, Lover Man (2011) [FLAC] {3CD}\CD1\10 - Night In Tunisia.wav

Peak level 83.9 %
Extraction speed 6.8 X
Track quality 100.0 %
Test CRC 17FD6FE6
Copy CRC 17FD6FE6
Accurately ripped (confidence 2) [2DE0075E] (AR v2)
Copy OK

Track 11

Filename D:\_EAC\Charlie Parker - Integrale Charlie Parker, Vol. 3, Lover Man (2011) [FLAC] {3CD}\CD1\11 - Night In Tunisia (master).wav

Pre-gap length 0:00:00.01

Peak level 93.4 %
Extraction speed 5.5 X
Track quality 99.9 %
Test CRC EB3D44ED
Copy CRC EB3D44ED
Accurately ripped (confidence 2) [CE72B442] (AR v2)
Copy OK

Track 12

Filename D:\_EAC\Charlie Parker - Integrale Charlie Parker, Vol. 3, Lover Man (2011) [FLAC] {3CD}\CD1\12 - Announcement.wav

Pre-gap length 0:00:00.25

Peak level 64.6 %
Extraction speed 6.6 X
Track quality 100.0 %
Test CRC 4F5A7F94
Copy CRC 4F5A7F94
Accurately ripped (confidence 2) [03B35E78] (AR v2)
Copy OK

Track 13

Filename D:\_EAC\Charlie Parker - Integrale Charlie Parker, Vol. 3, Lover Man (2011) [FLAC] {3CD}\CD1\13 - Jatp Blues.wav

Peak level 97.5 %
Extraction speed 8.3 X
Track quality 100.0 %
Test CRC 8E4C207E
Copy CRC 8E4C207E
Accurately ripped (confidence 2) [F15B9497] (AR v2)
Copy OK

Track 14

Filename D:\_EAC\Charlie Parker - Integrale Charlie Parker, Vol. 3, Lover Man (2011) [FLAC] {3CD}\CD1\14 - I Got Rythm.wav

Peak level 86.7 %
Extraction speed 8.7 X
Track quality 99.9 %
Test CRC C9A542FE
Copy CRC C9A542FE
Accurately ripped (confidence 2) [145F0686] (AR v2)
Copy OK

Track 15

Filename D:\_EAC\Charlie Parker - Integrale Charlie Parker, Vol. 3, Lover Man (2011) [FLAC] {3CD}\CD1\15 - Announcement Medley.wav

Peak level 69.9 %
Extraction speed 4.6 X
Track quality 99.8 %
Test CRC 4C5F49B2
Copy CRC 4C5F49B2
Accurately ripped (confidence 2) [226D4F87] (AR v2)
Copy OK

Track 16

Filename D:\_EAC\Charlie Parker - Integrale Charlie Parker, Vol. 3, Lover Man (2011) [FLAC] {3CD}\CD1\16 - Medley- Tea For Two, Body And Soul, Cherokee.wav

Peak level 89.9 %
Extraction speed 10.0 X
Track quality 100.0 %
Test CRC C7F25E7E
Copy CRC C7F25E7E
Accurately ripped (confidence 2) [55F2BFD3] (AR v2)
Copy OK

Track 17

Filename D:\_EAC\Charlie Parker - Integrale Charlie Parker, Vol. 3, Lover Man (2011) [FLAC] {3CD}\CD1\17 - Ornithology.wav

Peak level 81.8 %
Extraction speed 9.3 X
Track quality 100.0 %
Test CRC 7A7879E4
Copy CRC 7A7879E4
Accurately ripped (confidence 2) [69D89932] (AR v2)
Copy OK


All tracks accurately ripped

No errors occurred

End of status report

–– CUETools DB Plugin V2.1.6

[CTDB TOCID: blhcswJjfbZnv9b1jTdsEVY3QUs-] found
Submit result: blhcswJjfbZnv9b1jTdsEVY3QUs- has been confirmed
Track | CTDB Status
1 | (1/1) Accurately ripped
2 | (1/1) Accurately ripped
3 | (1/1) Accurately ripped
4 | (1/1) Accurately ripped
5 | (1/1) Accurately ripped
6 | (1/1) Accurately ripped
7 | (1/1) Accurately ripped
8 | (1/1) Accurately ripped
9 | (1/1) Accurately ripped
10 | (1/1) Accurately ripped
11 | (1/1) Accurately ripped
12 | (1/1) Accurately ripped
13 | (1/1) Accurately ripped
14 | (1/1) Accurately ripped
15 | (1/1) Accurately ripped
16 | (1/1) Accurately ripped
17 | (1/1) Accurately ripped


==== Log checksum 10E7A06433925B9E67526446A3F6DF544BC7F49C7759F59352C5ED98621C42C7 ====
Exact Audio Copy V1.3 from 2. September 2016

EAC extraction logfile from 12. November 2018, 19:40

Charlie Parker / Integrale Charlie Parker, Vol. 3, Lover Man (CD2)

Used drive : ATAPI iHAS122 F Adapter: 1 ID: 1

Read mode : Secure
Utilize accurate stream : Yes
Defeat audio cache : Yes
Make use of C2 pointers : No

Read offset correction : 6
Overread into Lead-In and Lead-Out : No
Fill up missing offset samples with silence : Yes
Delete leading and trailing silent blocks : No
Null samples used in CRC calculations : Yes
Used interface : Native Win32 interface for Win NT & 2000
Gap handling : Appended to previous track

Used output format : User Defined Encoder
Selected bitrate : 1024 kBit/s
Quality : High
Add ID3 tag : No
Command line compressor : C:\Program Files (x86)\Exact Audio Copy_v1.3\Flac\flac.exe
Additional command line options : -8 -V -T "ARTIST=%artist%" -T "TITLE=%title%" -T "ALBUM=%albumtitle%" -T "DATE=%year%" -T "TRACKNUMBER=%tracknr%" -T "TOTALTRACKS=%numtracks%" -T "GENRE=%genre%" -T "ALBUMARTIST=%albumartist%" -T "ALBUM ARTIST=%albumartist%" -T "COMMENT=EAC Secure Mode, Test & Copy, AccurateRip, FLAC -8" %source%


TOC of the extracted CD

Track | Start | Length | Start sector | End sector
––––––––––––––––––––––––––––-
1 | 0:00.00 | 2:33.10 | 0 | 11484
2 | 2:33.10 | 3:21.48 | 11485 | 26607
3 | 5:54.58 | 3:03.45 | 26608 | 40377
4 | 8:58.28 | 2:55.44 | 40378 | 53546
5 | 11:53.72 | 2:22.12 | 53547 | 64208
6 | 14:16.09 | 2:08.08 | 64209 | 73816
7 | 16:24.17 | 2:27.61 | 73817 | 84902
8 | 18:52.03 | 3:06.38 | 84903 | 98890
9 | 21:58.41 | 2:14.54 | 98891 | 108994
10 | 24:13.20 | 1:06.47 | 108995 | 113991
11 | 25:19.67 | 3:13.60 | 113992 | 128526
12 | 28:33.52 | 3:09.71 | 128527 | 142772
13 | 31:43.48 | 4:07.27 | 142773 | 161324
14 | 35:51.00 | 3:14.60 | 161325 | 175934
15 | 39:05.60 | 3:10.13 | 175935 | 190197
16 | 42:15.73 | 2:59.24 | 190198 | 203646
17 | 45:15.22 | 2:51.43 | 203647 | 216514
18 | 48:06.65 | 2:50.30 | 216515 | 229294
19 | 50:57.20 | 2:44.54 | 229295 | 241648
20 | 53:41.74 | 1:59.32 | 241649 | 250605
21 | 55:41.31 | 2:23.37 | 250606 | 261367
22 | 58:04.68 | 3:08.08 | 261368 | 275475
23 | 61:13.01 | 2:48.68 | 275476 | 288143


Track 1

Filename D:\_EAC\Charlie Parker - Integrale Charlie Parker, Vol. 3, Lover Man (2011) [FLAC] {3CD}\CD2\01 - Max Is Making Wax.wav

Pre-gap length 0:00:02.00

Peak level 89.1 %
Extraction speed 4.4 X
Track quality 100.0 %
Test CRC A3C57C90
Copy CRC A3C57C90
Accurately ripped (confidence 2) [7FF20F95] (AR v2)
Copy OK

Track 2

Filename D:\_EAC\Charlie Parker - Integrale Charlie Parker, Vol. 3, Lover Man (2011) [FLAC] {3CD}\CD2\02 - Lover Man.wav

Peak level 46.5 %
Extraction speed 4.9 X
Track quality 100.0 %
Test CRC C5B4A91B
Copy CRC C5B4A91B
Accurately ripped (confidence 2) [36AC5C55] (AR v2)
Copy OK

Track 3

Filename D:\_EAC\Charlie Parker - Integrale Charlie Parker, Vol. 3, Lover Man (2011) [FLAC] {3CD}\CD2\03 - The Gipsy.wav

Peak level 48.6 %
Extraction speed 4.1 X
Track quality 99.9 %
Test CRC 879236AF
Copy CRC 879236AF
Accurately ripped (confidence 2) [86C6B12A] (AR v2)
Copy OK

Track 4

Filename D:\_EAC\Charlie Parker - Integrale Charlie Parker, Vol. 3, Lover Man (2011) [FLAC] {3CD}\CD2\04 - Be-Bop.wav

Peak level 72.0 %
Extraction speed 4.3 X
Track quality 99.9 %
Test CRC 15035F89
Copy CRC 15035F89
Accurately ripped (confidence 2) [522E84BB] (AR v2)
Copy OK

Track 5

Filename D:\_EAC\Charlie Parker - Integrale Charlie Parker, Vol. 3, Lover Man (2011) [FLAC] {3CD}\CD2\05 - Home Cooking I (S' Wonderful).wav

Peak level 62.4 %
Extraction speed 5.4 X
Track quality 100.0 %
Test CRC 304E7A05
Copy CRC 304E7A05
Accurately ripped (confidence 2) [C883E5AD] (AR v2)
Copy OK

Track 6

Filename D:\_EAC\Charlie Parker - Integrale Charlie Parker, Vol. 3, Lover Man (2011) [FLAC] {3CD}\CD2\06 - Home Cooking II (Cherokee).wav

Peak level 91.9 %
Extraction speed 4.0 X
Track quality 99.9 %
Test CRC 5ABACD35
Copy CRC 5ABACD35
Accurately ripped (confidence 2) [EFF6BD7C] (AR v2)
Copy OK

Track 7

Filename D:\_EAC\Charlie Parker - Integrale Charlie Parker, Vol. 3, Lover Man (2011) [FLAC] {3CD}\CD2\07 - Home Cooking III (I Got Rhythm).wav

Peak level 90.8 %
Extraction speed 5.8 X
Track quality 100.0 %
Test CRC 6D4A29E3
Copy CRC 6D4A29E3
Accurately ripped (confidence 2) [B4D0D964] (AR v2)
Copy OK

Track 8

Filename D:\_EAC\Charlie Parker - Integrale Charlie Parker, Vol. 3, Lover Man (2011) [FLAC] {3CD}\CD2\08 - Lullaby In Rhythm.wav

Peak level 96.0 %
Extraction speed 6.2 X
Track quality 100.0 %
Test CRC 290B7BD1
Copy CRC 290B7BD1
Accurately ripped (confidence 2) [95CCFA35] (AR v2)
Copy OK

Track 9

Filename D:\_EAC\Charlie Parker - Integrale Charlie Parker, Vol. 3, Lover Man (2011) [FLAC] {3CD}\CD2\09 - Yardbird Suite.wav

Peak level 79.2 %
Extraction speed 6.0 X
Track quality 100.0 %
Test CRC 2511F930
Copy CRC 2511F930
Accurately ripped (confidence 2) [9F6023F4] (AR v2)
Copy OK

Track 10

Filename D:\_EAC\Charlie Parker - Integrale Charlie Parker, Vol. 3, Lover Man (2011) [FLAC] {3CD}\CD2\10 - Blues.wav

Peak level 91.8 %
Extraction speed 5.0 X
Track quality 100.0 %
Test CRC 5550577F
Copy CRC 5550577F
Accurately ripped (confidence 2) [3F67571C] (AR v2)
Copy OK

Track 11

Filename D:\_EAC\Charlie Parker - Integrale Charlie Parker, Vol. 3, Lover Man (2011) [FLAC] {3CD}\CD2\11 - This Is Always (master).wav

Peak level 62.4 %
Extraction speed 6.8 X
Track quality 100.0 %
Test CRC A23B2CAA
Copy CRC A23B2CAA
Accurately ripped (confidence 2) [CE0BAFD4] (AR v2)
Copy OK

Track 12

Filename D:\_EAC\Charlie Parker - Integrale Charlie Parker, Vol. 3, Lover Man (2011) [FLAC] {3CD}\CD2\12 - This Is Always.wav

Peak level 54.7 %
Extraction speed 7.0 X
Track quality 100.0 %
Test CRC A20E18CD
Copy CRC A20E18CD
Accurately ripped (confidence 2) [5B266138] (AR v2)
Copy OK

Track 13

Filename D:\_EAC\Charlie Parker - Integrale Charlie Parker, Vol. 3, Lover Man (2011) [FLAC] {3CD}\CD2\13 - Dark Shadows.wav

Peak level 82.3 %
Extraction speed 7.4 X
Track quality 100.0 %
Test CRC 5E0C1DE0
Copy CRC 5E0C1DE0
Accurately ripped (confidence 2) [E78D82D4] (AR v2)
Copy OK

Track 14

Filename D:\_EAC\Charlie Parker - Integrale Charlie Parker, Vol. 3, Lover Man (2011) [FLAC] {3CD}\CD2\14 - Dark Shadows.wav

Peak level 83.2 %
Extraction speed 7.4 X
Track quality 100.0 %
Test CRC 1D54CD0D
Copy CRC 1D54CD0D
Accurately ripped (confidence 2) [F6184A47] (AR v2)
Copy OK

Track 15

Filename D:\_EAC\Charlie Parker - Integrale Charlie Parker, Vol. 3, Lover Man (2011) [FLAC] {3CD}\CD2\15 - Dark Shadows (master).wav

Peak level 73.3 %
Extraction speed 7.6 X
Track quality 100.0 %
Test CRC 8998ECFF
Copy CRC 8998ECFF
Accurately ripped (confidence 2) [D0FBBDF4] (AR v2)
Copy OK

Track 16

Filename D:\_EAC\Charlie Parker - Integrale Charlie Parker, Vol. 3, Lover Man (2011) [FLAC] {3CD}\CD2\16 - Dark Shadows.wav

Peak level 77.4 %
Extraction speed 7.8 X
Track quality 100.0 %
Test CRC F1671A62
Copy CRC F1671A62
Accurately ripped (confidence 2) [C2CD70FC] (AR v2)
Copy OK

Track 17

Filename D:\_EAC\Charlie Parker - Integrale Charlie Parker, Vol. 3, Lover Man (2011) [FLAC] {3CD}\CD2\17 - Bird's Nest.wav

Peak level 69.3 %
Extraction speed 7.7 X
Track quality 100.0 %
Test CRC 1DFFFE38
Copy CRC 1DFFFE38
Accurately ripped (confidence 2) [335E8578] (AR v2)
Copy OK

Track 18

Filename D:\_EAC\Charlie Parker - Integrale Charlie Parker, Vol. 3, Lover Man (2011) [FLAC] {3CD}\CD2\18 - Bird's Nest.wav

Peak level 76.2 %
Extraction speed 8.0 X
Track quality 100.0 %
Test CRC 910C1BB2
Copy CRC 910C1BB2
Accurately ripped (confidence 2) [5F282DA3] (AR v2)
Copy OK

Track 19

Filename D:\_EAC\Charlie Parker - Integrale Charlie Parker, Vol. 3, Lover Man (2011) [FLAC] {3CD}\CD2\19 - Bird's Nest.wav

Peak level 65.9 %
Extraction speed 7.9 X
Track quality 100.0 %
Test CRC C5AA6729
Copy CRC C5AA6729
Accurately ripped (confidence 2) [61160D81] (AR v2)
Copy OK

Track 20

Filename D:\_EAC\Charlie Parker - Integrale Charlie Parker, Vol. 3, Lover Man (2011) [FLAC] {3CD}\CD2\20 - Cool Blues (Hot Blues).wav

Peak level 73.2 %
Extraction speed 7.7 X
Track quality 100.0 %
Test CRC C60DA425
Copy CRC C60DA425
Accurately ripped (confidence 2) [3CF103D4] (AR v2)
Copy OK

Track 21

Filename D:\_EAC\Charlie Parker - Integrale Charlie Parker, Vol. 3, Lover Man (2011) [FLAC] {3CD}\CD2\21 - Cool Blues (Blowtop Blues).wav

Peak level 76.3 %
Extraction speed 8.0 X
Track quality 100.0 %
Test CRC 17A1D33B
Copy CRC 17A1D33B
Accurately ripped (confidence 2) [DF20842A] (AR v2)
Copy OK

Track 22

Filename D:\_EAC\Charlie Parker - Integrale Charlie Parker, Vol. 3, Lover Man (2011) [FLAC] {3CD}\CD2\22 - Cool Blues (master).wav

Peak level 61.5 %
Extraction speed 8.6 X
Track quality 100.0 %
Test CRC CA665E6E
Copy CRC CA665E6E
Accurately ripped (confidence 2) [87B94356] (AR v2)
Copy OK

Track 23

Filename D:\_EAC\Charlie Parker - Integrale Charlie Parker, Vol. 3, Lover Man (2011) [FLAC] {3CD}\CD2\23 - Cool Blues.wav

Peak level 72.0 %
Extraction speed 8.4 X
Track quality 100.0 %
Test CRC BB4989A5
Copy CRC BB4989A5
Accurately ripped (confidence 2) [4A78DB10] (AR v2)
Copy OK


All tracks accurately ripped

No errors occurred

End of status report

–– CUETools DB Plugin V2.1.6

[CTDB TOCID: Y3VdTihKKhDNOUtqtWqRmBvcTZI-] found
Submit result: Y3VdTihKKhDNOUtqtWqRmBvcTZI- has been confirmed
Track | CTDB Status
1 | (1/1) Accurately ripped
2 | (1/1) Accurately ripped
3 | (1/1) Accurately ripped
4 | (1/1) Accurately ripped
5 | (1/1) Accurately ripped
6 | (1/1) Accurately ripped
7 | (1/1) Accurately ripped
8 | (1/1) Accurately ripped
9 | (1/1) Accurately ripped
10 | (1/1) Accurately ripped
11 | (1/1) Accurately ripped
12 | (1/1) Accurately ripped
13 | (1/1) Accurately ripped
14 | (1/1) Accurately ripped
15 | (1/1) Accurately ripped
16 | (1/1) Accurately ripped
17 | (1/1) Accurately ripped
18 | (1/1) Accurately ripped
19 | (1/1) Accurately ripped
20 | (1/1) Accurately ripped
21 | (1/1) Accurately ripped
22 | (1/1) Accurately ripped
23 | (1/1) Accurately ripped


==== Log checksum 7199A3C35170E67E6321A661DA5036CBF0D35F290B3BF317D001DE94F82B85CD ====
Exact Audio Copy V1.3 from 2. September 2016

EAC extraction logfile from 12. November 2018, 22:18

Charlie Parker / Integrale Charlie Parker, Vol. 3, Lover Man (CD3)

Used drive : ATAPI iHAS122 F Adapter: 1 ID: 1

Read mode : Secure
Utilize accurate stream : Yes
Defeat audio cache : Yes
Make use of C2 pointers : No

Read offset correction : 6
Overread into Lead-In and Lead-Out : No
Fill up missing offset samples with silence : Yes
Delete leading and trailing silent blocks : No
Null samples used in CRC calculations : Yes
Used interface : Native Win32 interface for Win NT & 2000
Gap handling : Appended to previous track

Used output format : User Defined Encoder
Selected bitrate : 1024 kBit/s
Quality : High
Add ID3 tag : No
Command line compressor : C:\Program Files (x86)\Exact Audio Copy_v1.3\Flac\flac.exe
Additional command line options : -8 -V -T "ARTIST=%artist%" -T "TITLE=%title%" -T "ALBUM=%albumtitle%" -T "DATE=%year%" -T "TRACKNUMBER=%tracknr%" -T "TOTALTRACKS=%numtracks%" -T "GENRE=%genre%" -T "ALBUMARTIST=%albumartist%" -T "ALBUM ARTIST=%albumartist%" -T "COMMENT=EAC Secure Mode, Test & Copy, AccurateRip, FLAC -8" %source%


TOC of the extracted CD

Track | Start | Length | Start sector | End sector
––––––––––––––––––––––––––––-
1 | 0:00.00 | 3:02.25 | 0 | 13674
2 | 3:02.25 | 3:07.63 | 13675 | 27762
3 | 6:10.13 | 3:01.33 | 27763 | 41370
4 | 9:11.46 | 2:57.74 | 41371 | 54719
5 | 12:09.45 | 3:11.10 | 54720 | 69054
6 | 15:20.55 | 3:02.59 | 69055 | 82763
7 | 18:23.39 | 3:02.54 | 82764 | 96467
8 | 21:26.18 | 3:03.21 | 96468 | 110213
9 | 24:29.39 | 2:44.69 | 110214 | 122582
10 | 27:14.33 | 2:44.46 | 122583 | 134928
11 | 29:59.04 | 2:53.05 | 134929 | 147908
12 | 32:52.09 | 2:59.42 | 147909 | 161375
13 | 35:51.51 | 3:57.21 | 161376 | 179171
14 | 39:48.72 | 3:18.27 | 179172 | 194048
15 | 43:07.24 | 2:34.26 | 194049 | 205624
16 | 45:41.50 | 2:38.63 | 205625 | 217537
17 | 48:20.38 | 2:36.01 | 217538 | 229238
18 | 50:56.39 | 2:57.44 | 229239 | 242557
19 | 53:54.08 | 3:23.27 | 242558 | 257809
20 | 57:17.35 | 2:47.37 | 257810 | 270371
21 | 60:04.72 | 3:01.54 | 270372 | 284000
22 | 63:06.51 | 3:02.71 | 284001 | 297721
23 | 66:09.47 | 0:36.56 | 297722 | 300477
24 | 66:46.28 | 2:41.51 | 300478 | 312603
25 | 69:28.04 | 0:24.13 | 312604 | 314416
26 | 69:52.17 | 2:31.47 | 314417 | 325788


Track 1

Filename D:\_EAC\Charlie Parker - Integrale Charlie Parker, Vol. 3, Lover Man (2011) [FLAC] {3CD}\CD3\01 - Relaxin' At Camarillo.wav

Pre-gap length 0:00:02.00

Peak level 97.8 %
Extraction speed 4.5 X
Track quality 100.0 %
Test CRC F4216B1C
Copy CRC F4216B1C
Accurately ripped (confidence 2) [51BD8F1F] (AR v2)
Copy OK

Track 2

Filename D:\_EAC\Charlie Parker - Integrale Charlie Parker, Vol. 3, Lover Man (2011) [FLAC] {3CD}\CD3\02 - Relaxin' At Camarillo (master).wav

Peak level 77.4 %
Extraction speed 4.9 X
Track quality 100.0 %
Test CRC 4B06242C
Copy CRC 4B06242C
Accurately ripped (confidence 2) [2FE5A7B2] (AR v2)
Copy OK

Track 3

Filename D:\_EAC\Charlie Parker - Integrale Charlie Parker, Vol. 3, Lover Man (2011) [FLAC] {3CD}\CD3\03 - Relaxin' At Camarillo.wav

Peak level 79.2 %
Extraction speed 5.2 X
Track quality 100.0 %
Test CRC 1400F573
Copy CRC 1400F573
Accurately ripped (confidence 2) [4D041DD3] (AR v2)
Copy OK

Track 4

Filename D:\_EAC\Charlie Parker - Integrale Charlie Parker, Vol. 3, Lover Man (2011) [FLAC] {3CD}\CD3\04 - Relaxin' At Camarillo.wav

Peak level 95.2 %
Extraction speed 5.4 X
Track quality 100.0 %
Test CRC E7A08513
Copy CRC E7A08513
Accurately ripped (confidence 2) [3BC63E16] (AR v2)
Copy OK

Track 5

Filename D:\_EAC\Charlie Parker - Integrale Charlie Parker, Vol. 3, Lover Man (2011) [FLAC] {3CD}\CD3\05 - Cheers.wav

Peak level 75.0 %
Extraction speed 5.8 X
Track quality 100.0 %
Test CRC B8758416
Copy CRC B8758416
Accurately ripped (confidence 2) [DBBE8123] (AR v2)
Copy OK

Track 6

Filename D:\_EAC\Charlie Parker - Integrale Charlie Parker, Vol. 3, Lover Man (2011) [FLAC] {3CD}\CD3\06 - Cheers.wav

Peak level 83.5 %
Extraction speed 6.0 X
Track quality 100.0 %
Test CRC 7F7E69A3
Copy CRC 7F7E69A3
Accurately ripped (confidence 2) [0E06A582] (AR v2)
Copy OK

Track 7

Filename D:\_EAC\Charlie Parker - Integrale Charlie Parker, Vol. 3, Lover Man (2011) [FLAC] {3CD}\CD3\07 - Cheers.wav

Peak level 93.8 %
Extraction speed 6.2 X
Track quality 100.0 %
Test CRC E451E73C
Copy CRC E451E73C
Accurately ripped (confidence 2) [A7D20316] (AR v2)
Copy OK

Track 8

Filename D:\_EAC\Charlie Parker - Integrale Charlie Parker, Vol. 3, Lover Man (2011) [FLAC] {3CD}\CD3\08 - Cheers (master).wav

Peak level 70.9 %
Extraction speed 5.1 X
Track quality 99.9 %
Test CRC E935EE27
Copy CRC E935EE27
Accurately ripped (confidence 2) [E3D47CB7] (AR v2)
Copy OK

Track 9

Filename D:\_EAC\Charlie Parker - Integrale Charlie Parker, Vol. 3, Lover Man (2011) [FLAC] {3CD}\CD3\09 - Carvin' The Bird.wav

Peak level 79.9 %
Extraction speed 6.5 X
Track quality 100.0 %
Test CRC CCBF4178
Copy CRC CCBF4178
Accurately ripped (confidence 2) [8584ED86] (AR v2)
Copy OK

Track 10

Filename D:\_EAC\Charlie Parker - Integrale Charlie Parker, Vol. 3, Lover Man (2011) [FLAC] {3CD}\CD3\10 - Carvin' The Bird (master).wav

Peak level 70.3 %
Extraction speed 6.8 X
Track quality 100.0 %
Test CRC B1D695A2
Copy CRC B1D695A2
Accurately ripped (confidence 2) [4DB9DDA2] (AR v2)
Copy OK

Track 11

Filename D:\_EAC\Charlie Parker - Integrale Charlie Parker, Vol. 3, Lover Man (2011) [FLAC] {3CD}\CD3\11 - Stupendous (master).wav

Peak level 84.6 %
Extraction speed 7.0 X
Track quality 100.0 %
Test CRC B5DEBCC8
Copy CRC B5DEBCC8
Accurately ripped (confidence 2) [026CCFFA] (AR v2)
Copy OK

Track 12

Filename D:\_EAC\Charlie Parker - Integrale Charlie Parker, Vol. 3, Lover Man (2011) [FLAC] {3CD}\CD3\12 - Stupendous.wav

Peak level 62.1 %
Extraction speed 7.2 X
Track quality 100.0 %
Test CRC E66DE243
Copy CRC E66DE243
Accurately ripped (confidence 2) [91FDCD7C] (AR v2)
Copy OK

Track 13

Filename D:\_EAC\Charlie Parker - Integrale Charlie Parker, Vol. 3, Lover Man (2011) [FLAC] {3CD}\CD3\13 - Dee Dee's Dance.wav

Peak level 97.6 %
Extraction speed 7.7 X
Track quality 100.0 %
Test CRC 0F15CA6D
Copy CRC 0F15CA6D
Accurately ripped (confidence 2) [0456654C] (AR v2)
Copy OK

Track 14

Filename D:\_EAC\Charlie Parker - Integrale Charlie Parker, Vol. 3, Lover Man (2011) [FLAC] {3CD}\CD3\14 - Donna Lee.wav

Peak level 85.7 %
Extraction speed 7.8 X
Track quality 100.0 %
Test CRC 8DE0CF54
Copy CRC 8DE0CF54
Accurately ripped (confidence 2) [18AD3BB4] (AR v2)
Copy OK

Track 15

Filename D:\_EAC\Charlie Parker - Integrale Charlie Parker, Vol. 3, Lover Man (2011) [FLAC] {3CD}\CD3\15 - Donna Lee.wav

Peak level 82.2 %
Extraction speed 5.9 X
Track quality 99.9 %
Test CRC 6412E7EC
Copy CRC 6412E7EC
Accurately ripped (confidence 2) [772C7A81] (AR v2)
Copy OK

Track 16

Filename D:\_EAC\Charlie Parker - Integrale Charlie Parker, Vol. 3, Lover Man (2011) [FLAC] {3CD}\CD3\16 - Donna Lee.wav

Peak level 92.0 %
Extraction speed 7.8 X
Track quality 100.0 %
Test CRC 3F807120
Copy CRC 3F807120
Accurately ripped (confidence 2) [1B2E8D6F] (AR v2)
Copy OK

Track 17

Filename D:\_EAC\Charlie Parker - Integrale Charlie Parker, Vol. 3, Lover Man (2011) [FLAC] {3CD}\CD3\17 - Donna Lee (master).wav

Peak level 91.9 %
Extraction speed 6.1 X
Track quality 99.9 %
Test CRC 080043B1
Copy CRC 080043B1
Accurately ripped (confidence 2) [06029667] (AR v2)
Copy OK

Track 18

Filename D:\_EAC\Charlie Parker - Integrale Charlie Parker, Vol. 3, Lover Man (2011) [FLAC] {3CD}\CD3\18 - Chasin' The Bird.wav

Peak level 95.2 %
Extraction speed 6.4 X
Track quality 99.9 %
Test CRC 766DDAE2
Copy CRC 766DDAE2
Accurately ripped (confidence 2) [BDC1D0E4] (AR v2)
Copy OK

Track 19

Filename D:\_EAC\Charlie Parker - Integrale Charlie Parker, Vol. 3, Lover Man (2011) [FLAC] {3CD}\CD3\19 - Chasin' The Bird.wav

Peak level 69.4 %
Extraction speed 8.6 X
Track quality 100.0 %
Test CRC 4D7228A1
Copy CRC 4D7228A1
Accurately ripped (confidence 2) [CC425059] (AR v2)
Copy OK

Track 20

Filename D:\_EAC\Charlie Parker - Integrale Charlie Parker, Vol. 3, Lover Man (2011) [FLAC] {3CD}\CD3\20 - Chasin' The Bird (master).wav

Peak level 66.2 %
Extraction speed 8.5 X
Track quality 100.0 %
Test CRC C4662E20
Copy CRC C4662E20
Accurately ripped (confidence 2) [EB4579E8] (AR v2)
Copy OK

Track 21

Filename D:\_EAC\Charlie Parker - Integrale Charlie Parker, Vol. 3, Lover Man (2011) [FLAC] {3CD}\CD3\21 - Cheryl.wav

Peak level 81.9 %
Extraction speed 8.8 X
Track quality 100.0 %
Test CRC AFF7C826
Copy CRC AFF7C826
Accurately ripped (confidence 2) [62727F87] (AR v2)
Copy OK

Track 22

Filename D:\_EAC\Charlie Parker - Integrale Charlie Parker, Vol. 3, Lover Man (2011) [FLAC] {3CD}\CD3\22 - Buzzy.wav

Peak level 92.0 %
Extraction speed 6.9 X
Track quality 99.9 %
Test CRC 3E6E60D4
Copy CRC 3E6E60D4
Accurately ripped (confidence 2) [A04D48D2] (AR v2)
Copy OK

Track 23

Filename D:\_EAC\Charlie Parker - Integrale Charlie Parker, Vol. 3, Lover Man (2011) [FLAC] {3CD}\CD3\23 - Buzzy.wav

Peak level 83.9 %
Extraction speed 4.8 X
Track quality 100.0 %
Test CRC 4996FA80
Copy CRC 4996FA80
Accurately ripped (confidence 2) [C0E71B5B] (AR v2)
Copy OK

Track 24

Filename D:\_EAC\Charlie Parker - Integrale Charlie Parker, Vol. 3, Lover Man (2011) [FLAC] {3CD}\CD3\24 - Buzzy.wav

Peak level 94.5 %
Extraction speed 6.9 X
Track quality 99.9 %
Test CRC 04967DA2
Copy CRC 04967DA2
Accurately ripped (confidence 2) [62C9FBD2] (AR v2)
Copy OK

Track 25

Filename D:\_EAC\Charlie Parker - Integrale Charlie Parker, Vol. 3, Lover Man (2011) [FLAC] {3CD}\CD3\25 - Buzzy.wav

Peak level 67.4 %
Extraction speed 4.3 X
Track quality 100.0 %
Test CRC 63BEBE04
Copy CRC 63BEBE04
Accurately ripped (confidence 2) [16649E24] (AR v2)
Copy OK

Track 26

Filename D:\_EAC\Charlie Parker - Integrale Charlie Parker, Vol. 3, Lover Man (2011) [FLAC] {3CD}\CD3\26 - Buzzy (master).wav

Peak level 82.7 %
Extraction speed 8.8 X
Track quality 100.0 %
Test CRC 62B10E97
Copy CRC 62B10E97
Accurately ripped (confidence 2) [C8A020EF] (AR v2)
Copy OK


All tracks accurately ripped

No errors occurred

End of status report

–– CUETools DB Plugin V2.1.6

[CTDB TOCID: fpkre64usUzgMrKVULCJ.fQe6nk-] found
Submit result: fpkre64usUzgMrKVULCJ.fQe6nk- has been confirmed
Track | CTDB Status
1 | (1/1) Accurately ripped
2 | (1/1) Accurately ripped
3 | (1/1) Accurately ripped
4 | (1/1) Accurately ripped
5 | (1/1) Accurately ripped
6 | (1/1) Accurately ripped
7 | (1/1) Accurately ripped
8 | (1/1) Accurately ripped
9 | (1/1) Accurately ripped
10 | (1/1) Accurately ripped
11 | (1/1) Accurately ripped
12 | (1/1) Accurately ripped
13 | (1/1) Accurately ripped
14 | (1/1) Accurately ripped
15 | (1/1) Accurately ripped
16 | (1/1) Accurately ripped
17 | (1/1) Accurately ripped
18 | (1/1) Accurately ripped
19 | (1/1) Accurately ripped
20 | (1/1) Accurately ripped
21 | (1/1) Accurately ripped
22 | (1/1) Accurately ripped
23 | (1/1) Accurately ripped
24 | (1/1) Accurately ripped
25 | (1/1) Accurately ripped
26 | (1/1) Accurately ripped


==== Log checksum 5830E5281EC068E04E40A32B8183804C28953D380E083470417FF5680D05330F ====


Charlie Parker - Integrale Charlie Parker, Vol. 3, "Lover Man", 1946-1947 (2011) {3CD Set Frémeaux & Associés FA1333}


Thanks to SavoyFun for CDs…

NEXT -> Charlie Parker - Intégrale Charlie Parker, Vol. 4, "Bird of Paradise", 1947 (2012) {3CD Set Frémeaux & Associés FA1334}

see more Charlie Parker…


===