Subcategories

Charlie Parker - Integrale Charlie Parker, Vol. 4, "Bird Of Paradise", 1947 (2012) {3CD Set Frémeaux & Associés FA1334}

Posted By: ruskaval
Charlie Parker - Integrale Charlie Parker, Vol. 4, "Bird Of Paradise", 1947 (2012) {3CD Set Frémeaux & Associés FA1334}

Charlie Parker - Intégrale Charlie Parker, Vol. 4, "Bird Of Paradise", 1947 (2012) {3CD Set Frémeaux & Associés FA1334}
EAC rip (secure mode) | FLAC (tracks)+CUE+LOG -> 886 Mb | MP3 @320 -> 491 Mb
Full Artwork @ 600 dpi (jpg) -> 419 Mb | 5% repair rar
© 1947, 2012 Frémeaux & Associés | FA 1334
Jazz / Be Bop / Bop / Saxophone

The year 1947 was one of the most creative of Charlie Parker. This box presents in 70 tracks the legacy recorded during the second half of this fruitful year, the first session of Miles Davis under his name for the Savoy label on August 14, 1947 at the session for the label Dial on December 17, always with Miles Davis but this time under the name of Charlie Parker.
Charlie Parker - Integrale Charlie Parker, Vol. 4, "Bird Of Paradise", 1947 (2012) {3CD Set Frémeaux & Associés FA1334}

Between these two monuments, which have become classics that have been reissued and analyzed many times over, are three other sessions for Dial that are equally essential, where Parker and Miles Davis stand side by side. A true blessing, there are also three exceptional moments where this time it is Dizzy Gillespie who holds the trumpet. Two of them are the studio meeting of the "modern" brought together by Barry Ulanov winners of the musical fight against "traditionalists" after the show "This Is Jazz", which also includes the pianist Lennie Tristano. The third offers a trace of the concert given at Carnegie Hall on September 29, 1947 by a quintet led by Dizzy and Charlie Parker, where the piano is entrusted to John Lewis, future pianist of the Modern Jazz Quartet.

That is to say that this box of three copious CD carefully restored are strictly indispensable, witnesses of a year whose musical echo does not stop practically to resound 55 years later.
Charlie Parker - Integrale Charlie Parker, Vol. 4, "Bird Of Paradise", 1947 (2012) {3CD Set Frémeaux & Associés FA1334}


fremeaux.com INFO

Musicians

Charlie Parker , Miles Davis , Tad Dameron , Steven James , Kay Swift , Charlie Parker , Dorothy Fields , Jimmy Mchugh , Irving Berlin , Inconnu , Theolonius Monk , Franck Paparelli , Dizzy Gillespie , Georges Et Ira Gershwin , A.johnston , Edward Heyman , Johnny Green , Fats Navarro

Track Listing

CD1

01 - Milestones
02 - Milestones (master)
03 - Milestones
04 - Little Willie Leaps
05 - Little Willie Leaps
06 - Little Willie Leaps (master)
07 - Half Nelson
08 - Half Nelson (master)
09 - Sippin' at Bells
10 - Sippin' at Bells (master)
11 - Sippin' at Bells
12 - Sippin' at Bells
13 - Koko
14 - Hot House
15 - Fine And Dandy
16 - Koko
17 - On the Sunny Side of the Street
18 - How Deep Is The Ocean
19 - Tiger Rag
20 - 52nd Street Theme
21 - Night In Tunisia
22 - Dizzy Atmosphere
23 - Groovin' High
24 - Confirmation
25 - Koko

Charlie Parker - Integrale Charlie Parker, Vol. 4, "Bird Of Paradise", 1947 (2012) {3CD Set Frémeaux & Associés FA1334}


CD2
01 - Dexterity
02 - Dexterity (master)
03 - Bongo Bop (master)
04 - Bongo Bop
05 - Dewey Square (Prezology) (master)
06 - Dewey Square
07 - Dewey Square (master)
08 - The Hymn (master)
09 - The Hymn (Superman)
10 - Bird Of Paradise
11 - Bird Of Paradise
12 - Bird Of Paradise
13 - Embraceable You
14 - Embraceable You
15 - Bird Feathers (Schnourphology)
16 - Klact-Oveeseds-Tene (master)
17 - Klact-Oveeseds-Tene
18 - Scrapple From The Apple
19 - Scrapple From The Apple (master)
20 - My Old Flame

Charlie Parker - Integrale Charlie Parker, Vol. 4, "Bird Of Paradise", 1947 (2012) {3CD Set Frémeaux & Associés FA1334}


CD3
01 - Out Of Nowhere
02 - Out Of Nowhere
03 - Out Of Nowhere
04 - Don't Blame Me
05 - 52nd Street Theme
06 - Donna Lee
07 - Fats Flat
08 - Groovin' High
09 - Koko
10 - Drifting On a Reed (Giant Swing)
11 - Drifting On a Reed
12 - Drifting On a Reed (Air Conditioning)
13 - Quasimado
14 - Quasimado (Trade Winds) (master)
15 - Charlie's Wig
16 - Charlie's Wig (Bongo Bop)
17 - Charlie's Wig (master)
18 - Bongo Beep (Dexterity)
19 - Bongo Beep (Bird Feathers)
20 - Crazeology
21 - Crazeology
22 - Crazeology
23 - Crazeology
24 - How Deep Is The Ocean (master)
25 - How Deep Is The Ocean

Charlie Parker - Integrale Charlie Parker, Vol. 4, "Bird Of Paradise", 1947 (2012) {3CD Set Frémeaux & Associés FA1334}


Exact Audio Copy V1.3 from 2. September 2016

EAC extraction logfile from 22. November 2018, 18:48

Charlie Parker / Integrale Charlie Parker, Vol. 4, Bird Of Paradise (CD1)

Used drive : ATAPI iHAS122 F Adapter: 1 ID: 1

Read mode : Secure
Utilize accurate stream : Yes
Defeat audio cache : Yes
Make use of C2 pointers : No

Read offset correction : 6
Overread into Lead-In and Lead-Out : No
Fill up missing offset samples with silence : Yes
Delete leading and trailing silent blocks : No
Null samples used in CRC calculations : Yes
Used interface : Native Win32 interface for Win NT & 2000
Gap handling : Appended to previous track

Used output format : User Defined Encoder
Selected bitrate : 1024 kBit/s
Quality : High
Add ID3 tag : No
Command line compressor : C:\Program Files (x86)\Exact Audio Copy_v1.3\Flac\flac.exe
Additional command line options : -8 -V -T "ARTIST=%artist%" -T "TITLE=%title%" -T "ALBUM=%albumtitle%" -T "DATE=%year%" -T "TRACKNUMBER=%tracknr%" -T "TOTALTRACKS=%numtracks%" -T "GENRE=%genre%" -T "ALBUMARTIST=%albumartist%" -T "ALBUM ARTIST=%albumartist%" -T "COMMENT=EAC Secure Mode, Test & Copy, AccurateRip, FLAC -8" %source%


TOC of the extracted CD

Track | Start | Length | Start sector | End sector
––––––––––––––––––––––––––––-
1 | 0:00.00 | 0:10.51 | 0 | 800
2 | 0:10.51 | 2:38.63 | 801 | 12713
3 | 2:49.39 | 2:47.19 | 12714 | 25257
4 | 5:36.58 | 0:48.71 | 25258 | 28928
5 | 6:25.54 | 3:12.07 | 28929 | 43335
6 | 9:37.61 | 2:53.41 | 43336 | 56351
7 | 12:31.27 | 2:53.52 | 56352 | 69378
8 | 15:25.04 | 2:46.59 | 69379 | 81887
9 | 18:11.63 | 0:57.72 | 81888 | 86234
10 | 19:09.60 | 2:24.46 | 86235 | 97080
11 | 21:34.31 | 0:06.53 | 97081 | 97583
12 | 21:41.09 | 2:31.02 | 97584 | 108910
13 | 24:12.11 | 1:10.34 | 108911 | 114194
14 | 25:22.45 | 5:19.17 | 114195 | 138136
15 | 30:41.62 | 3:31.13 | 138137 | 153974
16 | 34:13.00 | 1:10.15 | 153975 | 159239
17 | 35:23.15 | 3:30.32 | 159240 | 175021
18 | 38:53.47 | 3:07.35 | 175022 | 189081
19 | 42:01.07 | 3:55.09 | 189082 | 206715
20 | 45:56.16 | 0:49.65 | 206716 | 210455
21 | 46:46.06 | 5:15.52 | 210456 | 234132
22 | 52:01.58 | 4:08.52 | 234133 | 252784
23 | 56:10.35 | 5:19.18 | 252785 | 276727
24 | 61:29.53 | 5:43.39 | 276728 | 302491
25 | 67:13.17 | 4:21.58 | 302492 | 322124


Track 1

Filename F:\_EAC\Charlie Parker - Integrale Charlie Parker, Vol. 4, Bird Of Paradise (2012) [FLAC] {3CD}\CD1\01 - Milestones.wav

Pre-gap length 0:00:02.00

Peak level 82.2 %
Extraction speed 1.1 X
Track quality 100.0 %
Test CRC 46DD3F00
Copy CRC 46DD3F00
Accurately ripped (confidence 6) [E567D381] (AR v2)
Copy OK

Track 2

Filename F:\_EAC\Charlie Parker - Integrale Charlie Parker, Vol. 4, Bird Of Paradise (2012) [FLAC] {3CD}\CD1\02 - Milestones (master).wav

Peak level 81.6 %
Extraction speed 4.5 X
Track quality 100.0 %
Test CRC E7AE1CB7
Copy CRC E7AE1CB7
Accurately ripped (confidence 6) [CB39E7F6] (AR v2)
Copy OK

Track 3

Filename F:\_EAC\Charlie Parker - Integrale Charlie Parker, Vol. 4, Bird Of Paradise (2012) [FLAC] {3CD}\CD1\03 - Milestones.wav

Peak level 82.1 %
Extraction speed 4.7 X
Track quality 100.0 %
Test CRC 142CE327
Copy CRC 142CE327
Accurately ripped (confidence 6) [F905DC57] (AR v2)
Copy OK

Track 4

Filename F:\_EAC\Charlie Parker - Integrale Charlie Parker, Vol. 4, Bird Of Paradise (2012) [FLAC] {3CD}\CD1\04 - Little Willie Leaps.wav

Peak level 78.1 %
Extraction speed 3.4 X
Track quality 100.0 %
Test CRC 69D75882
Copy CRC 69D75882
Accurately ripped (confidence 6) [BCA051C6] (AR v2)
Copy OK

Track 5

Filename F:\_EAC\Charlie Parker - Integrale Charlie Parker, Vol. 4, Bird Of Paradise (2012) [FLAC] {3CD}\CD1\05 - Little Willie Leaps.wav

Peak level 97.2 %
Extraction speed 5.3 X
Track quality 100.0 %
Test CRC 52B7B686
Copy CRC 52B7B686
Accurately ripped (confidence 6) [577FD453] (AR v2)
Copy OK

Track 6

Filename F:\_EAC\Charlie Parker - Integrale Charlie Parker, Vol. 4, Bird Of Paradise (2012) [FLAC] {3CD}\CD1\06 - Little Willie Leaps (master).wav

Peak level 83.0 %
Extraction speed 5.4 X
Track quality 100.0 %
Test CRC FCCAD480
Copy CRC FCCAD480
Accurately ripped (confidence 6) [032649F4] (AR v2)
Copy OK

Track 7

Filename F:\_EAC\Charlie Parker - Integrale Charlie Parker, Vol. 4, Bird Of Paradise (2012) [FLAC] {3CD}\CD1\07 - Half Nelson.wav

Peak level 83.7 %
Extraction speed 5.7 X
Track quality 100.0 %
Test CRC E8580905
Copy CRC E8580905
Accurately ripped (confidence 6) [4A183984] (AR v2)
Copy OK

Track 8

Filename F:\_EAC\Charlie Parker - Integrale Charlie Parker, Vol. 4, Bird Of Paradise (2012) [FLAC] {3CD}\CD1\08 - Half Nelson (master).wav

Peak level 81.7 %
Extraction speed 5.8 X
Track quality 100.0 %
Test CRC DF0ED381
Copy CRC DF0ED381
Accurately ripped (confidence 6) [61FC868D] (AR v2)
Copy OK

Track 9

Filename F:\_EAC\Charlie Parker - Integrale Charlie Parker, Vol. 4, Bird Of Paradise (2012) [FLAC] {3CD}\CD1\09 - Sippin' at Bells.wav

Peak level 77.0 %
Extraction speed 4.5 X
Track quality 100.0 %
Test CRC 76BA2A31
Copy CRC 76BA2A31
Accurately ripped (confidence 6) [235EEB95] (AR v2)
Copy OK

Track 10

Filename F:\_EAC\Charlie Parker - Integrale Charlie Parker, Vol. 4, Bird Of Paradise (2012) [FLAC] {3CD}\CD1\10 - Sippin' at Bells (master).wav

Peak level 88.9 %
Extraction speed 6.0 X
Track quality 100.0 %
Test CRC E172157B
Copy CRC E172157B
Accurately ripped (confidence 6) [691AB23E] (AR v2)
Copy OK

Track 11

Filename F:\_EAC\Charlie Parker - Integrale Charlie Parker, Vol. 4, Bird Of Paradise (2012) [FLAC] {3CD}\CD1\11 - Sippin' at Bells.wav

Peak level 78.1 %
Extraction speed 1.1 X
Track quality 100.0 %
Test CRC 04FE956E
Copy CRC 04FE956E
Accurately ripped (confidence 6) [C8639C46] (AR v2)
Copy OK

Track 12

Filename F:\_EAC\Charlie Parker - Integrale Charlie Parker, Vol. 4, Bird Of Paradise (2012) [FLAC] {3CD}\CD1\12 - Sippin' at Bells.wav

Peak level 80.3 %
Extraction speed 4.7 X
Track quality 99.9 %
Test CRC 937BAA61
Copy CRC 937BAA61
Accurately ripped (confidence 6) [F5521FC8] (AR v2)
Copy OK

Track 13

Filename F:\_EAC\Charlie Parker - Integrale Charlie Parker, Vol. 4, Bird Of Paradise (2012) [FLAC] {3CD}\CD1\13 - Koko.wav

Peak level 86.1 %
Extraction speed 5.2 X
Track quality 100.0 %
Test CRC EB0AC53C
Copy CRC EB0AC53C
Accurately ripped (confidence 6) [8B2B1DE8] (AR v2)
Copy OK

Track 14

Filename F:\_EAC\Charlie Parker - Integrale Charlie Parker, Vol. 4, Bird Of Paradise (2012) [FLAC] {3CD}\CD1\14 - Hot House.wav

Peak level 94.7 %
Extraction speed 7.3 X
Track quality 100.0 %
Test CRC 0A856AA9
Copy CRC 0A856AA9
Accurately ripped (confidence 6) [8EA703CF] (AR v2)
Copy OK

Track 15

Filename F:\_EAC\Charlie Parker - Integrale Charlie Parker, Vol. 4, Bird Of Paradise (2012) [FLAC] {3CD}\CD1\15 - Fine And Dandy.wav

Peak level 76.3 %
Extraction speed 5.9 X
Track quality 99.9 %
Test CRC 5A334099
Copy CRC 5A334099
Accurately ripped (confidence 6) [F5BADACD] (AR v2)
Copy OK

Track 16

Filename F:\_EAC\Charlie Parker - Integrale Charlie Parker, Vol. 4, Bird Of Paradise (2012) [FLAC] {3CD}\CD1\16 - Koko.wav

Peak level 99.4 %
Extraction speed 5.7 X
Track quality 100.0 %
Test CRC 257C5040
Copy CRC 257C5040
Accurately ripped (confidence 6) [17785A1B] (AR v2)
Copy OK

Track 17

Filename F:\_EAC\Charlie Parker - Integrale Charlie Parker, Vol. 4, Bird Of Paradise (2012) [FLAC] {3CD}\CD1\17 - On the Sunny Side of the Street.wav

Peak level 99.1 %
Extraction speed 7.6 X
Track quality 100.0 %
Test CRC B576F077
Copy CRC B576F077
Accurately ripped (confidence 6) [7A333501] (AR v2)
Copy OK

Track 18

Filename F:\_EAC\Charlie Parker - Integrale Charlie Parker, Vol. 4, Bird Of Paradise (2012) [FLAC] {3CD}\CD1\18 - How Deep Is The Ocean.wav

Peak level 97.7 %
Extraction speed 7.6 X
Track quality 100.0 %
Test CRC E87333F0
Copy CRC E87333F0
Accurately ripped (confidence 6) [EF3AFF02] (AR v2)
Copy OK

Track 19

Filename F:\_EAC\Charlie Parker - Integrale Charlie Parker, Vol. 4, Bird Of Paradise (2012) [FLAC] {3CD}\CD1\19 - Tiger Rag.wav

Peak level 96.4 %
Extraction speed 8.1 X
Track quality 100.0 %
Test CRC B1E36349
Copy CRC B1E36349
Accurately ripped (confidence 6) [62F246FD] (AR v2)
Copy OK

Track 20

Filename F:\_EAC\Charlie Parker - Integrale Charlie Parker, Vol. 4, Bird Of Paradise (2012) [FLAC] {3CD}\CD1\20 - 52nd Street Theme.wav

Peak level 93.0 %
Extraction speed 5.4 X
Track quality 100.0 %
Test CRC B2C867C2
Copy CRC B2C867C2
Accurately ripped (confidence 6) [E67AD3AF] (AR v2)
Copy OK

Track 21

Filename F:\_EAC\Charlie Parker - Integrale Charlie Parker, Vol. 4, Bird Of Paradise (2012) [FLAC] {3CD}\CD1\21 - Night In Tunisia.wav

Peak level 77.7 %
Extraction speed 7.5 X
Track quality 99.9 %
Test CRC D72AF266
Copy CRC D72AF266
Accurately ripped (confidence 6) [50D84136] (AR v2)
Copy OK

Track 22

Filename F:\_EAC\Charlie Parker - Integrale Charlie Parker, Vol. 4, Bird Of Paradise (2012) [FLAC] {3CD}\CD1\22 - Dizzy Atmosphere.wav

Peak level 85.5 %
Extraction speed 8.7 X
Track quality 100.0 %
Test CRC 8386A4E2
Copy CRC 8386A4E2
Accurately ripped (confidence 6) [9AB102AB] (AR v2)
Copy OK

Track 23

Filename F:\_EAC\Charlie Parker - Integrale Charlie Parker, Vol. 4, Bird Of Paradise (2012) [FLAC] {3CD}\CD1\23 - Groovin' High.wav

Peak level 94.1 %
Extraction speed 9.3 X
Track quality 100.0 %
Test CRC 354FA44F
Copy CRC 354FA44F
Accurately ripped (confidence 6) [57F9A121] (AR v2)
Copy OK

Track 24

Filename F:\_EAC\Charlie Parker - Integrale Charlie Parker, Vol. 4, Bird Of Paradise (2012) [FLAC] {3CD}\CD1\24 - Confirmation.wav

Peak level 70.3 %
Extraction speed 9.6 X
Track quality 100.0 %
Test CRC 60206042
Copy CRC 60206042
Accurately ripped (confidence 6) [C8744F67] (AR v2)
Copy OK

Track 25

Filename F:\_EAC\Charlie Parker - Integrale Charlie Parker, Vol. 4, Bird Of Paradise (2012) [FLAC] {3CD}\CD1\25 - Koko.wav

Peak level 98.0 %
Extraction speed 9.6 X
Track quality 100.0 %
Test CRC 12D84C81
Copy CRC 12D84C81
Accurately ripped (confidence 6) [3FE09B19] (AR v2)
Copy OK


All tracks accurately ripped

No errors occurred

End of status report

–– CUETools DB Plugin V2.1.6

[CTDB TOCID: qJeNIVBB3rKr4Rf5.DwwBblHhaw-] found
Submit result: qJeNIVBB3rKr4Rf5.DwwBblHhaw- has been confirmed
Track | CTDB Status
1 | (2/2) Accurately ripped
2 | (2/2) Accurately ripped
3 | (2/2) Accurately ripped
4 | (2/2) Accurately ripped
5 | (2/2) Accurately ripped
6 | (2/2) Accurately ripped
7 | (2/2) Accurately ripped
8 | (2/2) Accurately ripped
9 | (2/2) Accurately ripped
10 | (2/2) Accurately ripped
11 | (2/2) Accurately ripped
12 | (2/2) Accurately ripped
13 | (2/2) Accurately ripped
14 | (2/2) Accurately ripped
15 | (2/2) Accurately ripped
16 | (2/2) Accurately ripped
17 | (2/2) Accurately ripped
18 | (2/2) Accurately ripped
19 | (2/2) Accurately ripped
20 | (2/2) Accurately ripped
21 | (2/2) Accurately ripped
22 | (2/2) Accurately ripped
23 | (2/2) Accurately ripped
24 | (2/2) Accurately ripped
25 | (2/2) Accurately ripped


==== Log checksum E2BAFEA65E9E2034FD93BCFB9E379A07D8765E8F92BA2E2B1C31EAECCBD8219B ====
Exact Audio Copy V1.3 from 2. September 2016

EAC extraction logfile from 22. November 2018, 20:33

Charlie Parker / Integrale Charlie Parker, Vol. 4, Bird Of Paradise (CD2)

Used drive : ATAPI iHAS122 F Adapter: 1 ID: 1

Read mode : Secure
Utilize accurate stream : Yes
Defeat audio cache : Yes
Make use of C2 pointers : No

Read offset correction : 6
Overread into Lead-In and Lead-Out : No
Fill up missing offset samples with silence : Yes
Delete leading and trailing silent blocks : No
Null samples used in CRC calculations : Yes
Used interface : Native Win32 interface for Win NT & 2000
Gap handling : Appended to previous track

Used output format : User Defined Encoder
Selected bitrate : 1024 kBit/s
Quality : High
Add ID3 tag : No
Command line compressor : C:\Program Files (x86)\Exact Audio Copy_v1.3\Flac\flac.exe
Additional command line options : -8 -V -T "ARTIST=%artist%" -T "TITLE=%title%" -T "ALBUM=%albumtitle%" -T "DATE=%year%" -T "TRACKNUMBER=%tracknr%" -T "TOTALTRACKS=%numtracks%" -T "GENRE=%genre%" -T "ALBUMARTIST=%albumartist%" -T "ALBUM ARTIST=%albumartist%" -T "COMMENT=EAC Secure Mode, Test & Copy, AccurateRip, FLAC -8" %source%


TOC of the extracted CD

Track | Start | Length | Start sector | End sector
––––––––––––––––––––––––––––-
1 | 0:00.00 | 2:59.26 | 0 | 13450
2 | 2:59.26 | 2:59.19 | 13451 | 26894
3 | 5:58.45 | 2:45.68 | 26895 | 39337
4 | 8:44.38 | 2:44.19 | 39338 | 51656
5 | 11:28.57 | 3:29.58 | 51657 | 67389
6 | 14:58.40 | 3:03.37 | 67390 | 81151
7 | 18:02.02 | 3:09.63 | 81152 | 95389
8 | 21:11.65 | 2:32.05 | 95390 | 106794
9 | 23:43.70 | 2:28.52 | 106795 | 117946
10 | 26:12.47 | 3:08.44 | 117947 | 132090
11 | 29:21.16 | 3:10.48 | 132091 | 146388
12 | 32:31.64 | 3:11.18 | 146389 | 160731
13 | 35:43.07 | 3:45.27 | 160732 | 177633
14 | 39:28.34 | 3:24.37 | 177634 | 192970
15 | 42:52.71 | 2:52.51 | 192971 | 205921
16 | 45:45.47 | 3:06.22 | 205922 | 219893
17 | 48:51.69 | 3:06.66 | 219894 | 233909
18 | 51:58.60 | 2:43.20 | 233910 | 246154
19 | 54:42.05 | 3:02.29 | 246155 | 259833
20 | 57:44.34 | 3:12.55 | 259834 | 274288


Track 1

Filename F:\_EAC\Charlie Parker - Integrale Charlie Parker, Vol. 4, Bird Of Paradise (2012) [FLAC] {3CD}\CD2\01 - Dexterity.wav

Pre-gap length 0:00:02.00

Peak level 98.8 %
Extraction speed 4.6 X
Track quality 100.0 %
Test CRC D0D11C6E
Copy CRC D0D11C6E
Accurately ripped (confidence 6) [05DA7F4C] (AR v2)
Copy OK

Track 2

Filename F:\_EAC\Charlie Parker - Integrale Charlie Parker, Vol. 4, Bird Of Paradise (2012) [FLAC] {3CD}\CD2\02 - Dexterity (master).wav

Peak level 71.3 %
Extraction speed 3.9 X
Track quality 99.9 %
Test CRC 415735C9
Copy CRC 415735C9
Accurately ripped (confidence 6) [1E6FEF9E] (AR v2)
Copy OK

Track 3

Filename F:\_EAC\Charlie Parker - Integrale Charlie Parker, Vol. 4, Bird Of Paradise (2012) [FLAC] {3CD}\CD2\03 - Bongo Bop (master).wav

Peak level 92.1 %
Extraction speed 5.1 X
Track quality 100.0 %
Test CRC 64FFDD7E
Copy CRC 64FFDD7E
Accurately ripped (confidence 6) [DA960879] (AR v2)
Copy OK

Track 4

Filename F:\_EAC\Charlie Parker - Integrale Charlie Parker, Vol. 4, Bird Of Paradise (2012) [FLAC] {3CD}\CD2\04 - Bongo Bop.wav

Peak level 88.8 %
Extraction speed 5.3 X
Track quality 100.0 %
Test CRC 4EFB03F7
Copy CRC 4EFB03F7
Accurately ripped (confidence 6) [A5D515D2] (AR v2)
Copy OK

Track 5

Filename F:\_EAC\Charlie Parker - Integrale Charlie Parker, Vol. 4, Bird Of Paradise (2012) [FLAC] {3CD}\CD2\05 - Dewey Square (Prezology) (master).wav

Peak level 97.7 %
Extraction speed 5.8 X
Track quality 100.0 %
Test CRC 5FEA6612
Copy CRC 5FEA6612
Accurately ripped (confidence 6) [9837793F] (AR v2)
Copy OK

Track 6

Filename F:\_EAC\Charlie Parker - Integrale Charlie Parker, Vol. 4, Bird Of Paradise (2012) [FLAC] {3CD}\CD2\06 - Dewey Square.wav

Peak level 75.6 %
Extraction speed 5.9 X
Track quality 100.0 %
Test CRC 5610EFFA
Copy CRC 5610EFFA
Accurately ripped (confidence 6) [F85A5034] (AR v2)
Copy OK

Track 7

Filename F:\_EAC\Charlie Parker - Integrale Charlie Parker, Vol. 4, Bird Of Paradise (2012) [FLAC] {3CD}\CD2\07 - Dewey Square (master).wav

Peak level 77.4 %
Extraction speed 6.2 X
Track quality 100.0 %
Test CRC 3621F761
Copy CRC 3621F761
Accurately ripped (confidence 6) [A7BA1EBE] (AR v2)
Copy OK

Track 8

Filename F:\_EAC\Charlie Parker - Integrale Charlie Parker, Vol. 4, Bird Of Paradise (2012) [FLAC] {3CD}\CD2\08 - The Hymn (master).wav

Peak level 72.1 %
Extraction speed 4.7 X
Track quality 99.9 %
Test CRC B423BF36
Copy CRC B423BF36
Accurately ripped (confidence 6) [15CC0F5B] (AR v2)
Copy OK

Track 9

Filename F:\_EAC\Charlie Parker - Integrale Charlie Parker, Vol. 4, Bird Of Paradise (2012) [FLAC] {3CD}\CD2\09 - The Hymn (Superman).wav

Pre-gap length 0:00:00.01

Peak level 92.5 %
Extraction speed 4.8 X
Track quality 99.9 %
Test CRC 7F1CCEAB
Copy CRC 7F1CCEAB
Accurately ripped (confidence 6) [6217D526] (AR v2)
Copy OK

Track 10

Filename F:\_EAC\Charlie Parker - Integrale Charlie Parker, Vol. 4, Bird Of Paradise (2012) [FLAC] {3CD}\CD2\10 - Bird Of Paradise.wav

Peak level 95.5 %
Extraction speed 5.3 X
Track quality 99.9 %
Test CRC 8818D9AB
Copy CRC 8818D9AB
Accurately ripped (confidence 6) [D3E0B70B] (AR v2)
Copy OK

Track 11

Filename F:\_EAC\Charlie Parker - Integrale Charlie Parker, Vol. 4, Bird Of Paradise (2012) [FLAC] {3CD}\CD2\11 - Bird Of Paradise.wav

Peak level 85.3 %
Extraction speed 7.0 X
Track quality 100.0 %
Test CRC 1FBCBF76
Copy CRC 1FBCBF76
Accurately ripped (confidence 6) [2FA4DCB0] (AR v2)
Copy OK

Track 12

Filename F:\_EAC\Charlie Parker - Integrale Charlie Parker, Vol. 4, Bird Of Paradise (2012) [FLAC] {3CD}\CD2\12 - Bird Of Paradise.wav

Peak level 79.8 %
Extraction speed 5.7 X
Track quality 99.9 %
Test CRC 5E5880FE
Copy CRC 5E5880FE
Accurately ripped (confidence 6) [8AE8E458] (AR v2)
Copy OK

Track 13

Filename F:\_EAC\Charlie Parker - Integrale Charlie Parker, Vol. 4, Bird Of Paradise (2012) [FLAC] {3CD}\CD2\13 - Embraceable You.wav

Peak level 98.8 %
Extraction speed 7.6 X
Track quality 100.0 %
Test CRC A3B14941
Copy CRC A3B14941
Accurately ripped (confidence 6) [9E0DBD2B] (AR v2)
Copy OK

Track 14

Filename F:\_EAC\Charlie Parker - Integrale Charlie Parker, Vol. 4, Bird Of Paradise (2012) [FLAC] {3CD}\CD2\14 - Embraceable You.wav

Peak level 80.6 %
Extraction speed 6.2 X
Track quality 99.9 %
Test CRC 65D80FEA
Copy CRC 65D80FEA
Accurately ripped (confidence 6) [B90C5861] (AR v2)
Copy OK

Track 15

Filename F:\_EAC\Charlie Parker - Integrale Charlie Parker, Vol. 4, Bird Of Paradise (2012) [FLAC] {3CD}\CD2\15 - Bird Feathers (Schnourphology).wav

Peak level 90.4 %
Extraction speed 7.7 X
Track quality 100.0 %
Test CRC B4D7DC17
Copy CRC B4D7DC17
Accurately ripped (confidence 6) [398B5F11] (AR v2)
Copy OK

Track 16

Filename F:\_EAC\Charlie Parker - Integrale Charlie Parker, Vol. 4, Bird Of Paradise (2012) [FLAC] {3CD}\CD2\16 - Klact-Oveeseds-Tene (master).wav

Peak level 94.6 %
Extraction speed 8.0 X
Track quality 100.0 %
Test CRC 685F95DB
Copy CRC 685F95DB
Accurately ripped (confidence 6) [2D7C931A] (AR v2)
Copy OK

Track 17

Filename F:\_EAC\Charlie Parker - Integrale Charlie Parker, Vol. 4, Bird Of Paradise (2012) [FLAC] {3CD}\CD2\17 - Klact-Oveeseds-Tene.wav

Peak level 98.8 %
Extraction speed 6.4 X
Track quality 99.9 %
Test CRC 67D1914B
Copy CRC 67D1914B
Accurately ripped (confidence 6) [BFCEFDAC] (AR v2)
Copy OK

Track 18

Filename F:\_EAC\Charlie Parker - Integrale Charlie Parker, Vol. 4, Bird Of Paradise (2012) [FLAC] {3CD}\CD2\18 - Scrapple From The Apple.wav

Peak level 94.6 %
Extraction speed 7.9 X
Track quality 100.0 %
Test CRC 8A86343E
Copy CRC 8A86343E
Accurately ripped (confidence 6) [CAA177FB] (AR v2)
Copy OK

Track 19

Filename F:\_EAC\Charlie Parker - Integrale Charlie Parker, Vol. 4, Bird Of Paradise (2012) [FLAC] {3CD}\CD2\19 - Scrapple From The Apple (master).wav

Peak level 96.0 %
Extraction speed 8.4 X
Track quality 100.0 %
Test CRC 196A1925
Copy CRC 196A1925
Accurately ripped (confidence 6) [37DDB4C7] (AR v2)
Copy OK

Track 20

Filename F:\_EAC\Charlie Parker - Integrale Charlie Parker, Vol. 4, Bird Of Paradise (2012) [FLAC] {3CD}\CD2\20 - My Old Flame.wav

Peak level 98.8 %
Extraction speed 8.6 X
Track quality 100.0 %
Test CRC 3CEC4E12
Copy CRC 3CEC4E12
Accurately ripped (confidence 6) [BD16B21B] (AR v2)
Copy OK


All tracks accurately ripped

No errors occurred

End of status report

–– CUETools DB Plugin V2.1.6

[CTDB TOCID: ZFSiiMrOyrJt4qFhXCkdSCO6C24-] found
Submit result: ZFSiiMrOyrJt4qFhXCkdSCO6C24- has been confirmed
Track | CTDB Status
1 | (2/2) Accurately ripped
2 | (2/2) Accurately ripped
3 | (2/2) Accurately ripped
4 | (2/2) Accurately ripped
5 | (2/2) Accurately ripped
6 | (2/2) Accurately ripped
7 | (2/2) Accurately ripped
8 | (2/2) Accurately ripped
9 | (2/2) Accurately ripped
10 | (2/2) Accurately ripped
11 | (2/2) Accurately ripped
12 | (2/2) Accurately ripped
13 | (2/2) Accurately ripped
14 | (2/2) Accurately ripped
15 | (2/2) Accurately ripped
16 | (2/2) Accurately ripped
17 | (2/2) Accurately ripped
18 | (2/2) Accurately ripped
19 | (2/2) Accurately ripped
20 | (2/2) Accurately ripped


==== Log checksum AE872EB77D9FF44E65C09F34982CF7D3663920652A816E8E197F15A3F2757280 ====
Exact Audio Copy V1.3 from 2. September 2016

EAC extraction logfile from 22. November 2018, 23:56

Charlie Parker / Integrale Charlie Parker, Vol. 4, Bird Of Paradise (CD3)

Used drive : ATAPI iHAS122 F Adapter: 1 ID: 1

Read mode : Secure
Utilize accurate stream : Yes
Defeat audio cache : Yes
Make use of C2 pointers : No

Read offset correction : 6
Overread into Lead-In and Lead-Out : No
Fill up missing offset samples with silence : Yes
Delete leading and trailing silent blocks : No
Null samples used in CRC calculations : Yes
Used interface : Native Win32 interface for Win NT & 2000
Gap handling : Appended to previous track

Used output format : User Defined Encoder
Selected bitrate : 1024 kBit/s
Quality : High
Add ID3 tag : No
Command line compressor : C:\Program Files (x86)\Exact Audio Copy_v1.3\Flac\flac.exe
Additional command line options : -8 -V -T "ARTIST=%artist%" -T "TITLE=%title%" -T "ALBUM=%albumtitle%" -T "DATE=%year%" -T "TRACKNUMBER=%tracknr%" -T "TOTALTRACKS=%numtracks%" -T "GENRE=%genre%" -T "ALBUMARTIST=%albumartist%" -T "ALBUM ARTIST=%albumartist%" -T "COMMENT=EAC Secure Mode, Test & Copy, AccurateRip, FLAC -8" %source%


TOC of the extracted CD

Track | Start | Length | Start sector | End sector
––––––––––––––––––––––––––––-
1 | 0:00.00 | 4:07.13 | 0 | 18537
2 | 4:07.13 | 3:52.16 | 18538 | 35953
3 | 7:59.29 | 3:06.69 | 35954 | 49972
4 | 11:06.23 | 2:50.42 | 49973 | 62764
5 | 13:56.65 | 1:42.12 | 62765 | 70426
6 | 15:39.02 | 2:58.71 | 70427 | 83847
7 | 18:37.73 | 2:50.28 | 83848 | 96625
8 | 21:28.26 | 3:32.33 | 96626 | 112558
9 | 25:00.59 | 6:18.09 | 112559 | 140917
10 | 31:18.68 | 3:01.49 | 140918 | 154541
11 | 34:20.42 | 2:57.73 | 154542 | 167889
12 | 37:18.40 | 2:55.68 | 167890 | 181082
13 | 40:14.33 | 2:58.63 | 181083 | 194495
14 | 43:13.21 | 2:59.17 | 194496 | 207937
15 | 46:12.38 | 2:52.12 | 207938 | 220849
16 | 49:04.50 | 2:51.30 | 220850 | 233704
17 | 51:56.05 | 2:47.39 | 233705 | 246268
18 | 54:43.44 | 3:03.67 | 246269 | 260060
19 | 57:47.36 | 3:02.51 | 260061 | 273761
20 | 60:50.12 | 1:02.74 | 273762 | 278485
21 | 61:53.11 | 0:36.04 | 278486 | 281189
22 | 62:29.15 | 3:02.68 | 281190 | 294907
23 | 65:32.08 | 3:03.53 | 294908 | 308685
24 | 68:35.61 | 3:26.18 | 308686 | 324153
25 | 72:02.04 | 3:07.10 | 324154 | 338188


Track 1

Filename F:\_EAC\Charlie Parker - Integrale Charlie Parker, Vol. 4, Bird Of Paradise (2012) [FLAC] {3CD}\CD3\01 - Out Of Nowhere.wav

Pre-gap length 0:00:02.00

Peak level 71.9 %
Extraction speed 4.8 X
Track quality 100.0 %
Test CRC 61602172
Copy CRC 61602172
Accurately ripped (confidence 6) [D0149E43] (AR v2)
Copy OK

Track 2

Filename F:\_EAC\Charlie Parker - Integrale Charlie Parker, Vol. 4, Bird Of Paradise (2012) [FLAC] {3CD}\CD3\02 - Out Of Nowhere.wav

Peak level 69.1 %
Extraction speed 5.3 X
Track quality 100.0 %
Test CRC 0E28E1EB
Copy CRC 0E28E1EB
Accurately ripped (confidence 6) [BA442255] (AR v2)
Copy OK

Track 3

Filename F:\_EAC\Charlie Parker - Integrale Charlie Parker, Vol. 4, Bird Of Paradise (2012) [FLAC] {3CD}\CD3\03 - Out Of Nowhere.wav

Peak level 64.8 %
Extraction speed 4.3 X
Track quality 99.9 %
Test CRC ECE63D88
Copy CRC ECE63D88
Accurately ripped (confidence 6) [93D7CBAD] (AR v2)
Copy OK

Track 4

Filename F:\_EAC\Charlie Parker - Integrale Charlie Parker, Vol. 4, Bird Of Paradise (2012) [FLAC] {3CD}\CD3\04 - Don't Blame Me.wav

Peak level 98.8 %
Extraction speed 5.6 X
Track quality 100.0 %
Test CRC 5963F630
Copy CRC 5963F630
Accurately ripped (confidence 6) [6ED310B4] (AR v2)
Copy OK

Track 5

Filename F:\_EAC\Charlie Parker - Integrale Charlie Parker, Vol. 4, Bird Of Paradise (2012) [FLAC] {3CD}\CD3\05 - 52nd Street Theme.wav

Peak level 93.6 %
Extraction speed 5.1 X
Track quality 100.0 %
Test CRC 85F85951
Copy CRC 85F85951
Accurately ripped (confidence 6) [22A1F29E] (AR v2)
Copy OK

Track 6

Filename F:\_EAC\Charlie Parker - Integrale Charlie Parker, Vol. 4, Bird Of Paradise (2012) [FLAC] {3CD}\CD3\06 - Donna Lee.wav

Peak level 76.3 %
Extraction speed 4.8 X
Track quality 99.9 %
Test CRC 06683DC2
Copy CRC 06683DC2
Accurately ripped (confidence 6) [D709333B] (AR v2)
Copy OK

Track 7

Filename F:\_EAC\Charlie Parker - Integrale Charlie Parker, Vol. 4, Bird Of Paradise (2012) [FLAC] {3CD}\CD3\07 - Fats Flat.wav

Peak level 87.8 %
Extraction speed 6.2 X
Track quality 100.0 %
Test CRC FD3ADFDC
Copy CRC FD3ADFDC
Accurately ripped (confidence 6) [92C50768] (AR v2)
Copy OK

Track 8

Filename F:\_EAC\Charlie Parker - Integrale Charlie Parker, Vol. 4, Bird Of Paradise (2012) [FLAC] {3CD}\CD3\08 - Groovin' High.wav

Peak level 95.3 %
Extraction speed 6.7 X
Track quality 100.0 %
Test CRC C033AC9C
Copy CRC C033AC9C
Accurately ripped (confidence 6) [79402E4E] (AR v2)
Copy OK

Track 9

Filename F:\_EAC\Charlie Parker - Integrale Charlie Parker, Vol. 4, Bird Of Paradise (2012) [FLAC] {3CD}\CD3\09 - Koko.wav

Peak level 81.3 %
Extraction speed 6.6 X
Track quality 99.9 %
Test CRC 73B74621
Copy CRC 73B74621
Accurately ripped (confidence 6) [1FA020C1] (AR v2)
Copy OK

Track 10

Filename F:\_EAC\Charlie Parker - Integrale Charlie Parker, Vol. 4, Bird Of Paradise (2012) [FLAC] {3CD}\CD3\10 - Drifting On a Reed (Giant Swing).wav

Peak level 68.1 %
Extraction speed 7.2 X
Track quality 100.0 %
Test CRC 76F77F57
Copy CRC 76F77F57
Accurately ripped (confidence 6) [F7633A67] (AR v2)
Copy OK

Track 11

Filename F:\_EAC\Charlie Parker - Integrale Charlie Parker, Vol. 4, Bird Of Paradise (2012) [FLAC] {3CD}\CD3\11 - Drifting On a Reed.wav

Peak level 73.9 %
Extraction speed 5.8 X
Track quality 99.9 %
Test CRC 78219B80
Copy CRC 78219B80
Accurately ripped (confidence 6) [E04B4B67] (AR v2)
Copy OK

Track 12

Filename F:\_EAC\Charlie Parker - Integrale Charlie Parker, Vol. 4, Bird Of Paradise (2012) [FLAC] {3CD}\CD3\12 - Drifting On a Reed (Air Conditioning).wav

Peak level 92.4 %
Extraction speed 7.5 X
Track quality 100.0 %
Test CRC 5BD9FB13
Copy CRC 5BD9FB13
Accurately ripped (confidence 6) [76507FB9] (AR v2)
Copy OK

Track 13

Filename F:\_EAC\Charlie Parker - Integrale Charlie Parker, Vol. 4, Bird Of Paradise (2012) [FLAC] {3CD}\CD3\13 - Quasimado.wav

Peak level 98.8 %
Extraction speed 7.6 X
Track quality 100.0 %
Test CRC 04D9659E
Copy CRC 04D9659E
Accurately ripped (confidence 6) [20341455] (AR v2)
Copy OK

Track 14

Filename F:\_EAC\Charlie Parker - Integrale Charlie Parker, Vol. 4, Bird Of Paradise (2012) [FLAC] {3CD}\CD3\14 - Quasimado (Trade Winds) (master).wav

Peak level 73.5 %
Extraction speed 8.0 X
Track quality 100.0 %
Test CRC A3E45E3F
Copy CRC A3E45E3F
Accurately ripped (confidence 6) [F0037668] (AR v2)
Copy OK

Track 15

Filename F:\_EAC\Charlie Parker - Integrale Charlie Parker, Vol. 4, Bird Of Paradise (2012) [FLAC] {3CD}\CD3\15 - Charlie's Wig.wav

Peak level 74.7 %
Extraction speed 8.0 X
Track quality 100.0 %
Test CRC A324730E
Copy CRC A324730E
Accurately ripped (confidence 6) [9CAE6DF9] (AR v2)
Copy OK

Track 16

Filename F:\_EAC\Charlie Parker - Integrale Charlie Parker, Vol. 4, Bird Of Paradise (2012) [FLAC] {3CD}\CD3\16 - Charlie's Wig (Bongo Bop).wav

Peak level 98.8 %
Extraction speed 8.2 X
Track quality 100.0 %
Test CRC ED2352BD
Copy CRC ED2352BD
Accurately ripped (confidence 6) [8F1D5946] (AR v2)
Copy OK

Track 17

Filename F:\_EAC\Charlie Parker - Integrale Charlie Parker, Vol. 4, Bird Of Paradise (2012) [FLAC] {3CD}\CD3\17 - Charlie's Wig (master).wav

Peak level 79.3 %
Extraction speed 8.1 X
Track quality 100.0 %
Test CRC 06CDEDB0
Copy CRC 06CDEDB0
Accurately ripped (confidence 6) [58D02110] (AR v2)
Copy OK

Track 18

Filename F:\_EAC\Charlie Parker - Integrale Charlie Parker, Vol. 4, Bird Of Paradise (2012) [FLAC] {3CD}\CD3\18 - Bongo Beep (Dexterity).wav

Peak level 84.8 %
Extraction speed 6.7 X
Track quality 99.9 %
Test CRC AB4C4426
Copy CRC AB4C4426
Accurately ripped (confidence 6) [CD86A968] (AR v2)
Copy OK

Track 19

Filename F:\_EAC\Charlie Parker - Integrale Charlie Parker, Vol. 4, Bird Of Paradise (2012) [FLAC] {3CD}\CD3\19 - Bongo Beep (Bird Feathers).wav

Peak level 98.8 %
Extraction speed 8.7 X
Track quality 100.0 %
Test CRC 9312B633
Copy CRC 9312B633
Accurately ripped (confidence 6) [44BF43A1] (AR v2)
Copy OK

Track 20

Filename F:\_EAC\Charlie Parker - Integrale Charlie Parker, Vol. 4, Bird Of Paradise (2012) [FLAC] {3CD}\CD3\20 - Crazeology.wav

Peak level 98.8 %
Extraction speed 6.5 X
Track quality 100.0 %
Test CRC 1FFB250E
Copy CRC 1FFB250E
Accurately ripped (confidence 6) [2570CC90] (AR v2)
Copy OK

Track 21

Filename F:\_EAC\Charlie Parker - Integrale Charlie Parker, Vol. 4, Bird Of Paradise (2012) [FLAC] {3CD}\CD3\21 - Crazeology.wav

Peak level 70.2 %
Extraction speed 5.0 X
Track quality 100.0 %
Test CRC 10722EFB
Copy CRC 10722EFB
Accurately ripped (confidence 6) [0AA66C0F] (AR v2)
Copy OK

Track 22

Filename F:\_EAC\Charlie Parker - Integrale Charlie Parker, Vol. 4, Bird Of Paradise (2012) [FLAC] {3CD}\CD3\22 - Crazeology.wav

Peak level 68.4 %
Extraction speed 6.9 X
Track quality 99.9 %
Test CRC 8B3CDC61
Copy CRC 8B3CDC61
Accurately ripped (confidence 6) [A309F093] (AR v2)
Copy OK

Track 23

Filename F:\_EAC\Charlie Parker - Integrale Charlie Parker, Vol. 4, Bird Of Paradise (2012) [FLAC] {3CD}\CD3\23 - Crazeology.wav

Peak level 76.5 %
Extraction speed 9.1 X
Track quality 100.0 %
Test CRC 0D1EF29A
Copy CRC 0D1EF29A
Accurately ripped (confidence 6) [55F05BDC] (AR v2)
Copy OK

Track 24

Filename F:\_EAC\Charlie Parker - Integrale Charlie Parker, Vol. 4, Bird Of Paradise (2012) [FLAC] {3CD}\CD3\24 - How Deep Is The Ocean (master).wav

Peak level 98.8 %
Extraction speed 9.4 X
Track quality 100.0 %
Test CRC E0017524
Copy CRC E0017524
Accurately ripped (confidence 6) [CD2FB5DC] (AR v2)
Copy OK

Track 25

Filename F:\_EAC\Charlie Parker - Integrale Charlie Parker, Vol. 4, Bird Of Paradise (2012) [FLAC] {3CD}\CD3\25 - How Deep Is The Ocean.wav

Peak level 78.2 %
Extraction speed 9.1 X
Track quality 100.0 %
Test CRC A02B272B
Copy CRC A02B272B
Accurately ripped (confidence 6) [19E6FA55] (AR v2)
Copy OK


All tracks accurately ripped

No errors occurred

End of status report

–– CUETools DB Plugin V2.1.6

[CTDB TOCID: xoojZ.tJmj3ucvkZbppPjyYukF8-] found
Submit result: xoojZ.tJmj3ucvkZbppPjyYukF8- has been submitted
Track | CTDB Status
1 | (2/2) Accurately ripped
2 | (2/2) Accurately ripped
3 | (2/2) Accurately ripped
4 | (2/2) Accurately ripped
5 | (2/2) Accurately ripped
6 | (2/2) Accurately ripped
7 | (2/2) Accurately ripped
8 | (2/2) Accurately ripped
9 | (2/2) Accurately ripped
10 | (2/2) Accurately ripped
11 | (2/2) Accurately ripped
12 | (2/2) Accurately ripped
13 | (2/2) Accurately ripped
14 | (2/2) Accurately ripped
15 | (2/2) Accurately ripped
16 | (2/2) Accurately ripped
17 | (2/2) Accurately ripped
18 | (2/2) Accurately ripped
19 | (2/2) Accurately ripped
20 | (2/2) Accurately ripped
21 | (2/2) Accurately ripped
22 | (2/2) Accurately ripped
23 | (2/2) Accurately ripped
24 | (2/2) Accurately ripped
25 | (2/2) Accurately ripped


==== Log checksum C320C1BC0BE4CDCC85DC3CDE9C18B672F1A598A5EBF073ACF19C2EB4EEDABCD4 ====


Charlie Parker - Integrale Charlie Parker, Vol. 4, "Bird Of Paradise", 1947 (2012) {3CD Set Frémeaux & Associés FA1334}


Thanks to SavoyFun for CDs…

NEXT -> Charlie Parker - Intégrale Charlie Parker, Vol. 5, "Parker's Mood", 1947-1949 (2012) {3CD Set Frémeaux & Associés FA1335}

see more Charlie Parker…


===