Subcategories

Charlie Parker - Integrale Charlie Parker, Vol. 5, "Parker's Mood", 1947-1949 (2012) {3CD Set Frémeaux & Associés FA1335}

Posted By: ruskaval
Charlie Parker - Integrale Charlie Parker, Vol. 5, "Parker's Mood", 1947-1949 (2012) {3CD Set Frémeaux & Associés FA1335}

Charlie Parker - Integrale Charlie Parker, Vol. 5, "Parker's Mood", 1947-1949 (2012) {3CD Set Frémeaux & Associés FA1335}
EAC rip (secure mode) | FLAC (tracks)+CUE+LOG -> 909 Mb | MP3 @320 -> 534 Mb
Full Artwork @ 600 dpi (jpg) -> 474 Mb | 5% repair rar
© 1947-49, 2012 Frémeaux & Associés | FA 1335
Jazz / Be Bop / Bop / Saxophone

Bird was like the sun, giving off the energy we drew from him… In any musical situation, his ideas just bounded out, and his inspired anyone who was around. The aim of 'The Complete Charlie Parker', compiled for Frémeaux & Associés by Alain Tercinet, is to present (as far as possible) every studio-recording by Parker, together with titles featured in radio-broadcasts. Private recordings have been deliberately omitted from this selection to preserve a consistency of sound and aesthetic quality equal to the genius of this artist.
Charlie Parker - Integrale Charlie Parker, Vol. 5, "Parker's Mood", 1947-1949 (2012) {3CD Set Frémeaux & Associés FA1335}

Alto sax player Charlie’ (Yard)Bird’ Parker is one of the most influential jazzmen of all time, and in the timespan covered by the fifth volume in Frémeaux’s comprehensive (almost – the booklet gives good reasons for an occasional omission, though true completists may still have cause for complaint) he was firmly in bebop mode, though his blues playing – remember he honed his playing with Jay McShann’s Orchestra – is still in evidence on some tracks. With sideman such as trumpeters Miles Davis (most often), Fats Navarro, and Dizzy Gillepsie, pianists John Lawis and Lennie Tristano and regular Drummer Max Roach, among others, this is cerebral music – ‘modern progessive jazz’ as symphony Sid, the announcer of the Royal Roost radio Broadcast of Christmas Day 1948 calls it. However, there are also two titles recorded with Machito And His Afro-Cuban Orchestra, which are fine examples of ‘cubop’ though notable mainly for Bird’s contributions and the percussion section. Of course, anyone interested in jazz should have some Parker in their collection – this set, with its numerous false starts and radio broadcasts gives perhaps a more in-depth portrait than some day feel they need, but it is indeed fascinating. Norman DARWEN – BLUES & RHYTHM
Charlie Parker - Integrale Charlie Parker, Vol. 5, "Parker's Mood", 1947-1949 (2012) {3CD Set Frémeaux & Associés FA1335}


fremeaux.com INFO

Musicians

Charlie Parker , Charlie Parker With The Neal Hefti Orchestra, N. Hefti , Charlie Parker All Stars, Inconnu , Thelonius Monk , Charlie Parker Quintet, Dizzy Gillespie , F. Loesser , T. Dameron , J. Greene , M. Lewis , Charlie Parker With Machito And His Aro-cuban Orchestra, J. Bartee , G. Valdez , Miles Davis , Irving Berlin , B. Bowman , Metronome All Stars, Pete Rugolo , Lennie Tristano

Track Listing

CD1

01 - The Bird
02 - Repetition
03 - Another Hair Do
04 - Another Hair Do
05 - Another Hair Do
06 - Another Hair Do (master)
07 - Bluebird
08 - Bluebird (master)
09 - Klaustance (master)
10 - Bird Gets the Worm
11 - Bird Gets the Worm
12 - Bird Gets the Worm (master)
13 - Announcer
14 - 52nd Street Theme
15 - Koko
16 - Barbados
17 - Barbados
18 - Barbados
19 - Barbados (master)
20 - Ah-Leu-Cha
21 - Ah-Leu-Cha (master)
22 - Constellation
23 - Constellation
24 - Constellation
25 - Constellation
26 - Constellation (master)
27 - Parker's Mood
28 - Parker's Mood
29 - Parker's Mood (master)
30 - Drifting on a Reed (Big Foot)

Charlie Parker - Integrale Charlie Parker, Vol. 5, "Parker's Mood", 1947-1949 (2012) {3CD Set Frémeaux & Associés FA1335}


CD2
01 - Perhaps
02 - Perhaps
03 - Perhaps
04 - Perhaps
05 - Perhaps
06 - Perhaps
07 - Perhaps (master)
08 - Marmaduke
09 - Marmaduke
10 - Marmaduke
11 - Marmaduke
12 - Marmaduke
13 - Marmaduke
14 - Marmaduke
15 - Marmaduke (master)
16 - Steeplechase
17 - Merry-Go-Round
18 - Merry-Go-Round (master)
19 - Announcer
20 - Groovin' High
21 - Big Foot
22 - Ornithology
23 - On A Slow Boat To China
24 - Announcer
25 - Hot House
26 - Salt Peanuts
27 - Announcer
28 - Chasin' The Bird
29 - Out Of Nowhere
30 - How High The Moon

Charlie Parker - Integrale Charlie Parker, Vol. 5, "Parker's Mood", 1947-1949 (2012) {3CD Set Frémeaux & Associés FA1335}


CD3
01 - No Noise, Part. 1 & 2
02 - Mango Mangue
03 - Announcer
04 - Half Nelson
05 - White Christmas
06 - Little Willie Leaps
07 - Announcer
08 - Be-Bop
09 - On A Slow Boat To China
10 - Ornithology
11 - Groovin'High
12 - East Of The Sun
13 - Cheryl
14 - Announcer
15 - How High The Moon
16 - Overtime
17 - Overtime
18 - Victory Ball
19 - Victory Ball
20 - Victory Ball

Charlie Parker - Integrale Charlie Parker, Vol. 5, "Parker's Mood", 1947-1949 (2012) {3CD Set Frémeaux & Associés FA1335}


Exact Audio Copy V1.3 from 2. September 2016

EAC extraction logfile from 14. December 2018, 14:56

Charlie Parker / Integrale Charlie Parker, Vol. 5, Parker's Mood (CD1)

Used drive : ATAPI iHAS122 F Adapter: 1 ID: 0

Read mode : Secure
Utilize accurate stream : Yes
Defeat audio cache : Yes
Make use of C2 pointers : No

Read offset correction : 6
Overread into Lead-In and Lead-Out : No
Fill up missing offset samples with silence : Yes
Delete leading and trailing silent blocks : No
Null samples used in CRC calculations : Yes
Used interface : Native Win32 interface for Win NT & 2000
Gap handling : Appended to previous track

Used output format : User Defined Encoder
Selected bitrate : 1024 kBit/s
Quality : High
Add ID3 tag : No
Command line compressor : C:\Program Files (x86)\Exact Audio Copy_v1.3\Flac\flac.exe
Additional command line options : -8 -V -T "ARTIST=%artist%" -T "TITLE=%title%" -T "ALBUM=%albumtitle%" -T "DATE=%year%" -T "TRACKNUMBER=%tracknr%" -T "TOTALTRACKS=%numtracks%" -T "GENRE=%genre%" -T "ALBUMARTIST=%albumartist%" -T "ALBUM ARTIST=%albumartist%" -T "COMMENT=EAC Secure Mode, Test & Copy, AccurateRip, FLAC -8" %source%


TOC of the extracted CD

Track | Start | Length | Start sector | End sector
––––––––––––––––––––––––––––-
1 | 0:00.00 | 4:48.56 | 0 | 21655
2 | 4:48.56 | 3:02.11 | 21656 | 35316
3 | 7:50.67 | 0:15.01 | 35317 | 36442
4 | 8:05.68 | 0:44.62 | 36443 | 39804
5 | 8:50.55 | 1:05.40 | 39805 | 44719
6 | 9:56.20 | 2:41.17 | 44720 | 56811
7 | 12:37.37 | 2:56.24 | 56812 | 70035
8 | 15:33.61 | 2:54.10 | 70036 | 83095
9 | 18:27.71 | 2:48.22 | 83096 | 95717
10 | 21:16.18 | 3:03.29 | 95718 | 109471
11 | 24:19.47 | 0:11.13 | 109472 | 110309
12 | 24:30.60 | 2:38.34 | 110310 | 122193
13 | 27:09.19 | 1:22.00 | 122194 | 128343
14 | 28:31.19 | 4:18.16 | 128344 | 147709
15 | 32:49.35 | 3:28.37 | 147710 | 163346
16 | 36:17.72 | 2:41.65 | 163347 | 175486
17 | 38:59.62 | 0:47.01 | 175487 | 179012
18 | 39:46.63 | 2:39.23 | 179013 | 190960
19 | 42:26.11 | 2:33.00 | 190961 | 202435
20 | 44:59.11 | 0:39.31 | 202436 | 205391
21 | 45:38.42 | 2:59.02 | 205392 | 218818
22 | 48:37.44 | 0:20.72 | 218819 | 220390
23 | 48:58.41 | 2:32.34 | 220391 | 231824
24 | 51:31.00 | 2:06.02 | 231825 | 241276
25 | 53:37.02 | 0:22.18 | 241277 | 242944
26 | 53:59.20 | 2:30.17 | 242945 | 254211
27 | 56:29.37 | 3:24.74 | 254212 | 269585
28 | 59:54.36 | 2:26.04 | 269586 | 280539
29 | 62:20.40 | 3:03.47 | 280540 | 294311
30 | 65:24.12 | 4:25.25 | 294312 | 314211


Track 1

Filename F:\_EAC\Charlie Parker - Integrale Charlie Parker, Vol. 5, Parker's Mood (2012) [FLAC] {3CD}\CD1\01 - The Bird.wav

Pre-gap length 0:00:02.00

Peak level 96.6 %
Extraction speed 5.0 X
Track quality 100.0 %
Test CRC 2148EBF1
Copy CRC 2148EBF1
Accurately ripped (confidence 5) [DECF4FC9] (AR v2)
Copy OK

Track 2

Filename F:\_EAC\Charlie Parker - Integrale Charlie Parker, Vol. 5, Parker's Mood (2012) [FLAC] {3CD}\CD1\02 - Repetition.wav

Peak level 86.4 %
Extraction speed 5.0 X
Track quality 100.0 %
Test CRC 1D30FCB9
Copy CRC 1D30FCB9
Accurately ripped (confidence 5) [F0AF6EC5] (AR v2)
Copy OK

Track 3

Filename F:\_EAC\Charlie Parker - Integrale Charlie Parker, Vol. 5, Parker's Mood (2012) [FLAC] {3CD}\CD1\03 - Another Hair Do.wav

Peak level 71.5 %
Extraction speed 1.8 X
Track quality 100.0 %
Test CRC 289B65F3
Copy CRC 289B65F3
Accurately ripped (confidence 5) [35E53858] (AR v2)
Copy OK

Track 4

Filename F:\_EAC\Charlie Parker - Integrale Charlie Parker, Vol. 5, Parker's Mood (2012) [FLAC] {3CD}\CD1\04 - Another Hair Do.wav

Peak level 77.8 %
Extraction speed 2.0 X
Track quality 99.7 %
Test CRC 3134078C
Copy CRC 3134078C
Accurately ripped (confidence 5) [91EC9C94] (AR v2)
Copy OK

Track 5

Filename F:\_EAC\Charlie Parker - Integrale Charlie Parker, Vol. 5, Parker's Mood (2012) [FLAC] {3CD}\CD1\05 - Another Hair Do.wav

Peak level 84.4 %
Extraction speed 4.1 X
Track quality 100.0 %
Test CRC CBEE3BD8
Copy CRC CBEE3BD8
Accurately ripped (confidence 5) [8755D207] (AR v2)
Copy OK

Track 6

Filename F:\_EAC\Charlie Parker - Integrale Charlie Parker, Vol. 5, Parker's Mood (2012) [FLAC] {3CD}\CD1\06 - Another Hair Do (master).wav

Peak level 80.9 %
Extraction speed 5.4 X
Track quality 100.0 %
Test CRC 5F86F0FE
Copy CRC 5F86F0FE
Accurately ripped (confidence 5) [53AB3CAE] (AR v2)
Copy OK

Track 7

Filename F:\_EAC\Charlie Parker - Integrale Charlie Parker, Vol. 5, Parker's Mood (2012) [FLAC] {3CD}\CD1\07 - Bluebird.wav

Peak level 93.1 %
Extraction speed 5.7 X
Track quality 100.0 %
Test CRC 6D997CC9
Copy CRC 6D997CC9
Accurately ripped (confidence 5) [9401682E] (AR v2)
Copy OK

Track 8

Filename F:\_EAC\Charlie Parker - Integrale Charlie Parker, Vol. 5, Parker's Mood (2012) [FLAC] {3CD}\CD1\08 - Bluebird (master).wav

Peak level 68.0 %
Extraction speed 5.9 X
Track quality 100.0 %
Test CRC 54E64297
Copy CRC 54E64297
Accurately ripped (confidence 5) [FDFDE289] (AR v2)
Copy OK

Track 9

Filename F:\_EAC\Charlie Parker - Integrale Charlie Parker, Vol. 5, Parker's Mood (2012) [FLAC] {3CD}\CD1\09 - Klaustance (master).wav

Peak level 83.9 %
Extraction speed 4.8 X
Track quality 99.9 %
Test CRC FBD84BAF
Copy CRC FBD84BAF
Accurately ripped (confidence 5) [C61C7442] (AR v2)
Copy OK

Track 10

Filename F:\_EAC\Charlie Parker - Integrale Charlie Parker, Vol. 5, Parker's Mood (2012) [FLAC] {3CD}\CD1\10 - Bird Gets the Worm.wav

Peak level 80.7 %
Extraction speed 6.5 X
Track quality 100.0 %
Test CRC 53F1E99D
Copy CRC 53F1E99D
Accurately ripped (confidence 5) [22AE3386] (AR v2)
Copy OK

Track 11

Filename F:\_EAC\Charlie Parker - Integrale Charlie Parker, Vol. 5, Parker's Mood (2012) [FLAC] {3CD}\CD1\11 - Bird Gets the Worm.wav

Peak level 56.9 %
Extraction speed 1.6 X
Track quality 100.0 %
Test CRC 795086AC
Copy CRC 795086AC
Accurately ripped (confidence 5) [0FEEEC21] (AR v2)
Copy OK

Track 12

Filename F:\_EAC\Charlie Parker - Integrale Charlie Parker, Vol. 5, Parker's Mood (2012) [FLAC] {3CD}\CD1\12 - Bird Gets the Worm (master).wav

Peak level 78.1 %
Extraction speed 6.5 X
Track quality 100.0 %
Test CRC CB18AE07
Copy CRC CB18AE07
Accurately ripped (confidence 5) [286F5C62] (AR v2)
Copy OK

Track 13

Filename F:\_EAC\Charlie Parker - Integrale Charlie Parker, Vol. 5, Parker's Mood (2012) [FLAC] {3CD}\CD1\13 - Announcer.wav

Peak level 98.8 %
Extraction speed 3.7 X
Track quality 99.8 %
Test CRC DE08C4FF
Copy CRC DE08C4FF
Accurately ripped (confidence 5) [C6B982B3] (AR v2)
Copy OK

Track 14

Filename F:\_EAC\Charlie Parker - Integrale Charlie Parker, Vol. 5, Parker's Mood (2012) [FLAC] {3CD}\CD1\14 - 52nd Street Theme.wav

Peak level 91.8 %
Extraction speed 7.3 X
Track quality 100.0 %
Test CRC 51F5F549
Copy CRC 51F5F549
Accurately ripped (confidence 5) [9683E93F] (AR v2)
Copy OK

Track 15

Filename F:\_EAC\Charlie Parker - Integrale Charlie Parker, Vol. 5, Parker's Mood (2012) [FLAC] {3CD}\CD1\15 - Koko.wav

Peak level 77.3 %
Extraction speed 5.9 X
Track quality 99.9 %
Test CRC CB8553D4
Copy CRC CB8553D4
Accurately ripped (confidence 5) [616DE7D2] (AR v2)
Copy OK

Track 16

Filename F:\_EAC\Charlie Parker - Integrale Charlie Parker, Vol. 5, Parker's Mood (2012) [FLAC] {3CD}\CD1\16 - Barbados.wav

Peak level 80.9 %
Extraction speed 7.3 X
Track quality 100.0 %
Test CRC D59FD667
Copy CRC D59FD667
Accurately ripped (confidence 5) [E55EE4BA] (AR v2)
Copy OK

Track 17

Filename F:\_EAC\Charlie Parker - Integrale Charlie Parker, Vol. 5, Parker's Mood (2012) [FLAC] {3CD}\CD1\17 - Barbados.wav

Peak level 75.5 %
Extraction speed 4.8 X
Track quality 100.0 %
Test CRC 345209E3
Copy CRC 345209E3
Accurately ripped (confidence 5) [F71CA89E] (AR v2)
Copy OK

Track 18

Filename F:\_EAC\Charlie Parker - Integrale Charlie Parker, Vol. 5, Parker's Mood (2012) [FLAC] {3CD}\CD1\18 - Barbados.wav

Peak level 89.9 %
Extraction speed 7.5 X
Track quality 100.0 %
Test CRC 950BA95D
Copy CRC 950BA95D
Accurately ripped (confidence 5) [7FCFFF01] (AR v2)
Copy OK

Track 19

Filename F:\_EAC\Charlie Parker - Integrale Charlie Parker, Vol. 5, Parker's Mood (2012) [FLAC] {3CD}\CD1\19 - Barbados (master).wav

Peak level 89.3 %
Extraction speed 7.6 X
Track quality 100.0 %
Test CRC C621BB70
Copy CRC C621BB70
Accurately ripped (confidence 5) [534EBF9F] (AR v2)
Copy OK

Track 20

Filename F:\_EAC\Charlie Parker - Integrale Charlie Parker, Vol. 5, Parker's Mood (2012) [FLAC] {3CD}\CD1\20 - Ah-Leu-Cha.wav

Peak level 73.1 %
Extraction speed 4.8 X
Track quality 100.0 %
Test CRC ABA1D2CA
Copy CRC ABA1D2CA
Accurately ripped (confidence 5) [6C82DD6F] (AR v2)
Copy OK

Track 21

Filename F:\_EAC\Charlie Parker - Integrale Charlie Parker, Vol. 5, Parker's Mood (2012) [FLAC] {3CD}\CD1\21 - Ah-Leu-Cha (master).wav

Peak level 80.0 %
Extraction speed 8.0 X
Track quality 100.0 %
Test CRC B10BCB39
Copy CRC B10BCB39
Accurately ripped (confidence 5) [DAD14BE3] (AR v2)
Copy OK

Track 22

Filename F:\_EAC\Charlie Parker - Integrale Charlie Parker, Vol. 5, Parker's Mood (2012) [FLAC] {3CD}\CD1\22 - Constellation.wav

Peak level 60.3 %
Extraction speed 3.0 X
Track quality 100.0 %
Test CRC 298F31B3
Copy CRC 298F31B3
Accurately ripped (confidence 5) [B5833D1A] (AR v2)
Copy OK

Track 23

Filename F:\_EAC\Charlie Parker - Integrale Charlie Parker, Vol. 5, Parker's Mood (2012) [FLAC] {3CD}\CD1\23 - Constellation.wav

Peak level 72.9 %
Extraction speed 7.9 X
Track quality 100.0 %
Test CRC E1C18571
Copy CRC E1C18571
Accurately ripped (confidence 5) [9010CAC0] (AR v2)
Copy OK

Track 24

Filename F:\_EAC\Charlie Parker - Integrale Charlie Parker, Vol. 5, Parker's Mood (2012) [FLAC] {3CD}\CD1\24 - Constellation.wav

Peak level 72.1 %
Extraction speed 7.7 X
Track quality 100.0 %
Test CRC E7BC537F
Copy CRC E7BC537F
Accurately ripped (confidence 5) [20D9D127] (AR v2)
Copy OK

Track 25

Filename F:\_EAC\Charlie Parker - Integrale Charlie Parker, Vol. 5, Parker's Mood (2012) [FLAC] {3CD}\CD1\25 - Constellation.wav

Peak level 75.4 %
Extraction speed 1.9 X
Track quality 99.5 %
Test CRC 7EE30126
Copy CRC 7EE30126
Accurately ripped (confidence 5) [3A196F1E] (AR v2)
Copy OK

Track 26

Filename F:\_EAC\Charlie Parker - Integrale Charlie Parker, Vol. 5, Parker's Mood (2012) [FLAC] {3CD}\CD1\26 - Constellation (master).wav

Peak level 78.1 %
Extraction speed 8.2 X
Track quality 100.0 %
Test CRC BB464321
Copy CRC BB464321
Accurately ripped (confidence 5) [1035549F] (AR v2)
Copy OK

Track 27

Filename F:\_EAC\Charlie Parker - Integrale Charlie Parker, Vol. 5, Parker's Mood (2012) [FLAC] {3CD}\CD1\27 - Parker's Mood.wav

Peak level 54.5 %
Extraction speed 8.7 X
Track quality 100.0 %
Test CRC 774CF5B7
Copy CRC 774CF5B7
Accurately ripped (confidence 5) [3D5AC2D0] (AR v2)
Copy OK

Track 28

Filename F:\_EAC\Charlie Parker - Integrale Charlie Parker, Vol. 5, Parker's Mood (2012) [FLAC] {3CD}\CD1\28 - Parker's Mood.wav

Peak level 51.1 %
Extraction speed 6.4 X
Track quality 99.9 %
Test CRC B1E6B647
Copy CRC B1E6B647
Accurately ripped (confidence 5) [C3E595F6] (AR v2)
Copy OK

Track 29

Filename F:\_EAC\Charlie Parker - Integrale Charlie Parker, Vol. 5, Parker's Mood (2012) [FLAC] {3CD}\CD1\29 - Parker's Mood (master).wav

Peak level 53.2 %
Extraction speed 8.7 X
Track quality 100.0 %
Test CRC 6EA65657
Copy CRC 6EA65657
Accurately ripped (confidence 5) [77102878] (AR v2)
Copy OK

Track 30

Filename F:\_EAC\Charlie Parker - Integrale Charlie Parker, Vol. 5, Parker's Mood (2012) [FLAC] {3CD}\CD1\30 - Drifting on a Reed (Big Foot).wav

Peak level 72.2 %
Extraction speed 9.6 X
Track quality 100.0 %
Test CRC 9C3FDCE0
Copy CRC 9C3FDCE0
Accurately ripped (confidence 5) [967BCDC1] (AR v2)
Copy OK


All tracks accurately ripped

No errors occurred

End of status report

–– CUETools DB Plugin V2.1.6

[CTDB TOCID: DMySuZqPiQOxmB14DNLMbzhJJOQ-] found
Submit result: DMySuZqPiQOxmB14DNLMbzhJJOQ- has been confirmed
Track | CTDB Status
1 | (2/2) Accurately ripped
2 | (2/2) Accurately ripped
3 | (2/2) Accurately ripped
4 | (2/2) Accurately ripped
5 | (2/2) Accurately ripped
6 | (2/2) Accurately ripped
7 | (2/2) Accurately ripped
8 | (2/2) Accurately ripped
9 | (2/2) Accurately ripped
10 | (2/2) Accurately ripped
11 | (2/2) Accurately ripped
12 | (2/2) Accurately ripped
13 | (2/2) Accurately ripped
14 | (2/2) Accurately ripped
15 | (2/2) Accurately ripped
16 | (2/2) Accurately ripped
17 | (2/2) Accurately ripped
18 | (2/2) Accurately ripped
19 | (2/2) Accurately ripped
20 | (2/2) Accurately ripped
21 | (2/2) Accurately ripped
22 | (2/2) Accurately ripped
23 | (2/2) Accurately ripped
24 | (2/2) Accurately ripped
25 | (2/2) Accurately ripped
26 | (2/2) Accurately ripped
27 | (2/2) Accurately ripped
28 | (2/2) Accurately ripped
29 | (2/2) Accurately ripped
30 | (2/2) Accurately ripped


==== Log checksum E07338F6CACAC731E6193281C0F576803FC05251B841CFEA1A89676C29138E57 ====
Exact Audio Copy V1.3 from 2. September 2016

EAC extraction logfile from 14. December 2018, 15:43

Charlie Parker / Integrale Charlie Parker, Vol. 5, Parker's Mood (CD2)

Used drive : ATAPI iHAS122 F Adapter: 1 ID: 0

Read mode : Secure
Utilize accurate stream : Yes
Defeat audio cache : Yes
Make use of C2 pointers : No

Read offset correction : 6
Overread into Lead-In and Lead-Out : No
Fill up missing offset samples with silence : Yes
Delete leading and trailing silent blocks : No
Null samples used in CRC calculations : Yes
Used interface : Native Win32 interface for Win NT & 2000
Gap handling : Appended to previous track

Used output format : User Defined Encoder
Selected bitrate : 1024 kBit/s
Quality : High
Add ID3 tag : No
Command line compressor : C:\Program Files (x86)\Exact Audio Copy_v1.3\Flac\flac.exe
Additional command line options : -8 -V -T "ARTIST=%artist%" -T "TITLE=%title%" -T "ALBUM=%albumtitle%" -T "DATE=%year%" -T "TRACKNUMBER=%tracknr%" -T "TOTALTRACKS=%numtracks%" -T "GENRE=%genre%" -T "ALBUMARTIST=%albumartist%" -T "ALBUM ARTIST=%albumartist%" -T "COMMENT=EAC Secure Mode, Test & Copy, AccurateRip, FLAC -8" %source%


TOC of the extracted CD

Track | Start | Length | Start sector | End sector
––––––––––––––––––––––––––––-
1 | 0:00.00 | 2:05.70 | 0 | 9444
2 | 2:05.70 | 0:28.46 | 9445 | 11590
3 | 2:34.41 | 2:11.16 | 11591 | 21431
4 | 4:45.57 | 0:20.70 | 21432 | 23001
5 | 5:06.52 | 0:41.06 | 23002 | 26082
6 | 5:47.58 | 2:20.19 | 26083 | 36601
7 | 8:08.02 | 2:35.32 | 36602 | 48258
8 | 10:43.34 | 1:16.53 | 48259 | 54011
9 | 12:00.12 | 0:53.64 | 54012 | 58050
10 | 12:54.01 | 2:56.49 | 58051 | 71299
11 | 15:50.50 | 1:00.73 | 71300 | 75872
12 | 16:51.48 | 3:00.38 | 75873 | 89410
13 | 19:52.11 | 0:35.59 | 89411 | 92094
14 | 20:27.70 | 0:49.36 | 92095 | 95805
15 | 21:17.31 | 2:48.24 | 95806 | 108429
16 | 24:05.55 | 3:06.71 | 108430 | 122450
17 | 27:12.51 | 2:22.45 | 122451 | 133145
18 | 29:35.21 | 2:29.63 | 133146 | 144383
19 | 32:05.09 | 1:03.71 | 144384 | 149179
20 | 33:09.05 | 5:22.33 | 149180 | 173362
21 | 38:31.38 | 5:09.36 | 173363 | 196573
22 | 43:40.74 | 5:55.07 | 196574 | 223205
23 | 49:36.06 | 5:53.50 | 223206 | 249730
24 | 55:29.56 | 0:32.32 | 249731 | 252162
25 | 56:02.13 | 4:33.40 | 252163 | 272677
26 | 60:35.53 | 4:13.55 | 272678 | 291707
27 | 64:49.33 | 1:23.24 | 291708 | 297956
28 | 66:12.57 | 5:12.18 | 297957 | 321374
29 | 71:25.00 | 3:34.22 | 321375 | 337446
30 | 74:59.22 | 2:55.49 | 337447 | 350620


Track 1

Filename F:\_EAC\Charlie Parker - Integrale Charlie Parker, Vol. 5, Parker's Mood (2012) [FLAC] {3CD}\CD2\01 - Perhaps.wav

Pre-gap length 0:00:02.00

Peak level 58.3 %
Extraction speed 4.2 X
Track quality 100.0 %
Test CRC 68FBAC03
Copy CRC 68FBAC03
Accurately ripped (confidence 5) [E280BE87] (AR v2)
Copy OK

Track 2

Filename F:\_EAC\Charlie Parker - Integrale Charlie Parker, Vol. 5, Parker's Mood (2012) [FLAC] {3CD}\CD2\02 - Perhaps.wav

Peak level 70.0 %
Extraction speed 2.4 X
Track quality 100.0 %
Test CRC 44F5F827
Copy CRC 44F5F827
Accurately ripped (confidence 5) [99DDA860] (AR v2)
Copy OK

Track 3

Filename F:\_EAC\Charlie Parker - Integrale Charlie Parker, Vol. 5, Parker's Mood (2012) [FLAC] {3CD}\CD2\03 - Perhaps.wav

Peak level 61.9 %
Extraction speed 4.5 X
Track quality 100.0 %
Test CRC 8B419241
Copy CRC 8B419241
Accurately ripped (confidence 5) [D98059D8] (AR v2)
Copy OK

Track 4

Filename F:\_EAC\Charlie Parker - Integrale Charlie Parker, Vol. 5, Parker's Mood (2012) [FLAC] {3CD}\CD2\04 - Perhaps.wav

Peak level 54.4 %
Extraction speed 2.0 X
Track quality 100.0 %
Test CRC 5BB7372A
Copy CRC 5BB7372A
Accurately ripped (confidence 5) [BB8AF7B9] (AR v2)
Copy OK

Track 5

Filename F:\_EAC\Charlie Parker - Integrale Charlie Parker, Vol. 5, Parker's Mood (2012) [FLAC] {3CD}\CD2\05 - Perhaps.wav

Peak level 52.1 %
Extraction speed 3.0 X
Track quality 100.0 %
Test CRC B63817BF
Copy CRC B63817BF
Accurately ripped (confidence 5) [BE6892E2] (AR v2)
Copy OK

Track 6

Filename F:\_EAC\Charlie Parker - Integrale Charlie Parker, Vol. 5, Parker's Mood (2012) [FLAC] {3CD}\CD2\06 - Perhaps.wav

Peak level 55.4 %
Extraction speed 4.8 X
Track quality 100.0 %
Test CRC 526E25F2
Copy CRC 526E25F2
Accurately ripped (confidence 5) [D67B3807] (AR v2)
Copy OK

Track 7

Filename F:\_EAC\Charlie Parker - Integrale Charlie Parker, Vol. 5, Parker's Mood (2012) [FLAC] {3CD}\CD2\07 - Perhaps (master).wav

Peak level 55.7 %
Extraction speed 5.2 X
Track quality 100.0 %
Test CRC 3F9E6DA4
Copy CRC 3F9E6DA4
Accurately ripped (confidence 5) [31520DB4] (AR v2)
Copy OK

Track 8

Filename F:\_EAC\Charlie Parker - Integrale Charlie Parker, Vol. 5, Parker's Mood (2012) [FLAC] {3CD}\CD2\08 - Marmaduke.wav

Peak level 60.1 %
Extraction speed 3.0 X
Track quality 99.8 %
Test CRC CAFE235A
Copy CRC CAFE235A
Accurately ripped (confidence 5) [E6F866DC] (AR v2)
Copy OK

Track 9

Filename F:\_EAC\Charlie Parker - Integrale Charlie Parker, Vol. 5, Parker's Mood (2012) [FLAC] {3CD}\CD2\09 - Marmaduke.wav

Peak level 57.4 %
Extraction speed 3.9 X
Track quality 100.0 %
Test CRC 027B5AFD
Copy CRC 027B5AFD
Accurately ripped (confidence 5) [69125284] (AR v2)
Copy OK

Track 10

Filename F:\_EAC\Charlie Parker - Integrale Charlie Parker, Vol. 5, Parker's Mood (2012) [FLAC] {3CD}\CD2\10 - Marmaduke.wav

Peak level 61.0 %
Extraction speed 5.7 X
Track quality 100.0 %
Test CRC E96F31B9
Copy CRC E96F31B9
Accurately ripped (confidence 5) [ABBE9058] (AR v2)
Copy OK

Track 11

Filename F:\_EAC\Charlie Parker - Integrale Charlie Parker, Vol. 5, Parker's Mood (2012) [FLAC] {3CD}\CD2\11 - Marmaduke.wav

Peak level 55.7 %
Extraction speed 4.3 X
Track quality 100.0 %
Test CRC 125F60D8
Copy CRC 125F60D8
Accurately ripped (confidence 5) [3BD9DE8C] (AR v2)
Copy OK

Track 12

Filename F:\_EAC\Charlie Parker - Integrale Charlie Parker, Vol. 5, Parker's Mood (2012) [FLAC] {3CD}\CD2\12 - Marmaduke.wav

Peak level 67.1 %
Extraction speed 6.0 X
Track quality 100.0 %
Test CRC 789DB6DB
Copy CRC 789DB6DB
Accurately ripped (confidence 5) [577CE89B] (AR v2)
Copy OK

Track 13

Filename F:\_EAC\Charlie Parker - Integrale Charlie Parker, Vol. 5, Parker's Mood (2012) [FLAC] {3CD}\CD2\13 - Marmaduke.wav

Peak level 74.5 %
Extraction speed 3.5 X
Track quality 100.0 %
Test CRC 8D842B2E
Copy CRC 8D842B2E
Accurately ripped (confidence 5) [37F97F84] (AR v2)
Copy OK

Track 14

Filename F:\_EAC\Charlie Parker - Integrale Charlie Parker, Vol. 5, Parker's Mood (2012) [FLAC] {3CD}\CD2\14 - Marmaduke.wav

Peak level 65.2 %
Extraction speed 2.5 X
Track quality 99.7 %
Test CRC 77BE232F
Copy CRC 77BE232F
Accurately ripped (confidence 5) [BC4F0771] (AR v2)
Copy OK

Track 15

Filename F:\_EAC\Charlie Parker - Integrale Charlie Parker, Vol. 5, Parker's Mood (2012) [FLAC] {3CD}\CD2\15 - Marmaduke (master).wav

Peak level 72.9 %
Extraction speed 4.9 X
Track quality 99.9 %
Test CRC 24D26760
Copy CRC 24D26760
Accurately ripped (confidence 5) [FB3344EB] (AR v2)
Copy OK

Track 16

Filename F:\_EAC\Charlie Parker - Integrale Charlie Parker, Vol. 5, Parker's Mood (2012) [FLAC] {3CD}\CD2\16 - Steeplechase.wav

Peak level 68.4 %
Extraction speed 6.7 X
Track quality 100.0 %
Test CRC D130C92E
Copy CRC D130C92E
Accurately ripped (confidence 5) [CC80B4A8] (AR v2)
Copy OK

Track 17

Filename F:\_EAC\Charlie Parker - Integrale Charlie Parker, Vol. 5, Parker's Mood (2012) [FLAC] {3CD}\CD2\17 - Merry-Go-Round.wav

Peak level 50.8 %
Extraction speed 6.5 X
Track quality 100.0 %
Test CRC 53E35F24
Copy CRC 53E35F24
Accurately ripped (confidence 5) [D848AE60] (AR v2)
Copy OK

Track 18

Filename F:\_EAC\Charlie Parker - Integrale Charlie Parker, Vol. 5, Parker's Mood (2012) [FLAC] {3CD}\CD2\18 - Merry-Go-Round (master).wav

Peak level 57.1 %
Extraction speed 6.8 X
Track quality 100.0 %
Test CRC F063B28F
Copy CRC F063B28F
Accurately ripped (confidence 5) [EBEA97E6] (AR v2)
Copy OK

Track 19

Filename F:\_EAC\Charlie Parker - Integrale Charlie Parker, Vol. 5, Parker's Mood (2012) [FLAC] {3CD}\CD2\19 - Announcer.wav

Peak level 69.4 %
Extraction speed 5.2 X
Track quality 100.0 %
Test CRC 1B6C226B
Copy CRC 1B6C226B
Accurately ripped (confidence 5) [D5530703] (AR v2)
Copy OK

Track 20

Filename F:\_EAC\Charlie Parker - Integrale Charlie Parker, Vol. 5, Parker's Mood (2012) [FLAC] {3CD}\CD2\20 - Groovin' High.wav

Peak level 98.8 %
Extraction speed 7.9 X
Track quality 100.0 %
Test CRC FB4F626C
Copy CRC FB4F626C
Accurately ripped (confidence 5) [2A51AEF4] (AR v2)
Copy OK

Track 21

Filename F:\_EAC\Charlie Parker - Integrale Charlie Parker, Vol. 5, Parker's Mood (2012) [FLAC] {3CD}\CD2\21 - Big Foot.wav

Peak level 94.6 %
Extraction speed 8.2 X
Track quality 100.0 %
Test CRC D4CCD001
Copy CRC D4CCD001
Accurately ripped (confidence 5) [D039D09D] (AR v2)
Copy OK

Track 22

Filename F:\_EAC\Charlie Parker - Integrale Charlie Parker, Vol. 5, Parker's Mood (2012) [FLAC] {3CD}\CD2\22 - Ornithology.wav

Peak level 98.8 %
Extraction speed 8.7 X
Track quality 100.0 %
Test CRC 8F8AE758
Copy CRC 8F8AE758
Accurately ripped (confidence 5) [72A1CEB6] (AR v2)
Copy OK

Track 23

Filename F:\_EAC\Charlie Parker - Integrale Charlie Parker, Vol. 5, Parker's Mood (2012) [FLAC] {3CD}\CD2\23 - On A Slow Boat To China.wav

Peak level 92.6 %
Extraction speed 9.0 X
Track quality 100.0 %
Test CRC 1E319CED
Copy CRC 1E319CED
Accurately ripped (confidence 5) [F70688A9] (AR v2)
Copy OK

Track 24

Filename F:\_EAC\Charlie Parker - Integrale Charlie Parker, Vol. 5, Parker's Mood (2012) [FLAC] {3CD}\CD2\24 - Announcer.wav

Peak level 77.5 %
Extraction speed 4.6 X
Track quality 100.0 %
Test CRC 3F335BFA
Copy CRC 3F335BFA
Accurately ripped (confidence 5) [6F59F9FD] (AR v2)
Copy OK

Track 25

Filename F:\_EAC\Charlie Parker - Integrale Charlie Parker, Vol. 5, Parker's Mood (2012) [FLAC] {3CD}\CD2\25 - Hot House.wav

Peak level 98.8 %
Extraction speed 7.6 X
Track quality 99.9 %
Test CRC 44055D92
Copy CRC 44055D92
Accurately ripped (confidence 5) [7EFA4A80] (AR v2)
Copy OK

Track 26

Filename F:\_EAC\Charlie Parker - Integrale Charlie Parker, Vol. 5, Parker's Mood (2012) [FLAC] {3CD}\CD2\26 - Salt Peanuts.wav

Peak level 98.8 %
Extraction speed 9.2 X
Track quality 100.0 %
Test CRC E760C7C9
Copy CRC E760C7C9
Accurately ripped (confidence 5) [0C328092] (AR v2)
Copy OK

Track 27

Filename F:\_EAC\Charlie Parker - Integrale Charlie Parker, Vol. 5, Parker's Mood (2012) [FLAC] {3CD}\CD2\27 - Announcer.wav

Peak level 76.5 %
Extraction speed 4.8 X
Track quality 99.8 %
Test CRC 62AD705C
Copy CRC 62AD705C
Accurately ripped (confidence 5) [53D36B80] (AR v2)
Copy OK

Track 28

Filename F:\_EAC\Charlie Parker - Integrale Charlie Parker, Vol. 5, Parker's Mood (2012) [FLAC] {3CD}\CD2\28 - Chasin' The Bird.wav

Peak level 92.7 %
Extraction speed 9.8 X
Track quality 100.0 %
Test CRC E609B230
Copy CRC E609B230
Accurately ripped (confidence 5) [BB65819D] (AR v2)
Copy OK

Track 29

Filename F:\_EAC\Charlie Parker - Integrale Charlie Parker, Vol. 5, Parker's Mood (2012) [FLAC] {3CD}\CD2\29 - Out Of Nowhere.wav

Peak level 90.8 %
Extraction speed 9.5 X
Track quality 100.0 %
Test CRC 96215665
Copy CRC 96215665
Accurately ripped (confidence 5) [DD3DB4ED] (AR v2)
Copy OK

Track 30

Filename F:\_EAC\Charlie Parker - Integrale Charlie Parker, Vol. 5, Parker's Mood (2012) [FLAC] {3CD}\CD2\30 - How High The Moon.wav

Peak level 96.7 %
Extraction speed 7.3 X
Track quality 99.9 %
Test CRC 67B1B6C7
Copy CRC 67B1B6C7
Accurately ripped (confidence 5) [98CDC1FA] (AR v2)
Copy OK


All tracks accurately ripped

No errors occurred

End of status report

–– CUETools DB Plugin V2.1.6

[CTDB TOCID: ZtdrGtkXDRL5NYSEwzzqAAt77t4-] found
Submit result: ZtdrGtkXDRL5NYSEwzzqAAt77t4- has been confirmed
Track | CTDB Status
1 | (2/2) Accurately ripped
2 | (2/2) Accurately ripped
3 | (2/2) Accurately ripped
4 | (2/2) Accurately ripped
5 | (2/2) Accurately ripped
6 | (2/2) Accurately ripped
7 | (2/2) Accurately ripped
8 | (2/2) Accurately ripped
9 | (2/2) Accurately ripped
10 | (2/2) Accurately ripped
11 | (2/2) Accurately ripped
12 | (2/2) Accurately ripped
13 | (2/2) Accurately ripped
14 | (2/2) Accurately ripped
15 | (2/2) Accurately ripped
16 | (2/2) Accurately ripped
17 | (2/2) Accurately ripped
18 | (2/2) Accurately ripped
19 | (2/2) Accurately ripped
20 | (2/2) Accurately ripped
21 | (2/2) Accurately ripped
22 | (2/2) Accurately ripped
23 | (2/2) Accurately ripped
24 | (2/2) Accurately ripped
25 | (2/2) Accurately ripped
26 | (2/2) Accurately ripped
27 | (2/2) Accurately ripped
28 | (2/2) Accurately ripped
29 | (2/2) Accurately ripped
30 | (2/2) Accurately ripped


==== Log checksum EA0118584EBB3567370C53B6921DEFBDBAB701A17EA27349524C779A01A8EC21 ====
Exact Audio Copy V1.3 from 2. September 2016

EAC extraction logfile from 14. December 2018, 16:31

Charlie Parker / Integrale Charlie Parker, Vol. 5, Parker's Mood (CD3)

Used drive : ATAPI iHAS122 F Adapter: 1 ID: 0

Read mode : Secure
Utilize accurate stream : Yes
Defeat audio cache : Yes
Make use of C2 pointers : No

Read offset correction : 6
Overread into Lead-In and Lead-Out : No
Fill up missing offset samples with silence : Yes
Delete leading and trailing silent blocks : No
Null samples used in CRC calculations : Yes
Used interface : Native Win32 interface for Win NT & 2000
Gap handling : Appended to previous track

Used output format : User Defined Encoder
Selected bitrate : 1024 kBit/s
Quality : High
Add ID3 tag : No
Command line compressor : C:\Program Files (x86)\Exact Audio Copy_v1.3\Flac\flac.exe
Additional command line options : -8 -V -T "ARTIST=%artist%" -T "TITLE=%title%" -T "ALBUM=%albumtitle%" -T "DATE=%year%" -T "TRACKNUMBER=%tracknr%" -T "TOTALTRACKS=%numtracks%" -T "GENRE=%genre%" -T "ALBUMARTIST=%albumartist%" -T "ALBUM ARTIST=%albumartist%" -T "COMMENT=EAC Secure Mode, Test & Copy, AccurateRip, FLAC -8" %source%


TOC of the extracted CD

Track | Start | Length | Start sector | End sector
––––––––––––––––––––––––––––-
1 | 0:00.00 | 5:56.45 | 0 | 26744
2 | 5:56.45 | 2:57.37 | 26745 | 40056
3 | 8:54.07 | 1:16.40 | 40057 | 45796
4 | 10:10.47 | 5:18.30 | 45797 | 69676
5 | 15:29.02 | 5:24.17 | 69677 | 93993
6 | 20:53.19 | 3:42.64 | 93994 | 110707
7 | 24:36.08 | 1:16.26 | 110708 | 116433
8 | 25:52.34 | 4:11.05 | 116434 | 135263
9 | 30:03.39 | 4:59.50 | 135264 | 157738
10 | 35:03.14 | 4:49.68 | 157739 | 179481
11 | 39:53.07 | 6:03.26 | 179482 | 206732
12 | 45:56.33 | 5:01.08 | 206733 | 229315
13 | 50:57.41 | 4:18.62 | 229316 | 248727
14 | 55:16.28 | 1:05.31 | 248728 | 253633
15 | 56:21.59 | 4:48.48 | 253634 | 275281
16 | 61:10.32 | 3:12.26 | 275282 | 289707
17 | 64:22.58 | 4:41.11 | 289708 | 310793
18 | 69:03.69 | 2:45.61 | 310794 | 323229
19 | 71:49.55 | 2:43.34 | 323230 | 335488
20 | 74:33.14 | 4:19.48 | 335489 | 354961


Track 1

Filename F:\_EAC\Charlie Parker - Integrale Charlie Parker, Vol. 5, Parker's Mood (2012) [FLAC] {3CD}\CD3\01 - No Noise, Part. 1 & 2.wav

Pre-gap length 0:00:02.00

Peak level 93.3 %
Extraction speed 5.1 X
Track quality 100.0 %
Test CRC 08F93D28
Copy CRC 08F93D28
Accurately ripped (confidence 5) [2845621F] (AR v2)
Copy OK

Track 2

Filename F:\_EAC\Charlie Parker - Integrale Charlie Parker, Vol. 5, Parker's Mood (2012) [FLAC] {3CD}\CD3\02 - Mango Mangue.wav

Peak level 72.3 %
Extraction speed 5.2 X
Track quality 100.0 %
Test CRC 6276F990
Copy CRC 6276F990
Accurately ripped (confidence 5) [60B2ECF2] (AR v2)
Copy OK

Track 3

Filename F:\_EAC\Charlie Parker - Integrale Charlie Parker, Vol. 5, Parker's Mood (2012) [FLAC] {3CD}\CD3\03 - Announcer.wav

Peak level 70.0 %
Extraction speed 4.3 X
Track quality 100.0 %
Test CRC 1BDE8AFF
Copy CRC 1BDE8AFF
Accurately ripped (confidence 5) [3D5E9896] (AR v2)
Copy OK

Track 4

Filename F:\_EAC\Charlie Parker - Integrale Charlie Parker, Vol. 5, Parker's Mood (2012) [FLAC] {3CD}\CD3\04 - Half Nelson.wav

Peak level 80.3 %
Extraction speed 5.3 X
Track quality 99.9 %
Test CRC 824EAE3F
Copy CRC 824EAE3F
Accurately ripped (confidence 5) [7AA12C39] (AR v2)
Copy OK

Track 5

Filename F:\_EAC\Charlie Parker - Integrale Charlie Parker, Vol. 5, Parker's Mood (2012) [FLAC] {3CD}\CD3\05 - White Christmas.wav

Peak level 91.5 %
Extraction speed 6.6 X
Track quality 100.0 %
Test CRC F45EB25B
Copy CRC F45EB25B
Accurately ripped (confidence 5) [BF217528] (AR v2)
Copy OK

Track 6

Filename F:\_EAC\Charlie Parker - Integrale Charlie Parker, Vol. 5, Parker's Mood (2012) [FLAC] {3CD}\CD3\06 - Little Willie Leaps.wav

Peak level 89.3 %
Extraction speed 6.6 X
Track quality 100.0 %
Test CRC F18FE202
Copy CRC F18FE202
Accurately ripped (confidence 5) [B17EDF81] (AR v2)
Copy OK

Track 7

Filename F:\_EAC\Charlie Parker - Integrale Charlie Parker, Vol. 5, Parker's Mood (2012) [FLAC] {3CD}\CD3\07 - Announcer.wav

Peak level 65.9 %
Extraction speed 3.5 X
Track quality 99.8 %
Test CRC 58C2DEAC
Copy CRC 58C2DEAC
Accurately ripped (confidence 5) [1C227117] (AR v2)
Copy OK

Track 8

Filename F:\_EAC\Charlie Parker - Integrale Charlie Parker, Vol. 5, Parker's Mood (2012) [FLAC] {3CD}\CD3\08 - Be-Bop.wav

Peak level 96.6 %
Extraction speed 6.6 X
Track quality 100.0 %
Test CRC 465DF884
Copy CRC 465DF884
Accurately ripped (confidence 5) [2803043B] (AR v2)
Copy OK

Track 9

Filename F:\_EAC\Charlie Parker - Integrale Charlie Parker, Vol. 5, Parker's Mood (2012) [FLAC] {3CD}\CD3\09 - On A Slow Boat To China.wav

Peak level 93.6 %
Extraction speed 7.4 X
Track quality 100.0 %
Test CRC 1CEFF10A
Copy CRC 1CEFF10A
Accurately ripped (confidence 5) [46229AEC] (AR v2)
Copy OK

Track 10

Filename F:\_EAC\Charlie Parker - Integrale Charlie Parker, Vol. 5, Parker's Mood (2012) [FLAC] {3CD}\CD3\10 - Ornithology.wav

Peak level 87.1 %
Extraction speed 7.5 X
Track quality 100.0 %
Test CRC 0DAAEC7C
Copy CRC 0DAAEC7C
Accurately ripped (confidence 5) [5C059EF6] (AR v2)
Copy OK

Track 11

Filename F:\_EAC\Charlie Parker - Integrale Charlie Parker, Vol. 5, Parker's Mood (2012) [FLAC] {3CD}\CD3\11 - Groovin'High.wav

Peak level 82.0 %
Extraction speed 8.3 X
Track quality 100.0 %
Test CRC 1EA43E20
Copy CRC 1EA43E20
Accurately ripped (confidence 5) [6DBDD7CD] (AR v2)
Copy OK

Track 12

Filename F:\_EAC\Charlie Parker - Integrale Charlie Parker, Vol. 5, Parker's Mood (2012) [FLAC] {3CD}\CD3\12 - East Of The Sun.wav

Peak level 73.3 %
Extraction speed 7.4 X
Track quality 99.9 %
Test CRC FB2EDC63
Copy CRC FB2EDC63
Accurately ripped (confidence 5) [A4FAEE7A] (AR v2)
Copy OK

Track 13

Filename F:\_EAC\Charlie Parker - Integrale Charlie Parker, Vol. 5, Parker's Mood (2012) [FLAC] {3CD}\CD3\13 - Cheryl.wav

Peak level 72.3 %
Extraction speed 8.8 X
Track quality 100.0 %
Test CRC 38827465
Copy CRC 38827465
Accurately ripped (confidence 5) [ED7B176B] (AR v2)
Copy OK

Track 14

Filename F:\_EAC\Charlie Parker - Integrale Charlie Parker, Vol. 5, Parker's Mood (2012) [FLAC] {3CD}\CD3\14 - Announcer.wav

Peak level 69.9 %
Extraction speed 4.2 X
Track quality 99.8 %
Test CRC 1738C93F
Copy CRC 1738C93F
Accurately ripped (confidence 5) [98ED839B] (AR v2)
Copy OK

Track 15

Filename F:\_EAC\Charlie Parker - Integrale Charlie Parker, Vol. 5, Parker's Mood (2012) [FLAC] {3CD}\CD3\15 - How High The Moon.wav

Peak level 84.5 %
Extraction speed 9.2 X
Track quality 100.0 %
Test CRC 4841B547
Copy CRC 4841B547
Accurately ripped (confidence 5) [917FCE00] (AR v2)
Copy OK

Track 16

Filename F:\_EAC\Charlie Parker - Integrale Charlie Parker, Vol. 5, Parker's Mood (2012) [FLAC] {3CD}\CD3\16 - Overtime.wav

Peak level 61.0 %
Extraction speed 8.9 X
Track quality 100.0 %
Test CRC F19F3CA2
Copy CRC F19F3CA2
Accurately ripped (confidence 5) [55C38007] (AR v2)
Copy OK

Track 17

Filename F:\_EAC\Charlie Parker - Integrale Charlie Parker, Vol. 5, Parker's Mood (2012) [FLAC] {3CD}\CD3\17 - Overtime.wav

Peak level 79.6 %
Extraction speed 9.6 X
Track quality 100.0 %
Test CRC C685238C
Copy CRC C685238C
Accurately ripped (confidence 5) [971BD3CA] (AR v2)
Copy OK

Track 18

Filename F:\_EAC\Charlie Parker - Integrale Charlie Parker, Vol. 5, Parker's Mood (2012) [FLAC] {3CD}\CD3\18 - Victory Ball.wav

Peak level 56.2 %
Extraction speed 9.0 X
Track quality 100.0 %
Test CRC 06E76796
Copy CRC 06E76796
Accurately ripped (confidence 5) [CF35FC78] (AR v2)
Copy OK

Track 19

Filename F:\_EAC\Charlie Parker - Integrale Charlie Parker, Vol. 5, Parker's Mood (2012) [FLAC] {3CD}\CD3\19 - Victory Ball.wav

Peak level 61.2 %
Extraction speed 9.1 X
Track quality 100.0 %
Test CRC C23F41C4
Copy CRC C23F41C4
Accurately ripped (confidence 5) [709A6A39] (AR v2)
Copy OK

Track 20

Filename F:\_EAC\Charlie Parker - Integrale Charlie Parker, Vol. 5, Parker's Mood (2012) [FLAC] {3CD}\CD3\20 - Victory Ball.wav

Peak level 62.1 %
Extraction speed 8.1 X
Track quality 99.9 %
Test CRC 14137B13
Copy CRC 14137B13
Accurately ripped (confidence 5) [F32ABA6A] (AR v2)
Copy OK


All tracks accurately ripped

No errors occurred

End of status report

–– CUETools DB Plugin V2.1.6

[CTDB TOCID: YvFJmwiTAl_OFztDfBwuiflayOk-] found
Submit result: YvFJmwiTAl_OFztDfBwuiflayOk- has been confirmed
Track | CTDB Status
1 | (2/2) Accurately ripped
2 | (2/2) Accurately ripped
3 | (2/2) Accurately ripped
4 | (2/2) Accurately ripped
5 | (2/2) Accurately ripped
6 | (2/2) Accurately ripped
7 | (2/2) Accurately ripped
8 | (2/2) Accurately ripped
9 | (2/2) Accurately ripped
10 | (2/2) Accurately ripped
11 | (2/2) Accurately ripped
12 | (2/2) Accurately ripped
13 | (2/2) Accurately ripped
14 | (2/2) Accurately ripped
15 | (2/2) Accurately ripped
16 | (2/2) Accurately ripped
17 | (2/2) Accurately ripped
18 | (2/2) Accurately ripped
19 | (2/2) Accurately ripped
20 | (2/2) Accurately ripped


==== Log checksum A2F11B63F1E4491D8823A738F9195367E3DD6906A152E8D8F3D1B1217E45398E ====


Charlie Parker - Integrale Charlie Parker, Vol. 5, "Parker's Mood", 1947-1949 (2012) {3CD Set Frémeaux & Associés FA1335}


Thanks to SavoyFun for CDs…

NEXT -> Charlie Parker - Intégrale Charlie Parker, Vol. 6, "Passport", 1949 (2013) {3CD Set Frémeaux & Associés FA1336}

see more Charlie Parker…


===