Subcategories

Charlie Parker - Integrale Charlie Parker, Vol. 6, "Passport", 1949 (2013) {3CD Set Frémeaux & Associés FA1336}

Posted By: ruskaval
Charlie Parker - Integrale Charlie Parker, Vol. 6, "Passport", 1949 (2013) {3CD Set Frémeaux & Associés FA1336}

Charlie Parker - Intégrale Charlie Parker, Vol. 6, "Passport", 1949 (2013) {3CD Set Frémeaux & Associés FA1336}
EAC rip (secure mode) | FLAC (tracks)+CUE+LOG -> 900 Mb | MP3 @320 -> 515 Mb
Full Artwork @ 600 dpi (jpg) -> 407 Mb | 5% repair rar
© 1949, 2013 Frémeaux & Associés | FA 1336
Jazz / Bebop / Bop / Saxophone

You really have to be blind to all the evidence if you refuse to see that Parker’s calibre was at least as prodigious as that of the greatest musicians of earlier generations. -Boris Vian. The aim of 'The Complete Charlie Parker', compiled for Frémeaux & Associés by Alain Tercinet, is to present (as far as possible) every studio-recording by Parker, together with titles featured in radio-broadcasts. Private recordings have been deliberately omitted from this selection to preserve a consistency of sound and aesthetic quality equal to the genius of this artist.
Charlie Parker - Integrale Charlie Parker, Vol. 6, "Passport", 1949 (2013) {3CD Set Frémeaux & Associés FA1336}

In Charlie Parker All Stars whose rhythm remains ensured by Al Haig, Tommy Potter and Max Roach, Kenny Dorham has replaced Miles Davis and there is no need to complain. The Royal Roost's weekly broadcasts continued until March 12, 1949, with the participation, two nights, of Lucky Thompson (ts), Milt Jackson (vib), scouts Dave Lambert and Buddy Stewart on some titles, perhaps Miles on Night in Tunisia. Thus, as Alain Tercinet says in his bilingual booklet of 38 pages very detailed, we are offered "a real journal" of the quintet whose radio appearances are punctuated by various events such as the second meeting with Machito and his Afro-Cuban Orchestra (Okiedoke) in the studio by Norman Granz, radio recording of a JATP concert at Carnegie Hall with Fats Navarro (tp), Tommy Turk (tb), Sonny Criss (as), Flip Phillips (ts), Hank Jones ( p), Ray Brown (b) and Shelly manna (dm). We can mock the hysterical howls of the public … we would have liked to be there. In the spring, Granz meets the all stars with two guests (Tommy Turk here little in his place and the percussionist Carlos Vidal), then in quintet for the most beautiful angulations of Segment and Passport I & II. The third CD ends with the five radio transcriptions of the Parisian quintet concerts in Pleyel in May, the May 15th jam session bringing together sixteen musicians on the Paris Festival's poster, including Hot Lips Page, Miles Davis, Aimé Barelli and Sidney Bechet. , Don Byas, James Moody, Bernard Peiffer, Toots Thielemans on guitar … and that's not too much of a mess!
Charlie Parker - Integrale Charlie Parker, Vol. 6, "Passport", 1949 (2013) {3CD Set Frémeaux & Associés FA1336}


fremeaux.com INFO

Track Listing

CD1

01 - Announcer
02 - Scrapple From The Apple
03 - Announcer
04 - Be-Bop
05 - Announcer
06 - Hot House
07 - Announcer
08 - Oop Bop Sh'Bam
09 - Announcer
10 - Scrapple From The Apple
11 - Announcer
12 - Salt Peanuts
13 - Announcer
14 - Announcer
15 - Groovin' High
16 - Announcer
17 - Announcer
18 - Scrapple From The Apple
19 - Announcer
20 - Barbados
21 - Announcer
22 - Salt Peanuts
23 - Announcer
24 - Okiedoke
25 - Leap Here
26 - Indiana

Charlie Parker - Integrale Charlie Parker, Vol. 6, "Passport", 1949 (2013) {3CD Set Frémeaux & Associés FA1336}


CD2
01 - Lover Come Back To Me
02 - Announcer
03 - Scrapple From The Apple
04 - Announcer
05 - Barbados
06 - Announcer
07 - Be-Bop
08 - Announcer
09 - Groovin' High
10 - Announcer
11 - Confirmation
12 - Announcer
13 - Salt Peanuts
14 - Announcer
15 - Half Nelson
16 - Announcer
17 - A Night In Tunisia
18 - Announcer
19 - Scrapple From The Apple
20 - Announcer
21 - Deedle
22 - Announcer
23 - What This?
24 - Announcer
25 - Cheryl
26 - Announcer
27 - Anthropology

Charlie Parker - Integrale Charlie Parker, Vol. 6, "Passport", 1949 (2013) {3CD Set Frémeaux & Associés FA1336}


CD3
01 - Announcer
02 - Hurry Home
03 - Deedle
04 - Royal Roost Bop
05 - Announcer
06 - Cheryl
07 - Announcer
08 - On A Slow Boat To China
09 - Announcer
10 - Chasin' The Bird
11 - Cardboard
12 - Visa
13 - Segment
14 - Divers-Segment (alternate)
15 - Passport I
16 - Passport II
17 - Moose The Mooche
18 - Hot House
19 - Allen's Alley
20 - 52nd Street Theme
21 - Salt Peanuts
22 - Blues Final

Charlie Parker - Integrale Charlie Parker, Vol. 6, "Passport", 1949 (2013) {3CD Set Frémeaux & Associés FA1336}


Exact Audio Copy V1.3 from 2. September 2016

EAC extraction logfile from 25. December 2018, 18:30

Charlie Parker / Integrale Charlie Parker, Vol. 6, Passport (CD1)

Used drive : ATAPI iHAS122 F Adapter: 1 ID: 0

Read mode : Secure
Utilize accurate stream : Yes
Defeat audio cache : Yes
Make use of C2 pointers : No

Read offset correction : 6
Overread into Lead-In and Lead-Out : No
Fill up missing offset samples with silence : Yes
Delete leading and trailing silent blocks : No
Null samples used in CRC calculations : Yes
Used interface : Native Win32 interface for Win NT & 2000
Gap handling : Appended to previous track

Used output format : User Defined Encoder
Selected bitrate : 1024 kBit/s
Quality : High
Add ID3 tag : No
Command line compressor : C:\Program Files (x86)\Exact Audio Copy_v1.3\Flac\flac.exe
Additional command line options : -8 -V -T "ARTIST=%artist%" -T "TITLE=%title%" -T "ALBUM=%albumtitle%" -T "DATE=%year%" -T "TRACKNUMBER=%tracknr%" -T "TOTALTRACKS=%numtracks%" -T "GENRE=%genre%" -T "ALBUMARTIST=%albumartist%" -T "ALBUM ARTIST=%albumartist%" -T "COMMENT=EAC Secure Mode, Test & Copy, AccurateRip, FLAC -8" %source%


TOC of the extracted CD

Track | Start | Length | Start sector | End sector
––––––––––––––––––––––––––––-
1 | 0:00.00 | 0:59.51 | 0 | 4475
2 | 0:59.51 | 4:11.23 | 4476 | 23323
3 | 5:10.74 | 0:26.13 | 23324 | 25286
4 | 5:37.12 | 3:19.34 | 25287 | 40245
5 | 8:56.46 | 0:15.72 | 40246 | 41442
6 | 9:12.43 | 5:14.29 | 41443 | 65021
7 | 14:26.72 | 1:14.55 | 65022 | 70626
8 | 15:41.52 | 4:56.60 | 70627 | 92886
9 | 20:38.37 | 0:40.38 | 92887 | 95924
10 | 21:19.00 | 4:33.12 | 95925 | 116411
11 | 25:52.12 | 0:22.74 | 116412 | 118135
12 | 26:15.11 | 4:07.17 | 118136 | 136677
13 | 30:22.28 | 0:38.60 | 136678 | 139587
14 | 31:01.13 | 0:57.26 | 139588 | 143888
15 | 31:58.39 | 3:44.43 | 143889 | 160731
16 | 35:43.07 | 0:23.20 | 160732 | 162476
17 | 36:06.27 | 1:00.02 | 162477 | 166978
18 | 37:06.29 | 3:25.51 | 166979 | 182404
19 | 40:32.05 | 0:23.37 | 182405 | 184166
20 | 40:55.42 | 3:51.51 | 184167 | 201542
21 | 44:47.18 | 0:08.28 | 201543 | 202170
22 | 44:55.46 | 3:34.63 | 202171 | 218283
23 | 48:30.34 | 1:31.00 | 218284 | 225108
24 | 50:01.34 | 3:10.34 | 225109 | 239392
25 | 53:11.68 | 11:27.11 | 239393 | 290928
26 | 64:39.04 | 11:21.68 | 290929 | 342071


Track 1

Filename F:\_EAC\Charlie Parker - Integrale Charlie Parker, Vol. 6, Passport (2013) [FLAC] {3CD}\CD1\01 - Announcer.wav

Pre-gap length 0:00:02.00

Peak level 78.1 %
Extraction speed 3.3 X
Track quality 100.0 %
Test CRC B7E08BF7
Copy CRC B7E08BF7
Accurately ripped (confidence 3) [B9BB39E5] (AR v2)
Copy OK

Track 2

Filename F:\_EAC\Charlie Parker - Integrale Charlie Parker, Vol. 6, Passport (2013) [FLAC] {3CD}\CD1\02 - Scrapple From The Apple.wav

Peak level 97.7 %
Extraction speed 4.1 X
Track quality 99.9 %
Test CRC FFF8AF0A
Copy CRC FFF8AF0A
Accurately ripped (confidence 3) [24500B15] (AR v2)
Copy OK

Track 3

Filename F:\_EAC\Charlie Parker - Integrale Charlie Parker, Vol. 6, Passport (2013) [FLAC] {3CD}\CD1\03 - Announcer.wav

Peak level 77.4 %
Extraction speed 2.5 X
Track quality 100.0 %
Test CRC 32958A06
Copy CRC 32958A06
Accurately ripped (confidence 3) [94573CAE] (AR v2)
Copy OK

Track 4

Filename F:\_EAC\Charlie Parker - Integrale Charlie Parker, Vol. 6, Passport (2013) [FLAC] {3CD}\CD1\04 - Be-Bop.wav

Peak level 97.7 %
Extraction speed 5.2 X
Track quality 100.0 %
Test CRC D3B5226A
Copy CRC D3B5226A
Accurately ripped (confidence 3) [1CEB4B9A] (AR v2)
Copy OK

Track 5

Filename F:\_EAC\Charlie Parker - Integrale Charlie Parker, Vol. 6, Passport (2013) [FLAC] {3CD}\CD1\05 - Announcer.wav

Peak level 82.1 %
Extraction speed 1.8 X
Track quality 100.0 %
Test CRC 72EF993B
Copy CRC 72EF993B
Accurately ripped (confidence 3) [F3F3E26B] (AR v2)
Copy OK

Track 6

Filename F:\_EAC\Charlie Parker - Integrale Charlie Parker, Vol. 6, Passport (2013) [FLAC] {3CD}\CD1\06 - Hot House.wav

Peak level 97.7 %
Extraction speed 5.1 X
Track quality 99.9 %
Test CRC F4F6D51C
Copy CRC F4F6D51C
Accurately ripped (confidence 3) [BA45C3A7] (AR v2)
Copy OK

Track 7

Filename F:\_EAC\Charlie Parker - Integrale Charlie Parker, Vol. 6, Passport (2013) [FLAC] {3CD}\CD1\07 - Announcer.wav

Peak level 79.0 %
Extraction speed 4.6 X
Track quality 100.0 %
Test CRC 03660E1C
Copy CRC 03660E1C
Accurately ripped (confidence 3) [E704D527] (AR v2)
Copy OK

Track 8

Filename F:\_EAC\Charlie Parker - Integrale Charlie Parker, Vol. 6, Passport (2013) [FLAC] {3CD}\CD1\08 - Oop Bop Sh'Bam.wav

Peak level 95.8 %
Extraction speed 5.6 X
Track quality 99.9 %
Test CRC D7A379C4
Copy CRC D7A379C4
Accurately ripped (confidence 3) [2C1B8D7C] (AR v2)
Copy OK

Track 9

Filename F:\_EAC\Charlie Parker - Integrale Charlie Parker, Vol. 6, Passport (2013) [FLAC] {3CD}\CD1\09 - Announcer.wav

Peak level 70.0 %
Extraction speed 2.2 X
Track quality 99.7 %
Test CRC DA81E587
Copy CRC DA81E587
Accurately ripped (confidence 3) [0E9B0F5D] (AR v2)
Copy OK

Track 10

Filename F:\_EAC\Charlie Parker - Integrale Charlie Parker, Vol. 6, Passport (2013) [FLAC] {3CD}\CD1\10 - Scrapple From The Apple.wav

Peak level 93.0 %
Extraction speed 6.9 X
Track quality 100.0 %
Test CRC F5328A60
Copy CRC F5328A60
Accurately ripped (confidence 3) [4C1EFDA2] (AR v2)
Copy OK

Track 11

Filename F:\_EAC\Charlie Parker - Integrale Charlie Parker, Vol. 6, Passport (2013) [FLAC] {3CD}\CD1\11 - Announcer.wav

Peak level 69.4 %
Extraction speed 3.0 X
Track quality 100.0 %
Test CRC FF8F3328
Copy CRC FF8F3328
Accurately ripped (confidence 3) [4FCE8BCE] (AR v2)
Copy OK

Track 12

Filename F:\_EAC\Charlie Parker - Integrale Charlie Parker, Vol. 6, Passport (2013) [FLAC] {3CD}\CD1\12 - Salt Peanuts.wav

Peak level 97.7 %
Extraction speed 7.1 X
Track quality 100.0 %
Test CRC CF8329D1
Copy CRC CF8329D1
Accurately ripped (confidence 3) [C5BEFB13] (AR v2)
Copy OK

Track 13

Filename F:\_EAC\Charlie Parker - Integrale Charlie Parker, Vol. 6, Passport (2013) [FLAC] {3CD}\CD1\13 - Announcer.wav

Peak level 96.1 %
Extraction speed 4.4 X
Track quality 100.0 %
Test CRC 328D01AD
Copy CRC 328D01AD
Accurately ripped (confidence 3) [50AC0AC9] (AR v2)
Copy OK

Track 14

Filename F:\_EAC\Charlie Parker - Integrale Charlie Parker, Vol. 6, Passport (2013) [FLAC] {3CD}\CD1\14 - Announcer.wav

Peak level 86.7 %
Extraction speed 5.1 X
Track quality 100.0 %
Test CRC D9AF478A
Copy CRC D9AF478A
Accurately ripped (confidence 3) [5295A4CC] (AR v2)
Copy OK

Track 15

Filename F:\_EAC\Charlie Parker - Integrale Charlie Parker, Vol. 6, Passport (2013) [FLAC] {3CD}\CD1\15 - Groovin' High.wav

Peak level 97.7 %
Extraction speed 7.5 X
Track quality 100.0 %
Test CRC 5AA0FB5B
Copy CRC 5AA0FB5B
Accurately ripped (confidence 3) [D1CF49B4] (AR v2)
Copy OK

Track 16

Filename F:\_EAC\Charlie Parker - Integrale Charlie Parker, Vol. 6, Passport (2013) [FLAC] {3CD}\CD1\16 - Announcer.wav

Peak level 78.5 %
Extraction speed 3.2 X
Track quality 100.0 %
Test CRC C6047071
Copy CRC C6047071
Accurately ripped (confidence 3) [63B5179D] (AR v2)
Copy OK

Track 17

Filename F:\_EAC\Charlie Parker - Integrale Charlie Parker, Vol. 6, Passport (2013) [FLAC] {3CD}\CD1\17 - Announcer.wav

Peak level 82.9 %
Extraction speed 5.6 X
Track quality 100.0 %
Test CRC C6D00906
Copy CRC C6D00906
Accurately ripped (confidence 3) [CBCAD85C] (AR v2)
Copy OK

Track 18

Filename F:\_EAC\Charlie Parker - Integrale Charlie Parker, Vol. 6, Passport (2013) [FLAC] {3CD}\CD1\18 - Scrapple From The Apple.wav

Peak level 97.6 %
Extraction speed 7.7 X
Track quality 100.0 %
Test CRC C81AB0C1
Copy CRC C81AB0C1
Accurately ripped (confidence 3) [E35C24D3] (AR v2)
Copy OK

Track 19

Filename F:\_EAC\Charlie Parker - Integrale Charlie Parker, Vol. 6, Passport (2013) [FLAC] {3CD}\CD1\19 - Announcer.wav

Peak level 83.2 %
Extraction speed 3.4 X
Track quality 100.0 %
Test CRC AEDC1361
Copy CRC AEDC1361
Accurately ripped (confidence 3) [3D2CA9B9] (AR v2)
Copy OK

Track 20

Filename F:\_EAC\Charlie Parker - Integrale Charlie Parker, Vol. 6, Passport (2013) [FLAC] {3CD}\CD1\20 - Barbados.wav

Peak level 97.6 %
Extraction speed 8.0 X
Track quality 100.0 %
Test CRC 6ECAEDC7
Copy CRC 6ECAEDC7
Accurately ripped (confidence 3) [AD3E088E] (AR v2)
Copy OK

Track 21

Filename F:\_EAC\Charlie Parker - Integrale Charlie Parker, Vol. 6, Passport (2013) [FLAC] {3CD}\CD1\21 - Announcer.wav

Peak level 69.1 %
Extraction speed 1.7 X
Track quality 100.0 %
Test CRC 4C5CA703
Copy CRC 4C5CA703
Accurately ripped (confidence 3) [FBF3681A] (AR v2)
Copy OK

Track 22

Filename F:\_EAC\Charlie Parker - Integrale Charlie Parker, Vol. 6, Passport (2013) [FLAC] {3CD}\CD1\22 - Salt Peanuts.wav

Peak level 94.8 %
Extraction speed 8.1 X
Track quality 100.0 %
Test CRC 77AE6B37
Copy CRC 77AE6B37
Accurately ripped (confidence 3) [78C5553C] (AR v2)
Copy OK

Track 23

Filename F:\_EAC\Charlie Parker - Integrale Charlie Parker, Vol. 6, Passport (2013) [FLAC] {3CD}\CD1\23 - Announcer.wav

Peak level 87.8 %
Extraction speed 6.8 X
Track quality 100.0 %
Test CRC 017296C1
Copy CRC 017296C1
Accurately ripped (confidence 3) [2A6C7930] (AR v2)
Copy OK

Track 24

Filename F:\_EAC\Charlie Parker - Integrale Charlie Parker, Vol. 6, Passport (2013) [FLAC] {3CD}\CD1\24 - Okiedoke.wav

Peak level 63.1 %
Extraction speed 8.1 X
Track quality 100.0 %
Test CRC 3E9FA330
Copy CRC 3E9FA330
Accurately ripped (confidence 3) [50721B45] (AR v2)
Copy OK

Track 25

Filename F:\_EAC\Charlie Parker - Integrale Charlie Parker, Vol. 6, Passport (2013) [FLAC] {3CD}\CD1\25 - Leap Here.wav

Peak level 77.6 %
Extraction speed 9.6 X
Track quality 100.0 %
Test CRC B007DF29
Copy CRC B007DF29
Accurately ripped (confidence 3) [86E0D343] (AR v2)
Copy OK

Track 26

Filename F:\_EAC\Charlie Parker - Integrale Charlie Parker, Vol. 6, Passport (2013) [FLAC] {3CD}\CD1\26 - Indiana.wav

Peak level 77.5 %
Extraction speed 9.6 X
Track quality 99.9 %
Test CRC E6A1FFB0
Copy CRC E6A1FFB0
Accurately ripped (confidence 3) [CD86E3DB] (AR v2)
Copy OK


All tracks accurately ripped

No errors occurred

End of status report

–– CUETools DB Plugin V2.1.6

[CTDB TOCID: Od8Mo44K4NY95NU5BkoVeEH7fT4-] found
Submit result: Od8Mo44K4NY95NU5BkoVeEH7fT4- has been confirmed
Track | CTDB Status
1 | (1/1) Accurately ripped
2 | (1/1) Accurately ripped
3 | (1/1) Accurately ripped
4 | (1/1) Accurately ripped
5 | (1/1) Accurately ripped
6 | (1/1) Accurately ripped
7 | (1/1) Accurately ripped
8 | (1/1) Accurately ripped
9 | (1/1) Accurately ripped
10 | (1/1) Accurately ripped
11 | (1/1) Accurately ripped
12 | (1/1) Accurately ripped
13 | (1/1) Accurately ripped
14 | (1/1) Accurately ripped
15 | (1/1) Accurately ripped
16 | (1/1) Accurately ripped
17 | (1/1) Accurately ripped
18 | (1/1) Accurately ripped
19 | (1/1) Accurately ripped
20 | (1/1) Accurately ripped
21 | (1/1) Accurately ripped
22 | (1/1) Accurately ripped
23 | (1/1) Accurately ripped
24 | (1/1) Accurately ripped
25 | (1/1) Accurately ripped
26 | (1/1) Accurately ripped


==== Log checksum A7DC0A785C7C5CFD82AE8A69510864A4595393464EFABA79FDCF47969B5C2B41 ====
Exact Audio Copy V1.3 from 2. September 2016

EAC extraction logfile from 25. December 2018, 19:21

Charlie Parker / Integrale Charlie Parker, Vol. 6, Passport (CD2)

Used drive : ATAPI iHAS122 F Adapter: 1 ID: 0

Read mode : Secure
Utilize accurate stream : Yes
Defeat audio cache : Yes
Make use of C2 pointers : No

Read offset correction : 6
Overread into Lead-In and Lead-Out : No
Fill up missing offset samples with silence : Yes
Delete leading and trailing silent blocks : No
Null samples used in CRC calculations : Yes
Used interface : Native Win32 interface for Win NT & 2000
Gap handling : Appended to previous track

Used output format : User Defined Encoder
Selected bitrate : 1024 kBit/s
Quality : High
Add ID3 tag : No
Command line compressor : C:\Program Files (x86)\Exact Audio Copy_v1.3\Flac\flac.exe
Additional command line options : -8 -V -T "ARTIST=%artist%" -T "TITLE=%title%" -T "ALBUM=%albumtitle%" -T "DATE=%year%" -T "TRACKNUMBER=%tracknr%" -T "TOTALTRACKS=%numtracks%" -T "GENRE=%genre%" -T "ALBUMARTIST=%albumartist%" -T "ALBUM ARTIST=%albumartist%" -T "COMMENT=EAC Secure Mode, Test & Copy, AccurateRip, FLAC -8" %source%


TOC of the extracted CD

Track | Start | Length | Start sector | End sector
––––––––––––––––––––––––––––-
1 | 0:00.00 | 15:37.35 | 0 | 70309
2 | 15:37.35 | 0:07.50 | 70310 | 70884
3 | 15:45.10 | 4:33.17 | 70885 | 91376
4 | 20:18.27 | 0:16.47 | 91377 | 92623
5 | 20:34.74 | 3:53.12 | 92624 | 110110
6 | 24:28.11 | 0:13.10 | 110111 | 111095
7 | 24:41.21 | 3:19.43 | 111096 | 126063
8 | 28:00.64 | 0:05.25 | 126064 | 126463
9 | 28:06.14 | 4:45.07 | 126464 | 147845
10 | 32:51.21 | 0:05.11 | 147846 | 148231
11 | 32:56.32 | 3:32.29 | 148232 | 164160
12 | 36:28.61 | 0:12.40 | 164161 | 165100
13 | 36:41.26 | 3:45.46 | 165101 | 182021
14 | 40:26.72 | 0:09.64 | 182022 | 182760
15 | 40:36.61 | 3:32.60 | 182761 | 198720
16 | 44:09.46 | 0:15.48 | 198721 | 199893
17 | 44:25.19 | 4:38.14 | 199894 | 220757
18 | 49:03.33 | 0:24.06 | 220758 | 222563
19 | 49:27.39 | 4:40.40 | 222564 | 243603
20 | 54:08.04 | 0:23.13 | 243604 | 245341
21 | 54:31.17 | 2:08.01 | 245342 | 254942
22 | 56:39.18 | 0:30.07 | 254943 | 257199
23 | 57:09.25 | 1:36.32 | 257200 | 264431
24 | 58:45.57 | 1:26.00 | 264432 | 270881
25 | 60:11.57 | 3:51.23 | 270882 | 288229
26 | 64:03.05 | 0:27.21 | 288230 | 290275
27 | 64:30.26 | 5:09.73 | 290276 | 313523


Track 1

Filename F:\_EAC\Charlie Parker - Integrale Charlie Parker, Vol. 6, Passport (2013) [FLAC] {3CD}\CD2\01 - Lover Come Back To Me.wav

Pre-gap length 0:00:02.00

Peak level 57.1 %
Extraction speed 5.9 X
Track quality 100.0 %
Test CRC 5C065461
Copy CRC 5C065461
Accurately ripped (confidence 3) [3BD3F8F7] (AR v2)
Copy OK

Track 2

Filename F:\_EAC\Charlie Parker - Integrale Charlie Parker, Vol. 6, Passport (2013) [FLAC] {3CD}\CD2\02 - Announcer.wav

Peak level 48.1 %
Extraction speed 1.1 X
Track quality 100.0 %
Test CRC 46506FA9
Copy CRC 46506FA9
Accurately ripped (confidence 3) [1C5F74E1] (AR v2)
Copy OK

Track 3

Filename F:\_EAC\Charlie Parker - Integrale Charlie Parker, Vol. 6, Passport (2013) [FLAC] {3CD}\CD2\03 - Scrapple From The Apple.wav

Peak level 62.9 %
Extraction speed 5.4 X
Track quality 99.9 %
Test CRC F292F4A4
Copy CRC F292F4A4
Accurately ripped (confidence 3) [A6E892F6] (AR v2)
Copy OK

Track 4

Filename F:\_EAC\Charlie Parker - Integrale Charlie Parker, Vol. 6, Passport (2013) [FLAC] {3CD}\CD2\04 - Announcer.wav

Peak level 52.5 %
Extraction speed 2.2 X
Track quality 100.0 %
Test CRC 6DA7E7EE
Copy CRC 6DA7E7EE
Accurately ripped (confidence 3) [F8F19F63] (AR v2)
Copy OK

Track 5

Filename F:\_EAC\Charlie Parker - Integrale Charlie Parker, Vol. 6, Passport (2013) [FLAC] {3CD}\CD2\05 - Barbados.wav

Peak level 56.3 %
Extraction speed 6.6 X
Track quality 100.0 %
Test CRC 8C726271
Copy CRC 8C726271
Accurately ripped (confidence 3) [83D82194] (AR v2)
Copy OK

Track 6

Filename F:\_EAC\Charlie Parker - Integrale Charlie Parker, Vol. 6, Passport (2013) [FLAC] {3CD}\CD2\06 - Announcer.wav

Peak level 41.8 %
Extraction speed 2.0 X
Track quality 100.0 %
Test CRC FE1A35EA
Copy CRC FE1A35EA
Accurately ripped (confidence 3) [3FC4F1CB] (AR v2)
Copy OK

Track 7

Filename F:\_EAC\Charlie Parker - Integrale Charlie Parker, Vol. 6, Passport (2013) [FLAC] {3CD}\CD2\07 - Be-Bop.wav

Peak level 55.4 %
Extraction speed 6.6 X
Track quality 100.0 %
Test CRC A9B711F4
Copy CRC A9B711F4
Accurately ripped (confidence 3) [8BD50FE8] (AR v2)
Copy OK

Track 8

Filename F:\_EAC\Charlie Parker - Integrale Charlie Parker, Vol. 6, Passport (2013) [FLAC] {3CD}\CD2\08 - Announcer.wav

Peak level 38.9 %
Extraction speed 0.4 X
Track quality 97.9 %
Test CRC 78013F85
Copy CRC 78013F85
Accurately ripped (confidence 2) [F177A5DD] (AR v2)
Copy OK

Track 9

Filename F:\_EAC\Charlie Parker - Integrale Charlie Parker, Vol. 6, Passport (2013) [FLAC] {3CD}\CD2\09 - Groovin' High.wav

Peak level 45.9 %
Extraction speed 7.2 X
Track quality 100.0 %
Test CRC B18D389C
Copy CRC B18D389C
Accurately ripped (confidence 3) [8E24C547] (AR v2)
Copy OK

Track 10

Filename F:\_EAC\Charlie Parker - Integrale Charlie Parker, Vol. 6, Passport (2013) [FLAC] {3CD}\CD2\10 - Announcer.wav

Peak level 48.9 %
Extraction speed 1.0 X
Track quality 100.0 %
Test CRC 87D576AF
Copy CRC 87D576AF
Accurately ripped (confidence 2) [7EAC12EB] (AR v2)
Copy OK

Track 11

Filename F:\_EAC\Charlie Parker - Integrale Charlie Parker, Vol. 6, Passport (2013) [FLAC] {3CD}\CD2\11 - Confirmation.wav

Peak level 48.7 %
Extraction speed 7.2 X
Track quality 100.0 %
Test CRC 43CE4E22
Copy CRC 43CE4E22
Accurately ripped (confidence 3) [445D1852] (AR v2)
Copy OK

Track 12

Filename F:\_EAC\Charlie Parker - Integrale Charlie Parker, Vol. 6, Passport (2013) [FLAC] {3CD}\CD2\12 - Announcer.wav

Peak level 37.2 %
Extraction speed 2.1 X
Track quality 100.0 %
Test CRC BB5463F8
Copy CRC BB5463F8
Accurately ripped (confidence 3) [823F3B67] (AR v2)
Copy OK

Track 13

Filename F:\_EAC\Charlie Parker - Integrale Charlie Parker, Vol. 6, Passport (2013) [FLAC] {3CD}\CD2\13 - Salt Peanuts.wav

Peak level 54.6 %
Extraction speed 7.8 X
Track quality 100.0 %
Test CRC 43A00BD9
Copy CRC 43A00BD9
Accurately ripped (confidence 3) [7127C028] (AR v2)
Copy OK

Track 14

Filename F:\_EAC\Charlie Parker - Integrale Charlie Parker, Vol. 6, Passport (2013) [FLAC] {3CD}\CD2\14 - Announcer.wav

Peak level 30.2 %
Extraction speed 1.8 X
Track quality 100.0 %
Test CRC 81E9F113
Copy CRC 81E9F113
Accurately ripped (confidence 3) [8CDD6EAE] (AR v2)
Copy OK

Track 15

Filename F:\_EAC\Charlie Parker - Integrale Charlie Parker, Vol. 6, Passport (2013) [FLAC] {3CD}\CD2\15 - Half Nelson.wav

Peak level 49.0 %
Extraction speed 6.4 X
Track quality 99.9 %
Test CRC 20AD97F9
Copy CRC 20AD97F9
Accurately ripped (confidence 3) [4CA942CE] (AR v2)
Copy OK

Track 16

Filename F:\_EAC\Charlie Parker - Integrale Charlie Parker, Vol. 6, Passport (2013) [FLAC] {3CD}\CD2\16 - Announcer.wav

Peak level 31.9 %
Extraction speed 2.7 X
Track quality 100.0 %
Test CRC 62AE0BD3
Copy CRC 62AE0BD3
Accurately ripped (confidence 3) [C05A14C1] (AR v2)
Copy OK

Track 17

Filename F:\_EAC\Charlie Parker - Integrale Charlie Parker, Vol. 6, Passport (2013) [FLAC] {3CD}\CD2\17 - A Night In Tunisia.wav

Peak level 47.9 %
Extraction speed 7.1 X
Track quality 99.9 %
Test CRC 1D5131BC
Copy CRC 1D5131BC
Accurately ripped (confidence 3) [24CD91BF] (AR v2)
Copy OK

Track 18

Filename F:\_EAC\Charlie Parker - Integrale Charlie Parker, Vol. 6, Passport (2013) [FLAC] {3CD}\CD2\18 - Announcer.wav

Peak level 30.7 %
Extraction speed 3.8 X
Track quality 100.0 %
Test CRC E5A5155A
Copy CRC E5A5155A
Accurately ripped (confidence 3) [46F4048F] (AR v2)
Copy OK

Track 19

Filename F:\_EAC\Charlie Parker - Integrale Charlie Parker, Vol. 6, Passport (2013) [FLAC] {3CD}\CD2\19 - Scrapple From The Apple.wav

Peak level 46.4 %
Extraction speed 7.3 X
Track quality 99.9 %
Test CRC 41731E9A
Copy CRC 41731E9A
Accurately ripped (confidence 3) [045CC787] (AR v2)
Copy OK

Track 20

Filename F:\_EAC\Charlie Parker - Integrale Charlie Parker, Vol. 6, Passport (2013) [FLAC] {3CD}\CD2\20 - Announcer.wav

Peak level 33.9 %
Extraction speed 3.6 X
Track quality 100.0 %
Test CRC 95838E1E
Copy CRC 95838E1E
Accurately ripped (confidence 3) [91639EA7] (AR v2)
Copy OK

Track 21

Filename F:\_EAC\Charlie Parker - Integrale Charlie Parker, Vol. 6, Passport (2013) [FLAC] {3CD}\CD2\21 - Deedle.wav

Peak level 51.9 %
Extraction speed 7.7 X
Track quality 100.0 %
Test CRC C6202B72
Copy CRC C6202B72
Accurately ripped (confidence 3) [74598851] (AR v2)
Copy OK

Track 22

Filename F:\_EAC\Charlie Parker - Integrale Charlie Parker, Vol. 6, Passport (2013) [FLAC] {3CD}\CD2\22 - Announcer.wav

Peak level 41.4 %
Extraction speed 4.2 X
Track quality 100.0 %
Test CRC FBF12977
Copy CRC FBF12977
Accurately ripped (confidence 3) [1476F735] (AR v2)
Copy OK

Track 23

Filename F:\_EAC\Charlie Parker - Integrale Charlie Parker, Vol. 6, Passport (2013) [FLAC] {3CD}\CD2\23 - What This_.wav

Peak level 55.0 %
Extraction speed 7.4 X
Track quality 100.0 %
Test CRC 4FAF6830
Copy CRC 4FAF6830
Accurately ripped (confidence 3) [B1337D91] (AR v2)
Copy OK

Track 24

Filename F:\_EAC\Charlie Parker - Integrale Charlie Parker, Vol. 6, Passport (2013) [FLAC] {3CD}\CD2\24 - Announcer.wav

Peak level 50.8 %
Extraction speed 4.8 X
Track quality 99.8 %
Test CRC A6E2286B
Copy CRC A6E2286B
Accurately ripped (confidence 3) [89AE41D3] (AR v2)
Copy OK

Track 25

Filename F:\_EAC\Charlie Parker - Integrale Charlie Parker, Vol. 6, Passport (2013) [FLAC] {3CD}\CD2\25 - Cheryl.wav

Peak level 63.8 %
Extraction speed 9.0 X
Track quality 100.0 %
Test CRC F6235295
Copy CRC F6235295
Accurately ripped (confidence 3) [CBFF873C] (AR v2)
Copy OK

Track 26

Filename F:\_EAC\Charlie Parker - Integrale Charlie Parker, Vol. 6, Passport (2013) [FLAC] {3CD}\CD2\26 - Announcer.wav

Peak level 46.9 %
Extraction speed 4.4 X
Track quality 100.0 %
Test CRC 4DE4D5B0
Copy CRC 4DE4D5B0
Accurately ripped (confidence 3) [38AEB581] (AR v2)
Copy OK

Track 27

Filename F:\_EAC\Charlie Parker - Integrale Charlie Parker, Vol. 6, Passport (2013) [FLAC] {3CD}\CD2\27 - Anthropology.wav

Peak level 56.6 %
Extraction speed 9.7 X
Track quality 100.0 %
Test CRC 2A2FB5BE
Copy CRC 2A2FB5BE
Accurately ripped (confidence 3) [22258135] (AR v2)
Copy OK


All tracks accurately ripped

No errors occurred

End of status report

–– CUETools DB Plugin V2.1.6

[CTDB TOCID: k4wgUczvKnKyA1obRBiyHWI2zuM-] found
Submit result: k4wgUczvKnKyA1obRBiyHWI2zuM- has been confirmed
Track | CTDB Status
1 | (1/1) Accurately ripped
2 | (1/1) Accurately ripped
3 | (1/1) Accurately ripped
4 | (1/1) Accurately ripped
5 | (1/1) Accurately ripped
6 | (1/1) Accurately ripped
7 | (1/1) Accurately ripped
8 | (1/1) Accurately ripped
9 | (1/1) Accurately ripped
10 | (1/1) Accurately ripped
11 | (1/1) Accurately ripped
12 | (1/1) Accurately ripped
13 | (1/1) Accurately ripped
14 | (1/1) Accurately ripped
15 | (1/1) Accurately ripped
16 | (1/1) Accurately ripped
17 | (1/1) Accurately ripped
18 | (1/1) Accurately ripped
19 | (1/1) Accurately ripped
20 | (1/1) Accurately ripped
21 | (1/1) Accurately ripped
22 | (1/1) Accurately ripped
23 | (1/1) Accurately ripped
24 | (1/1) Accurately ripped
25 | (1/1) Accurately ripped
26 | (1/1) Accurately ripped
27 | (1/1) Accurately ripped


==== Log checksum 0384C812ADAE77DB7362EA5FF6EA5C81B9F9C0495DA86ACC7320A5F7D7CD2956 ====
Exact Audio Copy V1.3 from 2. September 2016

EAC extraction logfile from 25. December 2018, 20:17

Charlie Parker / Integrale Charlie Parker, Vol. 6, Passport (CD3)

Used drive : ATAPI iHAS122 F Adapter: 1 ID: 0

Read mode : Secure
Utilize accurate stream : Yes
Defeat audio cache : Yes
Make use of C2 pointers : No

Read offset correction : 6
Overread into Lead-In and Lead-Out : No
Fill up missing offset samples with silence : Yes
Delete leading and trailing silent blocks : No
Null samples used in CRC calculations : Yes
Used interface : Native Win32 interface for Win NT & 2000
Gap handling : Appended to previous track

Used output format : User Defined Encoder
Selected bitrate : 1024 kBit/s
Quality : High
Add ID3 tag : No
Command line compressor : C:\Program Files (x86)\Exact Audio Copy_v1.3\Flac\flac.exe
Additional command line options : -8 -V -T "ARTIST=%artist%" -T "TITLE=%title%" -T "ALBUM=%albumtitle%" -T "DATE=%year%" -T "TRACKNUMBER=%tracknr%" -T "TOTALTRACKS=%numtracks%" -T "GENRE=%genre%" -T "ALBUMARTIST=%albumartist%" -T "ALBUM ARTIST=%albumartist%" -T "COMMENT=EAC Secure Mode, Test & Copy, AccurateRip, FLAC -8" %source%


TOC of the extracted CD

Track | Start | Length | Start sector | End sector
––––––––––––––––––––––––––––-
1 | 0:00.00 | 1:10.18 | 0 | 5267
2 | 1:10.18 | 2:24.10 | 5268 | 16077
3 | 3:34.28 | 2:02.67 | 16078 | 25294
4 | 5:37.20 | 2:12.38 | 25295 | 35232
5 | 7:49.58 | 0:07.66 | 35233 | 35823
6 | 7:57.49 | 3:21.09 | 35824 | 50907
7 | 11:18.58 | 0:21.05 | 50908 | 52487
8 | 11:39.63 | 3:38.57 | 52488 | 68894
9 | 15:18.45 | 1:14.53 | 68895 | 74497
10 | 16:33.23 | 6:33.02 | 74498 | 103974
11 | 23:06.25 | 3:11.08 | 103975 | 118307
12 | 26:17.33 | 3:02.13 | 118308 | 131970
13 | 29:19.46 | 3:22.20 | 131971 | 147140
14 | 32:41.66 | 3:19.19 | 147141 | 162084
15 | 36:01.10 | 2:57.28 | 162085 | 175387
16 | 38:58.38 | 3:03.63 | 175388 | 189175
17 | 42:02.26 | 5:34.64 | 189176 | 214289
18 | 47:37.15 | 5:45.04 | 214290 | 240168
19 | 53:22.19 | 4:29.49 | 240169 | 260392
20 | 57:51.68 | 4:56.03 | 260393 | 282595
21 | 62:47.71 | 3:44.52 | 282596 | 299447
22 | 66:32.48 | 5:00.46 | 299448 | 321993


Track 1

Filename F:\_EAC\Charlie Parker - Integrale Charlie Parker, Vol. 6, Passport (2013) [FLAC] {3CD}\CD3\01 - Announcer.wav

Pre-gap length 0:00:02.00

Peak level 68.2 %
Extraction speed 3.5 X
Track quality 100.0 %
Test CRC F29E3FED
Copy CRC F29E3FED
Accurately ripped (confidence 3) [FD06896A] (AR v2)
Copy OK

Track 2

Filename F:\_EAC\Charlie Parker - Integrale Charlie Parker, Vol. 6, Passport (2013) [FLAC] {3CD}\CD3\02 - Hurry Home.wav

Peak level 62.7 %
Extraction speed 4.4 X
Track quality 100.0 %
Test CRC E7D73084
Copy CRC E7D73084
Accurately ripped (confidence 3) [BA0CD055] (AR v2)
Copy OK

Track 3

Filename F:\_EAC\Charlie Parker - Integrale Charlie Parker, Vol. 6, Passport (2013) [FLAC] {3CD}\CD3\03 - Deedle.wav

Peak level 97.3 %
Extraction speed 4.5 X
Track quality 100.0 %
Test CRC E0EEED0E
Copy CRC E0EEED0E
Accurately ripped (confidence 3) [25B37D28] (AR v2)
Copy OK

Track 4

Filename F:\_EAC\Charlie Parker - Integrale Charlie Parker, Vol. 6, Passport (2013) [FLAC] {3CD}\CD3\04 - Royal Roost Bop.wav

Peak level 88.3 %
Extraction speed 4.7 X
Track quality 100.0 %
Test CRC 3DC8168A
Copy CRC 3DC8168A
Accurately ripped (confidence 3) [EB613A21] (AR v2)
Copy OK

Track 5

Filename F:\_EAC\Charlie Parker - Integrale Charlie Parker, Vol. 6, Passport (2013) [FLAC] {3CD}\CD3\05 - Announcer.wav

Peak level 50.9 %
Extraction speed 1.0 X
Track quality 100.0 %
Test CRC EDBE1038
Copy CRC EDBE1038
Accurately ripped (confidence 3) [EBE0527B] (AR v2)
Copy OK

Track 6

Filename F:\_EAC\Charlie Parker - Integrale Charlie Parker, Vol. 6, Passport (2013) [FLAC] {3CD}\CD3\06 - Cheryl.wav

Peak level 87.5 %
Extraction speed 5.4 X
Track quality 100.0 %
Test CRC 810CB94F
Copy CRC 810CB94F
Accurately ripped (confidence 3) [440618BD] (AR v2)
Copy OK

Track 7

Filename F:\_EAC\Charlie Parker - Integrale Charlie Parker, Vol. 6, Passport (2013) [FLAC] {3CD}\CD3\07 - Announcer.wav

Peak level 53.4 %
Extraction speed 2.3 X
Track quality 100.0 %
Test CRC 8CA832D8
Copy CRC 8CA832D8
Accurately ripped (confidence 3) [30E3044C] (AR v2)
Copy OK

Track 8

Filename F:\_EAC\Charlie Parker - Integrale Charlie Parker, Vol. 6, Passport (2013) [FLAC] {3CD}\CD3\08 - On A Slow Boat To China.wav

Peak level 96.2 %
Extraction speed 4.8 X
Track quality 99.9 %
Test CRC 7F980EDE
Copy CRC 7F980EDE
Accurately ripped (confidence 3) [6343BB97] (AR v2)
Copy OK

Track 9

Filename F:\_EAC\Charlie Parker - Integrale Charlie Parker, Vol. 6, Passport (2013) [FLAC] {3CD}\CD3\09 - Announcer.wav

Peak level 65.2 %
Extraction speed 3.1 X
Track quality 99.8 %
Test CRC C193C29E
Copy CRC C193C29E
Accurately ripped (confidence 3) [C305B6AA] (AR v2)
Copy OK

Track 10

Filename F:\_EAC\Charlie Parker - Integrale Charlie Parker, Vol. 6, Passport (2013) [FLAC] {3CD}\CD3\10 - Chasin' The Bird.wav

Peak level 99.2 %
Extraction speed 6.8 X
Track quality 100.0 %
Test CRC DC4800F6
Copy CRC DC4800F6
Accurately ripped (confidence 3) [9D137982] (AR v2)
Copy OK

Track 11

Filename F:\_EAC\Charlie Parker - Integrale Charlie Parker, Vol. 6, Passport (2013) [FLAC] {3CD}\CD3\11 - Cardboard.wav

Peak level 81.7 %
Extraction speed 6.6 X
Track quality 100.0 %
Test CRC ABE52FE2
Copy CRC ABE52FE2
Accurately ripped (confidence 3) [CD4892F6] (AR v2)
Copy OK

Track 12

Filename F:\_EAC\Charlie Parker - Integrale Charlie Parker, Vol. 6, Passport (2013) [FLAC] {3CD}\CD3\12 - Visa.wav

Peak level 86.0 %
Extraction speed 6.7 X
Track quality 100.0 %
Test CRC 6EF14177
Copy CRC 6EF14177
Accurately ripped (confidence 3) [613D04FA] (AR v2)
Copy OK

Track 13

Filename F:\_EAC\Charlie Parker - Integrale Charlie Parker, Vol. 6, Passport (2013) [FLAC] {3CD}\CD3\13 - Segment.wav

Peak level 76.2 %
Extraction speed 7.1 X
Track quality 100.0 %
Test CRC 7C65A86A
Copy CRC 7C65A86A
Accurately ripped (confidence 3) [32DCE9B0] (AR v2)
Copy OK

Track 14

Filename F:\_EAC\Charlie Parker - Integrale Charlie Parker, Vol. 6, Passport (2013) [FLAC] {3CD}\CD3\14 - Divers-Segment (alternate).wav

Peak level 73.1 %
Extraction speed 7.3 X
Track quality 100.0 %
Test CRC B5E2CE37
Copy CRC B5E2CE37
Accurately ripped (confidence 3) [E192680B] (AR v2)
Copy OK

Track 15

Filename F:\_EAC\Charlie Parker - Integrale Charlie Parker, Vol. 6, Passport (2013) [FLAC] {3CD}\CD3\15 - Passport I.wav

Peak level 94.5 %
Extraction speed 7.4 X
Track quality 100.0 %
Test CRC 341E7CBD
Copy CRC 341E7CBD
Accurately ripped (confidence 3) [D9D8690D] (AR v2)
Copy OK

Track 16

Filename F:\_EAC\Charlie Parker - Integrale Charlie Parker, Vol. 6, Passport (2013) [FLAC] {3CD}\CD3\16 - Passport II.wav

Peak level 97.8 %
Extraction speed 7.6 X
Track quality 100.0 %
Test CRC 93CC6EC9
Copy CRC 93CC6EC9
Accurately ripped (confidence 3) [24FE4700] (AR v2)
Copy OK

Track 17

Filename F:\_EAC\Charlie Parker - Integrale Charlie Parker, Vol. 6, Passport (2013) [FLAC] {3CD}\CD3\17 - Moose The Mooche.wav

Peak level 99.2 %
Extraction speed 8.4 X
Track quality 100.0 %
Test CRC DBDC8524
Copy CRC DBDC8524
Accurately ripped (confidence 3) [BE547024] (AR v2)
Copy OK

Track 18

Filename F:\_EAC\Charlie Parker - Integrale Charlie Parker, Vol. 6, Passport (2013) [FLAC] {3CD}\CD3\18 - Hot House.wav

Peak level 97.8 %
Extraction speed 8.9 X
Track quality 100.0 %
Test CRC 45BA5D1D
Copy CRC 45BA5D1D
Accurately ripped (confidence 3) [09DEF76D] (AR v2)
Copy OK

Track 19

Filename F:\_EAC\Charlie Parker - Integrale Charlie Parker, Vol. 6, Passport (2013) [FLAC] {3CD}\CD3\19 - Allen's Alley.wav

Peak level 98.6 %
Extraction speed 8.9 X
Track quality 100.0 %
Test CRC A8CB0E00
Copy CRC A8CB0E00
Accurately ripped (confidence 3) [52EF30BA] (AR v2)
Copy OK

Track 20

Filename F:\_EAC\Charlie Parker - Integrale Charlie Parker, Vol. 6, Passport (2013) [FLAC] {3CD}\CD3\20 - 52nd Street Theme.wav

Peak level 99.3 %
Extraction speed 9.3 X
Track quality 100.0 %
Test CRC 5E3CF296
Copy CRC 5E3CF296
Accurately ripped (confidence 3) [1EA3EC3A] (AR v2)
Copy OK

Track 21

Filename F:\_EAC\Charlie Parker - Integrale Charlie Parker, Vol. 6, Passport (2013) [FLAC] {3CD}\CD3\21 - Salt Peanuts.wav

Peak level 78.5 %
Extraction speed 9.1 X
Track quality 100.0 %
Test CRC 4A5D75EA
Copy CRC 4A5D75EA
Accurately ripped (confidence 3) [A50E33E4] (AR v2)
Copy OK

Track 22

Filename F:\_EAC\Charlie Parker - Integrale Charlie Parker, Vol. 6, Passport (2013) [FLAC] {3CD}\CD3\22 - Blues Final.wav

Peak level 86.9 %
Extraction speed 9.8 X
Track quality 100.0 %
Test CRC B72443BA
Copy CRC B72443BA
Accurately ripped (confidence 3) [BD3CD778] (AR v2)
Copy OK


All tracks accurately ripped

No errors occurred

End of status report

–– CUETools DB Plugin V2.1.6

[CTDB TOCID: Jec8vOan3DqKn054U9WJwMZq4no-] found
Submit result: Jec8vOan3DqKn054U9WJwMZq4no- has been confirmed
Track | CTDB Status
1 | (1/1) Accurately ripped
2 | (1/1) Accurately ripped
3 | (1/1) Accurately ripped
4 | (1/1) Accurately ripped
5 | (1/1) Accurately ripped
6 | (1/1) Accurately ripped
7 | (1/1) Accurately ripped
8 | (1/1) Accurately ripped
9 | (1/1) Accurately ripped
10 | (1/1) Accurately ripped
11 | (1/1) Accurately ripped
12 | (1/1) Accurately ripped
13 | (1/1) Accurately ripped
14 | (1/1) Accurately ripped
15 | (1/1) Accurately ripped
16 | (1/1) Accurately ripped
17 | (1/1) Accurately ripped
18 | (1/1) Accurately ripped
19 | (1/1) Accurately ripped
20 | (1/1) Accurately ripped
21 | (1/1) Accurately ripped
22 | (1/1) Accurately ripped


==== Log checksum 474636B24A7387591AB6A67F12EDD772D3F128CBD80F7E2D5B0CB16A0331D84B ====


Charlie Parker - Integrale Charlie Parker, Vol. 6, "Passport", 1949 (2013) {3CD Set Frémeaux & Associés FA1336}


Thanks to SavoyFun for CDs…

NEXT -> Charlie Parker - Intégrale Charlie Parker, Vol. 7, "Just Friends", 1949-1950 (2014) {3CD Set Frémeaux & Associés FA1337}

see more Charlie Parker…


===