Tags
Language
Tags

James Newton Howard - Alive (Original Motion Picture Soundtrack) (1993; 2020)

Posted By: aasana
James Newton Howard - Alive (Original Motion Picture Soundtrack) (1993; 2020)

James Newton Howard - Alive (Original Motion Picture Soundtrack) (1993; 2020)
EAC Rip | FLAC (tracks+.cue) | 02:22:30 | 680,65 MB
Soundtrack | Label: Intrada

In 1993, Touchstone Pictures released the harrowing tale of Uruguayan rugby players and their families whose plane crashes in the Andes on their way to a match in Chile. It is a story of survival in some of the earth's harshest conditions, pushing humanity to endure the most devastating of circumstances. For Alive, composer James Newton Howard wrote a score that was to capture not only the desperate, seemingly hopeless conditions, but set the music against a background of natural beauty and tenacity of the human spirit. At the time of the film's release, due to the constraints of the day, a 30-minute album of highlights was released, representing less than half of the score's full 73 minutes. Given the difficult subject matter, the film also under went changes in order to present the story in its most powerful light. As a result, several sequences were rescored, resulting in some 30 minutes of alternate versions of the score, some vastly different from their original counterparts. Additionally, two powerful cues recorded for the trailer were uncovered. All of this is presented here in this 2-CD presentation of this magnificent work from elements within the Disney vaults and the composer himself. Howard wrote a main theme reflecting triumphant survivalism that propelled the survivors to find a way off that mountain. First heard in solo guitar, it opens up at the end in a huge, glorious rendition.

1.01 | James Newton Howard - Trailer (Version No. 2)
1.02 | James Newton Howard - Main Title (Opening Theme)
1.03 | James Newton Howard - The First Night (Alternate)
1.04 | James Newton Howard - The Dead
1.05 | James Newton Howard - Home
1.06 | James Newton Howard - Nando Awakes
1.07 | James Newton Howard - Silent Night
1.08 | James Newton Howard - You’re The Leader
1.09 | James Newton Howard - Nando And Carlitos (Revised)
1.10 | James Newton Howard - Tomorrow We Climb
1.11 | James Newton Howard - Rosary Montage
1.12 | James Newton Howard - Susana’s Coat (Revised)
1.13 | James Newton Howard - Are You Ready?
1.14 | James Newton Howard - Eating
1.15 | James Newton Howard - Second Climb
1.16 | James Newton Howard - Frozen Climbers
1.17 | James Newton Howard - Sledding
1.18 | James Newton Howard - Burning Money and Lilliana
1.19 | James Newton Howard - Post Avalanche
1.20 | James Newton Howard - Carlito’s Birthday
1.21 | James Newton Howard - Sunlight and Digging Out (Revised)
1.22 | James Newton Howard - Alberto
1.23 | James Newton Howard - Finding The Tail
1.24 | James Newton Howard - The Mirror (Alternate)
1.25 | James Newton Howard - Nando Carries Roy
1.26 | James Newton Howard - Final Climb Pt. 1 & Pt. 2 (Revised No. 2)
1.27 | James Newton Howard - I’m Going Back (Revised)
1.28 | James Newton Howard - I Love You, Man*
1.29 | James Newton Howard - It’s God (Alternate)
1.30 | James Newton Howard - Saved (Original)
1.31 | James Newton Howard - End Credits (Closing Theme)

Exact Audio Copy V1.3 from 2. September 2016

EAC extraction logfile from 14. March 2020, 15:15

James Newton Howard / Alive

Used drive : ASUS SDRW-08U9M-U Adapter: 1 ID: 0

Read mode : Secure
Utilize accurate stream : Yes
Defeat audio cache : Yes
Make use of C2 pointers : No

Read offset correction : 6
Overread into Lead-In and Lead-Out : No
Fill up missing offset samples with silence : Yes
Delete leading and trailing silent blocks : No
Null samples used in CRC calculations : Yes
Used interface : Native Win32 interface for Win NT & 2000
Gap handling : Appended to previous track

Used output format : User Defined Encoder
Selected bitrate : 1024 kBit/s
Quality : High
Add ID3 tag : No
Command line compressor : C:\Program Files (x86)\Exact Audio Copy\Flac\flac.exe
Additional command line options : -8 -e -p -V -T "ARTIST=%artist%" -T "TITLE=%title%" -T "ALBUM=%albumtitle%" -T "DATE=%year%" -T "TRACKNUMBER=%tracknr%" -T "GENRE=%genre%" -T "COMMENT=%comment%" -T "BAND=%albuminterpret%" -T "ALBUMARTIST=%albuminterpret%" -T "COMPOSER=%composer%" %haslyrics%–tag-from-file=LYRICS="%lyricsfile%"%haslyrics% -T "DISCNUMBER=%cdnumber%" -T "TOTALDISCS=%totalcds%" -T "TOTALTRACKS=%numtracks%" %hascover%–picture="%coverfile%"%hascover% %source% -o %dest%


TOC of the extracted CD

Track | Start | Length | Start sector | End sector
––––––––––––––––––––––––––––-
1 | 0:00.00 | 2:07.19 | 0 | 9543
2 | 2:07.19 | 0:26.25 | 9544 | 11518
3 | 2:33.44 | 4:13.45 | 11519 | 30538
4 | 6:47.14 | 1:25.65 | 30539 | 36978
5 | 8:13.04 | 1:48.67 | 36979 | 45145
6 | 10:01.71 | 2:23.05 | 45146 | 55875
7 | 12:25.01 | 1:48.65 | 55876 | 64040
8 | 14:13.66 | 1:12.73 | 64041 | 69513
9 | 15:26.64 | 1:53.37 | 69514 | 78025
10 | 17:20.26 | 2:36.50 | 78026 | 89775
11 | 19:57.01 | 3:40.50 | 89776 | 106325
12 | 23:37.51 | 0:53.54 | 106326 | 110354
13 | 24:31.30 | 1:17.32 | 110355 | 116161
14 | 25:48.62 | 5:16.39 | 116162 | 139900
15 | 31:05.26 | 1:51.51 | 139901 | 148276
16 | 32:57.02 | 2:00.28 | 148277 | 157304
17 | 34:57.30 | 0:42.34 | 157305 | 160488
18 | 35:39.64 | 3:02.39 | 160489 | 174177
19 | 38:42.28 | 3:04.48 | 174178 | 188025
20 | 41:47.01 | 0:43.44 | 188026 | 191294
21 | 42:30.45 | 3:52.43 | 191295 | 208737
22 | 46:23.13 | 1:51.31 | 208738 | 217093
23 | 48:14.44 | 3:19.01 | 217094 | 232019
24 | 51:33.45 | 1:05.25 | 232020 | 236919
25 | 52:38.70 | 1:59.30 | 236920 | 245874
26 | 54:38.25 | 6:32.08 | 245875 | 275282
27 | 61:10.33 | 2:31.25 | 275283 | 286632
28 | 63:41.58 | 0:54.41 | 286633 | 290723
29 | 64:36.24 | 2:40.17 | 290724 | 302740
30 | 67:16.41 | 3:02.37 | 302741 | 316427
31 | 70:19.03 | 3:10.59 | 316428 | 330736


Track 1

Filename D:\BGMusic\James Newton Howard - Alive\CD1\01 - James Newton Howard - Trailer (Version No. 2).wav

Pre-gap length 0:00:02.00

Peak level 100.0 %
Extraction speed 1.0 X
Track quality 100.0 %
Test CRC 95F822AF
Copy CRC 95F822AF
Track not present in AccurateRip database
Copy OK

Track 2

Filename D:\BGMusic\James Newton Howard - Alive\CD1\02 - James Newton Howard - Main Title (Opening Theme).wav

Peak level 14.6 %
Extraction speed 0.6 X
Track quality 100.0 %
Test CRC 6E82DD92
Copy CRC 6E82DD92
Track not present in AccurateRip database
Copy OK

Track 3

Filename D:\BGMusic\James Newton Howard - Alive\CD1\03 - James Newton Howard - The First Night (Alternate).wav

Peak level 99.4 %
Extraction speed 1.1 X
Track quality 99.9 %
Test CRC 10BAE9C3
Copy CRC 10BAE9C3
Track not present in AccurateRip database
Copy OK

Track 4

Filename D:\BGMusic\James Newton Howard - Alive\CD1\04 - James Newton Howard - The Dead.wav

Peak level 50.6 %
Extraction speed 1.1 X
Track quality 100.0 %
Test CRC 50D00A39
Copy CRC 50D00A39
Track not present in AccurateRip database
Copy OK

Track 5

Filename D:\BGMusic\James Newton Howard - Alive\CD1\05 - James Newton Howard - Home.wav

Peak level 48.6 %
Extraction speed 0.9 X
Track quality 99.9 %
Test CRC 07E70ED3
Copy CRC 07E70ED3
Track not present in AccurateRip database
Copy OK

Track 6

Filename D:\BGMusic\James Newton Howard - Alive\CD1\06 - James Newton Howard - Nando Awakes.wav

Peak level 51.9 %
Extraction speed 1.1 X
Track quality 99.9 %
Test CRC E66EC18B
Copy CRC E66EC18B
Track not present in AccurateRip database
Copy OK

Track 7

Filename D:\BGMusic\James Newton Howard - Alive\CD1\07 - James Newton Howard - Silent Night.wav

Peak level 38.5 %
Extraction speed 1.0 X
Track quality 99.9 %
Test CRC 5ABA0BFB
Copy CRC 5ABA0BFB
Track not present in AccurateRip database
Copy OK

Track 8

Filename D:\BGMusic\James Newton Howard - Alive\CD1\08 - James Newton Howard - You’re The Leader.wav

Peak level 63.7 %
Extraction speed 1.2 X
Track quality 100.0 %
Test CRC DC3901D8
Copy CRC DC3901D8
Track not present in AccurateRip database
Copy OK

Track 9

Filename D:\BGMusic\James Newton Howard - Alive\CD1\09 - James Newton Howard - Nando And Carlitos (Revised).wav

Peak level 47.3 %
Extraction speed 1.1 X
Track quality 99.9 %
Test CRC DE736AD7
Copy CRC DE736AD7
Track not present in AccurateRip database
Copy OK

Track 10

Filename D:\BGMusic\James Newton Howard - Alive\CD1\10 - James Newton Howard - Tomorrow We Climb.wav

Peak level 100.0 %
Extraction speed 1.3 X
Track quality 99.9 %
Test CRC 6AFC14E9
Copy CRC 6AFC14E9
Track not present in AccurateRip database
Copy OK

Track 11

Filename D:\BGMusic\James Newton Howard - Alive\CD1\11 - James Newton Howard - Rosary Montage.wav

Peak level 54.0 %
Extraction speed 1.7 X
Track quality 100.0 %
Test CRC 88305E49
Copy CRC 88305E49
Track not present in AccurateRip database
Copy OK

Track 12

Filename D:\BGMusic\James Newton Howard - Alive\CD1\12 - James Newton Howard - Susana’s Coat (Revised).wav

Peak level 49.2 %
Extraction speed 1.2 X
Track quality 100.0 %
Test CRC 890293D3
Copy CRC 890293D3
Track not present in AccurateRip database
Copy OK

Track 13

Filename D:\BGMusic\James Newton Howard - Alive\CD1\13 - James Newton Howard - Are You Ready.wav

Peak level 33.3 %
Extraction speed 1.4 X
Track quality 100.0 %
Test CRC 72616AB1
Copy CRC 72616AB1
Track not present in AccurateRip database
Copy OK

Track 14

Filename D:\BGMusic\James Newton Howard - Alive\CD1\14 - James Newton Howard - Eating.wav

Peak level 93.8 %
Extraction speed 1.9 X
Track quality 100.0 %
Test CRC AE58B663
Copy CRC AE58B663
Track not present in AccurateRip database
Copy OK

Track 15

Filename D:\BGMusic\James Newton Howard - Alive\CD1\15 - James Newton Howard - Second Climb.wav

Peak level 96.1 %
Extraction speed 1.6 X
Track quality 100.0 %
Test CRC CB506FB1
Copy CRC CB506FB1
Track not present in AccurateRip database
Copy OK

Track 16

Filename D:\BGMusic\James Newton Howard - Alive\CD1\16 - James Newton Howard - Frozen Climbers.wav

Peak level 49.5 %
Extraction speed 1.7 X
Track quality 100.0 %
Test CRC F815E7E9
Copy CRC F815E7E9
Track not present in AccurateRip database
Copy OK

Track 17

Filename D:\BGMusic\James Newton Howard - Alive\CD1\17 - James Newton Howard - Sledding.wav

Peak level 100.0 %
Extraction speed 0.8 X
Track quality 99.7 %
Test CRC 208FABA3
Copy CRC 208FABA3
Track not present in AccurateRip database
Copy OK

Track 18

Filename D:\BGMusic\James Newton Howard - Alive\CD1\18 - James Newton Howard - Burning Money and Lilliana.wav

Peak level 27.6 %
Extraction speed 1.9 X
Track quality 100.0 %
Test CRC B08A6508
Copy CRC B08A6508
Track not present in AccurateRip database
Copy OK

Track 19

Filename D:\BGMusic\James Newton Howard - Alive\CD1\19 - James Newton Howard - Post Avalanche.wav

Peak level 65.1 %
Extraction speed 2.0 X
Track quality 100.0 %
Test CRC 110FD5A9
Copy CRC 110FD5A9
Track not present in AccurateRip database
Copy OK

Track 20

Filename D:\BGMusic\James Newton Howard - Alive\CD1\20 - James Newton Howard - Carlito’s Birthday.wav

Peak level 38.8 %
Extraction speed 1.3 X
Track quality 100.0 %
Test CRC 44CB533B
Copy CRC 44CB533B
Track not present in AccurateRip database
Copy OK

Track 21

Filename D:\BGMusic\James Newton Howard - Alive\CD1\21 - James Newton Howard - Sunlight and Digging Out (Revised).wav

Peak level 85.8 %
Extraction speed 2.1 X
Track quality 100.0 %
Test CRC F6FC06E6
Copy CRC F6FC06E6
Track not present in AccurateRip database
Copy OK

Track 22

Filename D:\BGMusic\James Newton Howard - Alive\CD1\22 - James Newton Howard - Alberto.wav

Peak level 27.7 %
Extraction speed 1.9 X
Track quality 100.0 %
Test CRC 76AE9D39
Copy CRC 76AE9D39
Track not present in AccurateRip database
Copy OK

Track 23

Filename D:\BGMusic\James Newton Howard - Alive\CD1\23 - James Newton Howard - Finding The Tail.wav

Peak level 97.9 %
Extraction speed 2.2 X
Track quality 100.0 %
Test CRC A8BDE020
Copy CRC A8BDE020
Track not present in AccurateRip database
Copy OK

Track 24

Filename D:\BGMusic\James Newton Howard - Alive\CD1\24 - James Newton Howard - The Mirror (Alternate).wav

Peak level 55.6 %
Extraction speed 1.7 X
Track quality 100.0 %
Test CRC 6D3F011A
Copy CRC 6D3F011A
Track not present in AccurateRip database
Copy OK

Track 25

Filename D:\BGMusic\James Newton Howard - Alive\CD1\25 - James Newton Howard - Nando Carries Roy.wav

Peak level 70.9 %
Extraction speed 2.0 X
Track quality 100.0 %
Test CRC 26311831
Copy CRC 26311831
Track not present in AccurateRip database
Copy OK

Track 26

Filename D:\BGMusic\James Newton Howard - Alive\CD1\26 - James Newton Howard - Final Climb Pt. 1 & Pt. 2 (Revised No. 2).wav

Peak level 100.0 %
Extraction speed 2.3 X
Track quality 99.9 %
Test CRC 8E8B1C97
Copy CRC 8E8B1C97
Track not present in AccurateRip database
Copy OK

Track 27

Filename D:\BGMusic\James Newton Howard - Alive\CD1\27 - James Newton Howard - I’m Going Back (Revised).wav

Peak level 69.4 %
Extraction speed 2.3 X
Track quality 100.0 %
Test CRC 2DEC2146
Copy CRC 2DEC2146
Track not present in AccurateRip database
Copy OK

Track 28

Filename D:\BGMusic\James Newton Howard - Alive\CD1\28 - James Newton Howard - I Love You, Manx.wav

Peak level 44.7 %
Extraction speed 1.6 X
Track quality 100.0 %
Test CRC 3C65E68D
Copy CRC 3C65E68D
Track not present in AccurateRip database
Copy OK

Track 29

Filename D:\BGMusic\James Newton Howard - Alive\CD1\29 - James Newton Howard - It’s God (Alternate).wav

Peak level 97.0 %
Extraction speed 2.3 X
Track quality 100.0 %
Test CRC 664EAAF3
Copy CRC 664EAAF3
Track not present in AccurateRip database
Copy OK

Track 30

Filename D:\BGMusic\James Newton Howard - Alive\CD1\30 - James Newton Howard - Saved (Original).wav

Peak level 95.0 %
Extraction speed 2.4 X
Track quality 100.0 %
Test CRC CBBA2A01
Copy CRC CBBA2A01
Track not present in AccurateRip database
Copy OK

Track 31

Filename D:\BGMusic\James Newton Howard - Alive\CD1\31 - James Newton Howard - End Credits (Closing Theme).wav

Peak level 96.7 %
Extraction speed 2.4 X
Track quality 100.0 %
Test CRC 8CA63967
Copy CRC 8CA63967
Track not present in AccurateRip database
Copy OK


None of the tracks are present in the AccurateRip database

No errors occurred

End of status report

–– CUETools DB Plugin V2.1.6

[CTDB TOCID: 7yzBvLSdV_s9cBeIaJGd0728DdI-] found
Submit result: 7yzBvLSdV_s9cBeIaJGd0728DdI- has been confirmed
Track | CTDB Status
1 | (7/7) Accurately ripped
2 | (7/7) Accurately ripped
3 | (7/7) Accurately ripped
4 | (7/7) Accurately ripped
5 | (7/7) Accurately ripped
6 | (7/7) Accurately ripped
7 | (7/7) Accurately ripped
8 | (7/7) Accurately ripped
9 | (7/7) Accurately ripped
10 | (7/7) Accurately ripped
11 | (7/7) Accurately ripped
12 | (7/7) Accurately ripped
13 | (7/7) Accurately ripped
14 | (7/7) Accurately ripped
15 | (7/7) Accurately ripped
16 | (7/7) Accurately ripped
17 | (7/7) Accurately ripped
18 | (7/7) Accurately ripped
19 | (7/7) Accurately ripped
20 | (7/7) Accurately ripped
21 | (7/7) Accurately ripped
22 | (7/7) Accurately ripped
23 | (7/7) Accurately ripped
24 | (7/7) Accurately ripped
25 | (7/7) Accurately ripped
26 | (7/7) Accurately ripped
27 | (7/7) Accurately ripped
28 | (7/7) Accurately ripped
29 | (7/7) Accurately ripped
30 | (7/7) Accurately ripped
31 | (7/7) Accurately ripped


==== Log checksum 5F82C61C3F7D5A80F91434DBA26C03DBD3FF5ABBFE972B84A6E9AFF765688A90 ====

2.01 | James Newton Howard - The First Night (Original)
2.02 | James Newton Howard - The First Night (Album Take)
2.03 | James Newton Howard - Nando And Carlitos (Original)
2.04 | James Newton Howard - Susana’s Coat (Original)
2.05 | James Newton Howard - Digging Out (Original)
2.06 | James Newton Howard - The Mirror (Original)
2.07 | James Newton Howard - Final Climb Pt1 & Pt2 (Original)
2.08 | James Newton Howard - Final Climb Pt1 & Pt2 (Revised No. 1)
2.09 | James Newton Howard - I’m Going Back (Original)
2.10 | James Newton Howard - It’s God (Original)
2.11 | James Newton Howard - Saved (Alternate)
2.12 | James Newton Howard - Trailer (Version No. 1)
2.13 | James Newton Howard - The First Night (Original Soundtrack Album)
2.14 | James Newton Howard - Home (Original Soundtrack Album)
2.15 | James Newton Howard - Nando Awakes (Original Soundtrack Album)
2.16 | James Newton Howard - Finding The Tail (Original Soundtrack Album)
2.17 | James Newton Howard - Alberto (Original Soundtrack Album)
2.18 | James Newton Howard - Eating (Original Soundtrack Album)
2.19 | James Newton Howard - Are You Ready? (Original Soundtrack Album)
2.20 | James Newton Howard - Frozen Climbers (Original Soundtrack Album)
2.21 | James Newton Howard - It's God (Original Soundtrack Album)
2.22 | James Newton Howard - The Final Climb (Original Soundtrack Album)
2.23 | James Newton Howard - End Title (Original Soundtrack Album)

Exact Audio Copy V1.3 from 2. September 2016

EAC extraction logfile from 14. March 2020, 16:52

James Newton Howard / Alive

Used drive : ASUS SDRW-08U9M-U Adapter: 1 ID: 0

Read mode : Secure
Utilize accurate stream : Yes
Defeat audio cache : Yes
Make use of C2 pointers : No

Read offset correction : 6
Overread into Lead-In and Lead-Out : No
Fill up missing offset samples with silence : Yes
Delete leading and trailing silent blocks : No
Null samples used in CRC calculations : Yes
Used interface : Native Win32 interface for Win NT & 2000
Gap handling : Appended to previous track

Used output format : User Defined Encoder
Selected bitrate : 1024 kBit/s
Quality : High
Add ID3 tag : No
Command line compressor : C:\Program Files (x86)\Exact Audio Copy\Flac\flac.exe
Additional command line options : -8 -e -p -V -T "ARTIST=%artist%" -T "TITLE=%title%" -T "ALBUM=%albumtitle%" -T "DATE=%year%" -T "TRACKNUMBER=%tracknr%" -T "GENRE=%genre%" -T "COMMENT=%comment%" -T "BAND=%albuminterpret%" -T "ALBUMARTIST=%albuminterpret%" -T "COMPOSER=%composer%" %haslyrics%–tag-from-file=LYRICS="%lyricsfile%"%haslyrics% -T "DISCNUMBER=%cdnumber%" -T "TOTALDISCS=%totalcds%" -T "TOTALTRACKS=%numtracks%" %hascover%–picture="%coverfile%"%hascover% %source% -o %dest%


TOC of the extracted CD

Track | Start | Length | Start sector | End sector
––––––––––––––––––––––––––––-
1 | 0:00.00 | 4:13.73 | 0 | 19047
2 | 4:13.73 | 4:12.64 | 19048 | 38011
3 | 8:26.62 | 1:35.29 | 38012 | 45165
4 | 10:02.16 | 1:00.61 | 45166 | 49726
5 | 11:03.02 | 2:05.12 | 49727 | 59113
6 | 13:08.14 | 1:05.44 | 59114 | 64032
7 | 14:13.58 | 6:37.01 | 64033 | 93808
8 | 20:50.59 | 6:30.60 | 93809 | 123118
9 | 27:21.44 | 2:46.10 | 123119 | 135578
10 | 30:07.54 | 2:45.19 | 135579 | 147972
11 | 32:52.73 | 3:20.14 | 147973 | 162986
12 | 36:13.12 | 2:07.10 | 162987 | 172521
13 | 38:20.22 | 4:13.26 | 172522 | 191522
14 | 42:33.48 | 1:01.47 | 191523 | 196144
15 | 43:35.20 | 2:22.37 | 196145 | 206831
16 | 45:57.57 | 3:30.32 | 206832 | 222613
17 | 49:28.14 | 1:51.26 | 222614 | 230964
18 | 51:19.40 | 5:03.44 | 230965 | 253733
19 | 56:23.09 | 1:16.50 | 253734 | 259483
20 | 57:39.59 | 1:55.36 | 259484 | 268144
21 | 59:35.20 | 2:44.18 | 268145 | 280462
22 | 62:19.38 | 3:31.30 | 280463 | 296317
23 | 65:50.68 | 3:09.25 | 296318 | 310517


Track 1

Filename D:\BGMusic\James Newton Howard - Alive\CD2\01 - James Newton Howard - The First Night (Original).wav

Pre-gap length 0:00:02.00

Peak level 99.5 %
Extraction speed 1.1 X
Track quality 99.9 %
Test CRC 17C5C8AA
Copy CRC 17C5C8AA
Track not present in AccurateRip database
Copy OK

Track 2

Filename D:\BGMusic\James Newton Howard - Alive\CD2\02 - James Newton Howard - The First Night (Album Take).wav

Peak level 92.3 %
Extraction speed 1.3 X
Track quality 100.0 %
Test CRC 2A6901F9
Copy CRC 2A6901F9
Track not present in AccurateRip database
Copy OK

Track 3

Filename D:\BGMusic\James Newton Howard - Alive\CD2\03 - James Newton Howard - Nando And Carlitos (Original).wav

Peak level 28.0 %
Extraction speed 1.2 X
Track quality 100.0 %
Test CRC 1F78204F
Copy CRC 1F78204F
Track not present in AccurateRip database
Copy OK

Track 4

Filename D:\BGMusic\James Newton Howard - Alive\CD2\04 - James Newton Howard - Susana’s Coat (Original).wav

Peak level 60.0 %
Extraction speed 1.0 X
Track quality 100.0 %
Test CRC 29E4460A
Copy CRC 29E4460A
Track not present in AccurateRip database
Copy OK

Track 5

Filename D:\BGMusic\James Newton Howard - Alive\CD2\05 - James Newton Howard - Digging Out (Original).wav

Peak level 93.8 %
Extraction speed 1.1 X
Track quality 99.9 %
Test CRC F99B541C
Copy CRC F99B541C
Track not present in AccurateRip database
Copy OK

Track 6

Filename D:\BGMusic\James Newton Howard - Alive\CD2\06 - James Newton Howard - The Mirror (Original).wav

Peak level 51.3 %
Extraction speed 1.1 X
Track quality 100.0 %
Test CRC 6C070B97
Copy CRC 6C070B97
Track not present in AccurateRip database
Copy OK

Track 7

Filename D:\BGMusic\James Newton Howard - Alive\CD2\07 - James Newton Howard - Final Climb Pt1 & Pt2 (Original).wav

Peak level 99.9 %
Extraction speed 1.7 X
Track quality 100.0 %
Test CRC ECBE26B7
Copy CRC ECBE26B7
Track not present in AccurateRip database
Copy OK

Track 8

Filename D:\BGMusic\James Newton Howard - Alive\CD2\08 - James Newton Howard - Final Climb Pt1 & Pt2 (Revised No. 1).wav

Peak level 99.6 %
Extraction speed 1.9 X
Track quality 100.0 %
Test CRC BC97AFBE
Copy CRC BC97AFBE
Track not present in AccurateRip database
Copy OK

Track 9

Filename D:\BGMusic\James Newton Howard - Alive\CD2\09 - James Newton Howard - I’m Going Back (Original).wav

Peak level 69.8 %
Extraction speed 1.8 X
Track quality 100.0 %
Test CRC 3644E947
Copy CRC 3644E947
Track not present in AccurateRip database
Copy OK

Track 10

Filename D:\BGMusic\James Newton Howard - Alive\CD2\10 - James Newton Howard - It’s God (Original).wav

Peak level 98.2 %
Extraction speed 1.8 X
Track quality 100.0 %
Test CRC 1181D895
Copy CRC 1181D895
Track not present in AccurateRip database
Copy OK

Track 11

Filename D:\BGMusic\James Newton Howard - Alive\CD2\11 - James Newton Howard - Saved (Alternate).wav

Peak level 89.9 %
Extraction speed 1.7 X
Track quality 99.9 %
Test CRC 98A242B3
Copy CRC 98A242B3
Track not present in AccurateRip database
Copy OK

Track 12

Filename D:\BGMusic\James Newton Howard - Alive\CD2\12 - James Newton Howard - Trailer (Version No. 1).wav

Peak level 99.9 %
Extraction speed 1.5 X
Track quality 99.9 %
Test CRC CBC557FB
Copy CRC CBC557FB
Track not present in AccurateRip database
Copy OK

Track 13

Filename D:\BGMusic\James Newton Howard - Alive\CD2\13 - James Newton Howard - The First Night (Original Soundtrack Album).wav

Peak level 99.2 %
Extraction speed 2.1 X
Track quality 100.0 %
Test CRC BFF56A61
Copy CRC BFF56A61
Track not present in AccurateRip database
Copy OK

Track 14

Filename D:\BGMusic\James Newton Howard - Alive\CD2\14 - James Newton Howard - Home (Original Soundtrack Album).wav

Peak level 40.5 %
Extraction speed 1.5 X
Track quality 100.0 %
Test CRC E82191F4
Copy CRC E82191F4
Track not present in AccurateRip database
Copy OK

Track 15

Filename D:\BGMusic\James Newton Howard - Alive\CD2\15 - James Newton Howard - Nando Awakes (Original Soundtrack Album).wav

Peak level 55.6 %
Extraction speed 2.0 X
Track quality 100.0 %
Test CRC 42D0B609
Copy CRC 42D0B609
Track not present in AccurateRip database
Copy OK

Track 16

Filename D:\BGMusic\James Newton Howard - Alive\CD2\16 - James Newton Howard - Finding The Tail (Original Soundtrack Album).wav

Peak level 72.7 %
Extraction speed 2.2 X
Track quality 100.0 %
Test CRC 7349B43E
Copy CRC 7349B43E
Track not present in AccurateRip database
Copy OK

Track 17

Filename D:\BGMusic\James Newton Howard - Alive\CD2\17 - James Newton Howard - Alberto (Original Soundtrack Album).wav

Peak level 23.3 %
Extraction speed 2.0 X
Track quality 100.0 %
Test CRC 24A8BB73
Copy CRC 24A8BB73
Track not present in AccurateRip database
Copy OK

Track 18

Filename D:\BGMusic\James Newton Howard - Alive\CD2\18 - James Newton Howard - Eating (Original Soundtrack Album).wav

Peak level 71.8 %
Extraction speed 2.4 X
Track quality 100.0 %
Test CRC 9177265B
Copy CRC 9177265B
Track not present in AccurateRip database
Copy OK

Track 19

Filename D:\BGMusic\James Newton Howard - Alive\CD2\19 - James Newton Howard - Are You Ready (Original Soundtrack Album).wav

Peak level 29.7 %
Extraction speed 1.4 X
Track quality 99.8 %
Test CRC A55A4CCD
Copy CRC A55A4CCD
Track not present in AccurateRip database
Copy OK

Track 20

Filename D:\BGMusic\James Newton Howard - Alive\CD2\20 - James Newton Howard - Frozen Climbers (Original Soundtrack Album).wav

Peak level 36.4 %
Extraction speed 2.1 X
Track quality 100.0 %
Test CRC 7FE635FA
Copy CRC 7FE635FA
Track not present in AccurateRip database
Copy OK

Track 21

Filename D:\BGMusic\James Newton Howard - Alive\CD2\21 - James Newton Howard - It's God (Original Soundtrack Album).wav

Peak level 99.3 %
Extraction speed 2.3 X
Track quality 100.0 %
Test CRC CC884CB8
Copy CRC CC884CB8
Track not present in AccurateRip database
Copy OK

Track 22

Filename D:\BGMusic\James Newton Howard - Alive\CD2\22 - James Newton Howard - The Final Climb (Original Soundtrack Album).wav

Peak level 97.4 %
Extraction speed 2.5 X
Track quality 100.0 %
Test CRC 090A7B41
Copy CRC 090A7B41
Track not present in AccurateRip database
Copy OK

Track 23

Filename D:\BGMusic\James Newton Howard - Alive\CD2\23 - James Newton Howard - End Title (Original Soundtrack Album).wav

Peak level 97.0 %
Extraction speed 2.5 X
Track quality 100.0 %
Test CRC 30D132A1
Copy CRC 30D132A1
Track not present in AccurateRip database
Copy OK


None of the tracks are present in the AccurateRip database

No errors occurred

End of status report

–– CUETools DB Plugin V2.1.6

[CTDB TOCID: gs.Seazp_U.2ncljRYDFtu6JejY-] found
Submit result: gs.Seazp_U.2ncljRYDFtu6JejY- has been confirmed
Track | CTDB Status
1 | (7/7) Accurately ripped
2 | (7/7) Accurately ripped
3 | (7/7) Accurately ripped
4 | (7/7) Accurately ripped
5 | (7/7) Accurately ripped
6 | (7/7) Accurately ripped
7 | (7/7) Accurately ripped
8 | (7/7) Accurately ripped
9 | (7/7) Accurately ripped
10 | (7/7) Accurately ripped
11 | (7/7) Accurately ripped
12 | (7/7) Accurately ripped
13 | (7/7) Accurately ripped
14 | (7/7) Accurately ripped
15 | (7/7) Accurately ripped
16 | (7/7) Accurately ripped
17 | (7/7) Accurately ripped
18 | (7/7) Accurately ripped
19 | (7/7) Accurately ripped
20 | (7/7) Accurately ripped
21 | (7/7) Accurately ripped
22 | (7/7) Accurately ripped
23 | (7/7) Accurately ripped


==== Log checksum 98094D611D36C605BEB767B99DB3FE8F59866C4EE73B2934C171F0FBF258F9D4 ====