Tags
Language
Tags

James Brown - I Got You (I Feel Good) (1966) {Universal Music Japan Mini LP UICY-9286 rel 2003}

Posted By: ruskaval
James Brown - I Got You (I Feel Good) (1966) {Universal Music Japan Mini LP UICY-9286 rel 2003}

James Brown - I Got You (I Feel Good) (1966) {Universal Music Japan Mini LP UICY-9286 rel 2003}
EAC rip (secure mode) | FLAC (tracks)+CUE+LOG -> 197 Mb | MP3 @320 -> 75 Mb
Full Artwork @ 600 dpi (jpg) -> 42 Mb | 5% repair rar
© 1966, 2003 Polydor / Universal Music Japan | UICY-9286 | Cardboard Sleeve | 24bit remastering
Funk / R'n'B / Soul / Funky Jam

'I Feel Good, I Got You' was released as KING-946 in 1966. The title single was the biggest seller in King Record's history, it stayed six weeks at the top of the R&B chart and made #3 Pop. During the '60's King Records released albums by Brown named after and containing whatever popular single was just a hit and filling the rest of the album with a variety of previously released singles that have no rhyme, reason or thematic continuity. As you can see below, the material here went back as far as 1959, with most coming from recording sessions between 1960 and 1962.

It wouldn't be until the late '60's and early '70's before Brown released completely contemporary fare such as 'Sex Machine or 'There It Is.'Just make sure your heart can stand it! This album could almost be considered a "best of" since it contains ten of his Top Twenty hits. You have to be dedicated, a detective, a little bit crazy or all of the above if you want to collect James Brown, and that's half the fun, listening to him is the other half. Enjoy……
James Brown - I Got You (I Feel Good) (1966) {Universal Music Japan Mini LP UICY-9286 rel 2003}


Here's the track list and origin thereof……

1. I Got You (I Feel Good)### (KING-6015A, Oct. 1965, #1 R&B (6 weeks), #3 Pop)
2. Lost Someone**** (KING-5573A, Dec. 1, 1961, #2 R&B)
3. Night Train**** (KING-5614A, March 6, 1962, #5 R&B, #35 Pop)
4. You've Got The Power** (Federal-12370B, Jan. 1960, A-side #15 R&B)
5. Love Don't Love Nobody*** (KING-5466B, May 1961, #4 R&B, #47 Pop)
6. Think** (Federal-12370A, Jan. 1960, #15 R&B)
7. Good, Good Loving* (Federal-16361A, Oct. 12, 1959)
8. I Can't Help It (I Just Do-Do-Do)#### (KING-6015B, Oct. 1965, A-side #1 R&B (6 weeks), #3 Pop)
9. I've Got Money# (KING-5701B, Nov. 3, 1962, A-side #18 R&B, #93 Pop)
10. Three Hearts In A Tangle## (KING-5701A, Nov. 3, 1962, #18 R&B, #93 Pop)
11. Suds**** (KING-5485A, April 15, 1961)
12. Dancin' Little Thing**** (KING-5899B, May 1964)

* June 27, 1959, Beltone Studios, New York, NY
James Brown - lead vocals
Johnny Terry - background vocals
Eugene "Baby Lloyd" Stalworth - background vocals
Bobby Bennett - background vocals
Bobby Roach - guitar
Bernard Odum - bass
Nat Kendrick - drums
unidentified - piano
George Dorsey - alto sax
J.C. Davis - tenor sax
Produced by Andy Gibson

** Feb. 20, 1960, United Studios, Hollywood, CA
James Brown - vocals
Bea Ford - co-vocals (Track 4)
Bobby Byrd - background vocals (Track 6)
Eugene "Baby Lloyd" Stalworth - background vocals (Track 6)
Bobby Bennett - background vocals (Track 6)
Bobby Roach - guitar
Bernard Odum - bass
Nat Kendricks - drums
Alvin "Fats" Gonder - piano
Alfred Corley - alto & tenor sax
J.C. Davis - tenor sax
Roscoe Patrick - trumpet (Track 4)

*** Sept. 27, 1960, United Studios, Hollywood, CA
James Brown - vocals
Les Buie - guitar
Hubert Lee Parry - bass
Nat Kendricks - drums
Alfred Corley - alto sax
J.C. Davis - tenor sax
Roscoe Patrick - trumpet
Produced by Sonny Thompson

**** Feb. 9, 1961, King Studios, Cincinatti, OH
James Brown - vocals, drums (Track 3)
Bobby Byrd - background vocals (Track 12)
Eugene "Baby Lloyd" Stalworth - background vocals (Track 12)
Bobby Bennett - background vocals (Track 12)
Les Buie - guitar
Hubert Lee Parry - bass
Nat Kendricks - drums
Alvin "Fats" Gonder - piano (Track 3), organ (Track 11), electric piano (Track 12)
Alfred Corley - alto sax (Tracks 2 & 3)
J.C. Davis - tenor sax
Roscoe Patrick - trumpet

# May 20, 1962, King Studios, Cincinatti, OH
James Brown - lead vocals
Eugene "Baby Lloyd" Stalworth - background vocals
Bobby Bennett - background vocals
Les Buie - guitar
Hubert Lee Parry - bass
Clayton Fillyua - drums
St. Clair Pickney - tenor sax
Clifford "Ace King" MacMillan - tenor sax
Al "Brisco" Clark - baritone sax
Roscoe Patrick - trumpet

## July 31, 1962, King Studios, Cincinatti, OH
James Brown - lead vocals
Bobby Byrd - background vocals
Eugene "Baby Lloyd" Stalworth - background vocals
Bobby Bennett - background vocals
Les Buie - guitar
Hubert Lee Parry - bass
Clayton Fillyau - drums
Bobby Byrd - organ
Roscoe Patrick - trumpet
Lewis Hamlin - trumpet
Teddy Washington - trumpet
Clarence "Jay" Johnson - trombone
Produced by Hal Neely and James Brown

### May 6, 1965, Criteria Studios, Miami, FL
James Brown - vocals
Jimmy Nolen - guitar
David "Hooks" Williams - bass
Melvin Parker - drums
Bobby Byrd - organ
Maceo Parker, Jr. - tenor sax
St. Clair Pickney - tenor sax
Eldee Williams - tenor sax
Al "Brisco" Clark - tenor sax
Nat Jones -alto sax
Produced by James Brown

#### July 26, 1965, Rodel Studios, Washington, D.C.
James Brown - vocals
Alfonso Kellum - guitar
David "Hooks" Williams - bass
Melvin Parker - drums
Ernie Hayes - piano
Charles Carr - baritone sax
Ron Tooley - trumpet
Joe Dupars - trumpet
Levi Rasbury - trumpet
unidentified - trombone
Produced by James Brown

Exact Audio Copy V1.3 from 2. September 2016

EAC extraction logfile from 8. November 2017, 20:00

James Brown / I Got You (I Feel Good)

Used drive : HL-DT-STBD-RE WH16NS40 Adapter: 1 ID: 0

Read mode : Secure
Utilize accurate stream : Yes
Defeat audio cache : Yes
Make use of C2 pointers : No

Read offset correction : 6
Overread into Lead-In and Lead-Out : No
Fill up missing offset samples with silence : Yes
Delete leading and trailing silent blocks : No
Null samples used in CRC calculations : Yes
Used interface : Native Win32 interface for Win NT & 2000
Gap handling : Appended to previous track

Used output format : User Defined Encoder
Selected bitrate : 1024 kBit/s
Quality : High
Add ID3 tag : No
Command line compressor : C:\Program Files (x86)\Exact Audio Copy\Flac\flac.exe
Additional command line options : -8 -e -V -T "Artist=%artist%" -T "Title=%title%" -T "Album=%albumtitle%" -T "Date=%year%" -T "TRACKNUMBER=%tracknr%" -T "Genre=%genre%" -T "PERFORMER=%albuminterpret%" -T "COMPOSER=%composer%" %haslyrics%–tag-from-file=LYRICS="%lyricsfile%"%haslyrics% -T "ALBUMARTIST=%albumartist%" -T "DISCNUMBER=%cdnumber%" -T "DISCTOTAL=%totalcds%" -T "TRACKTOTAL=%numtracks%" -T "COMMENT=%comment%" %source% -o %dest%


TOC of the extracted CD

Track | Start | Length | Start sector | End sector
––––––––––––––––––––––––––––-
1 | 0:00.00 | 2:48.47 | 0 | 12646
2 | 2:48.47 | 3:33.23 | 12647 | 28644
3 | 6:21.70 | 3:44.60 | 28645 | 45504
4 | 10:06.55 | 2:16.30 | 45505 | 55734
5 | 12:23.10 | 2:07.42 | 55735 | 65301
6 | 14:30.52 | 2:50.20 | 65302 | 78071
7 | 17:20.72 | 2:20.08 | 78072 | 88579
8 | 19:41.05 | 2:34.15 | 88580 | 100144
9 | 22:15.20 | 2:33.55 | 100145 | 111674
10 | 24:49.00 | 2:47.07 | 111675 | 124206
11 | 27:36.07 | 2:22.48 | 124207 | 134904
12 | 29:58.55 | 2:04.62 | 134905 | 144266


Track 1

Filename D:\Media\Audio\Rips\James Brown - I Got You (I Feel Good) (2003) [FLAC] {UICY-9286}\01 - I Got You (I Feel Good).wav

Pre-gap length 0:00:02.00

Peak level 100.0 %
Extraction speed 0.9 X
Track quality 99.9 %
Test CRC 794136AC
Copy CRC 794136AC
Accurately ripped (confidence 4) [A27D68E3] (AR v1)
Copy OK

Track 2

Filename D:\Media\Audio\Rips\James Brown - I Got You (I Feel Good) (2003) [FLAC] {UICY-9286}\02 - Lost Someone.wav

Pre-gap length 0:00:02.82

Peak level 83.6 %
Extraction speed 1.1 X
Track quality 100.0 %
Test CRC 912A58BB
Copy CRC 912A58BB
Accurately ripped (confidence 4) [D52620C9] (AR v1)
Copy OK

Track 3

Filename D:\Media\Audio\Rips\James Brown - I Got You (I Feel Good) (2003) [FLAC] {UICY-9286}\03 - Night Train.wav

Pre-gap length 0:00:02.84

Peak level 93.3 %
Extraction speed 1.2 X
Track quality 100.0 %
Test CRC D9ECD722
Copy CRC D9ECD722
Accurately ripped (confidence 4) [AB5A7737] (AR v1)
Copy OK

Track 4

Filename D:\Media\Audio\Rips\James Brown - I Got You (I Feel Good) (2003) [FLAC] {UICY-9286}\04 - You've Got The Power.wav

Pre-gap length 0:00:02.77

Peak level 80.8 %
Extraction speed 1.2 X
Track quality 100.0 %
Test CRC C62F3347
Copy CRC C62F3347
Accurately ripped (confidence 4) [5F11AD0D] (AR v1)
Copy OK

Track 5

Filename D:\Media\Audio\Rips\James Brown - I Got You (I Feel Good) (2003) [FLAC] {UICY-9286}\05 - Love Don't Love Nobody.wav

Pre-gap length 0:00:02.77

Peak level 78.4 %
Extraction speed 1.2 X
Track quality 100.0 %
Test CRC E5C61C99
Copy CRC E5C61C99
Accurately ripped (confidence 4) [47060BC5] (AR v1)
Copy OK

Track 6

Filename D:\Media\Audio\Rips\James Brown - I Got You (I Feel Good) (2003) [FLAC] {UICY-9286}\06 - Think.wav

Pre-gap length 0:00:02.80

Peak level 85.7 %
Extraction speed 1.3 X
Track quality 100.0 %
Test CRC 0DA6D180
Copy CRC 0DA6D180
Accurately ripped (confidence 4) [76785722] (AR v1)
Copy OK

Track 7

Filename D:\Media\Audio\Rips\James Brown - I Got You (I Feel Good) (2003) [FLAC] {UICY-9286}\07 - Good, Good Loving.wav

Pre-gap length 0:00:02.73

Peak level 69.6 %
Extraction speed 1.2 X
Track quality 99.9 %
Test CRC 219DECCD
Copy CRC 219DECCD
Accurately ripped (confidence 4) [2D670833] (AR v1)
Copy OK

Track 8

Filename D:\Media\Audio\Rips\James Brown - I Got You (I Feel Good) (2003) [FLAC] {UICY-9286}\08 - I Can't Help It.wav

Pre-gap length 0:00:02.80

Peak level 98.0 %
Extraction speed 1.4 X
Track quality 100.0 %
Test CRC 9D7024DB
Copy CRC 9D7024DB
Accurately ripped (confidence 4) [53559001] (AR v1)
Copy OK

Track 9

Filename D:\Media\Audio\Rips\James Brown - I Got You (I Feel Good) (2003) [FLAC] {UICY-9286}\09 - I've Got Money.wav

Pre-gap length 0:00:02.77

Peak level 92.4 %
Extraction speed 1.4 X
Track quality 100.0 %
Test CRC B2BB9F31
Copy CRC B2BB9F31
Accurately ripped (confidence 4) [F43B1C14] (AR v1)
Copy OK

Track 10

Filename D:\Media\Audio\Rips\James Brown - I Got You (I Feel Good) (2003) [FLAC] {UICY-9286}\10 - Three Hearts In A Tangle.wav

Pre-gap length 0:00:02.80

Peak level 89.9 %
Extraction speed 1.5 X
Track quality 100.0 %
Test CRC A50EA9EC
Copy CRC A50EA9EC
Accurately ripped (confidence 4) [A3C3C94E] (AR v1)
Copy OK

Track 11

Filename D:\Media\Audio\Rips\James Brown - I Got You (I Feel Good) (2003) [FLAC] {UICY-9286}\11 - Suds (Instrumental).wav

Pre-gap length 0:00:02.80

Peak level 100.0 %
Extraction speed 1.5 X
Track quality 100.0 %
Test CRC 565CD0CE
Copy CRC 565CD0CE
Accurately ripped (confidence 4) [9E4667DC] (AR v1)
Copy OK

Track 12

Filename D:\Media\Audio\Rips\James Brown - I Got You (I Feel Good) (2003) [FLAC] {UICY-9286}\12 - Dancin' Little Thing.wav

Pre-gap length 0:00:02.77

Peak level 98.1 %
Extraction speed 1.2 X
Track quality 99.9 %
Test CRC 06F27C76
Copy CRC 06F27C76
Accurately ripped (confidence 4) [28B37E92] (AR v1)
Copy OK


All tracks accurately ripped

No errors occurred

End of status report

–– CUETools DB Plugin V2.1.6

[CTDB TOCID: d9LrclTJtYNky4QjvedSia0Tu.Y-] found
Submit result: d9LrclTJtYNky4QjvedSia0Tu.Y- has been confirmed
Track | CTDB Status
1 | (4/4) Accurately ripped
2 | (4/4) Accurately ripped
3 | (4/4) Accurately ripped
4 | (4/4) Accurately ripped
5 | (4/4) Accurately ripped
6 | (4/4) Accurately ripped
7 | (4/4) Accurately ripped
8 | (4/4) Accurately ripped
9 | (4/4) Accurately ripped
10 | (4/4) Accurately ripped
11 | (4/4) Accurately ripped
12 | (3/4) Accurately ripped


==== Log checksum 7696BE24E6421DFDFC3EA4D5FD0D0E3BCD0A99ED423874E035CBDBE8669F3F9F ====


James Brown - I Got You (I Feel Good) (1966) {Universal Music Japan Mini LP UICY-9286 rel 2003}

James Brown - I Got You (I Feel Good) (1966) {Universal Music Japan Mini LP UICY-9286 rel 2003}


see more James Brown…

NEXT -> more James Brown Japan reissue on the way…


===