Subcategories

James Last - Erinnerungen (Reflections) (1983, Polydor # 815 354-2 Y 10)

Posted By: luckburz
James Last - Erinnerungen (Reflections) (1983, Polydor # 815 354-2 Y 10)

James Last - Erinnerungen (Reflections)
EAC+LOG+CUE | FLAC: 222 MB | Artwork | 5% Recovery Info
Label/Cat#: Polydor # 815 354-2 Y 10 | Country/Year: Germany 1983
Genre: Pop | Style: Easy Listening, Instrumental

MD5 [X] CUE [X] LOG [X] INFO TEXT [X] ARTWORK [X]

my rip [ ] not my rip [X]

James Last - Erinnerungen (Reflections) (1983, Polydor # 815 354-2 Y 10)


Exact Audio Copy V0.99 prebeta 4 from 23. January 2008

EAC 抓取日志文件从14. 十二月 2009, 18:12

James Last / Erinnerungen

使用驱动器 :ATAPI DVD D DH16D3S Adapter: 2 ID: 0

读取模式 : 保护
使用精确流 : 是
废除音频缓冲 : 是
使用 C2 指针 : 否

读取偏移校正 : 6
读取 Lead-In 和 Lead-Out : 否
用静音填充抓取中丢失偏移的采样 : 是
去除首尾静音块 : 否
在 CRC 计算中使用了空样本 : 否
已用接口 : Win NT 及 2000 本地 Win32 接口

所用输出格式 : 用户定义的编码器
已选比特率 : 768 kBit/s
质量 : 高
添加 ID3 标签 : 是
命令行压缩器 : D:\Program Files\Exact Audio Copy V0\FLAC\FLAC.EXE
附加命令行参数 : -6 -V -T "ARTIST=%a" -T "TITLE=%t" -T "ALBUM=%g" -T "DATE=%y" -T "TRACKNUMBER=%n" -T "GENRE=%m" -T "COMMENT=%e" %s -o %d

被抓轨 CD 的 TOC

音轨 | 开始 | 长度 | 起始扇区 | 结尾扇区
–––––––––––––––––––––––––
1 | 0:00.32 | 3:49.65 | 32 | 17271
2 | 3:50.22 | 4:55.73 | 17272 | 39469
3 | 8:46.20 | 4:35.02 | 39470 | 60096
4 | 13:21.22 | 3:36.00 | 60097 | 76296
5 | 16:57.22 | 2:53.00 | 76297 | 89271
6 | 19:50.22 | 3:48.70 | 89272 | 106441
7 | 23:39.17 | 4:25.55 | 106442 | 126371
8 | 28:04.72 | 3:38.00 | 126372 | 142721
9 | 31:42.72 | 4:19.00 | 142722 | 162146
10 | 36:01.72 | 3:54.00 | 162147 | 179696
11 | 39:55.72 | 3:58.00 | 179697 | 197546
12 | 43:53.72 | 3:08.25 | 197547 | 211671

范围状态及错误

已选择范围

文件名 G:\James Last专区\无损专区\自压专区\Erinnerungen\James Last - Erinnerungen.wav

可疑位置 0:13:17

峰值电平 90.3 %
范围质量 99.9 %
复制 CRC 11756F19
复制结束

出现错误

AccurateRip 概要

音轨 1 已正确抓取 (确认 3) [FCAB6AA2]
音轨 2 已正确抓取 (确认 3) [9D7492C9]
音轨 3 无法精确校验 (确认 3) [4DBDCFC0], AccurateRip 返回 [CA9E852B]
音轨 4 已正确抓取 (确认 3) [A3AF96AB]
音轨 5 已正确抓取 (确认 3) [0C1103FB]
音轨 6 已正确抓取 (确认 3) [E6CBBC39]
音轨 7 已正确抓取 (确认 3) [DF79ED9E]
音轨 8 已正确抓取 (确认 3) [54D101EC]
音轨 9 已正确抓取 (确认 3) [E5C01EA5]
音轨 10 已正确抓取 (确认 3) [639BECF5]
音轨 11 已正确抓取 (确认 3) [4F915B8D]
音轨 12 已正确抓取 (确认 4) [DC942528]

11 音轨已被精确抓取
1 音轨校验不准确

某些音轨无法被精确验证

状态报告结尾

foobar2000 1.1.14a / Dynamic Range Meter 1.1.1
log date: 2015-06-14 23:17:03

––––––––––––––––––––––––––––––––––––––––
Analyzed: James Last & His Orchestra / Erinnerungen
––––––––––––––––––––––––––––––––––––––––

DR Peak RMS Duration Track
––––––––––––––––––––––––––––––––––––––––
DR11 -2.11 dB -18.86 dB 3:50 01-Erinnerung
DR12 -2.40 dB -17.49 dB 4:56 02-I.r.e.l.a.n.d.
DR13 -1.36 dB -18.66 dB 4:35 03-Song For Guy
DR11 -1.95 dB -17.00 dB 3:36 04-Unvergessen
DR13 -1.22 dB -18.02 dB 2:53 05-Arioso
DR11 -1.65 dB -18.20 dB 3:49 06-Daydreams
DR13 -1.51 dB -19.20 dB 4:26 07-Nocturne
DR14 -0.88 dB -20.10 dB 3:38 08-Caprice
DR11 -10.25 dB -24.94 dB 4:19 09-Traumerei
DR14 -0.97 dB -18.33 dB 3:54 10-Sorry Elton
DR13 -1.11 dB -18.07 dB 3:58 11-No Answer
DR12 -3.61 dB -20.52 dB 3:08 12-Missing
––––––––––––––––––––––––––––––––––––––––

Number of tracks: 12
Official DR value: DR12

Samplerate: 44100 Hz
Channels: 2
Bits per sample: 16
Bitrate: 651 kbps
Codec: FLAC
================================================================================



CD Info:

James Last - Erinnerungen (Reflections)

Label: Polydor
Catalog#: 815 354-2 Y 10
Format: CD, Album, Reissue
Country: Germany
Released: 1983
Genre: Pop
Style: Easy Listening, Instrumental

Tracklist:

01. Erinnerung (3:50)
02. I.r.e.l.a.n.d. (4:56)
03. Song For Guy (4:35)
04. Unvergessen (3:36)
05. Arioso (2:53)
06. Daydreams (3:49)
07. Nocturne (4:26)
08. Caprice (3:38)
09. Traumerei (4:19)
10. Sorry Elton (3:54)
11. No Answer (3:58)
12. Missing (3:08)

CD is manufactured by PolyGram in Hanover, West Germany

Artist Biography by Stephen Thomas Erlewine

James Last is a German big band leader with a large fan base in Europe, although he has never had a comparable following in the United States. Last's trademark is arranging pop hits in a big-band style; his series of "party albums" is equally well-known. Over the course of his career, he has sold well over 50 million albums.

Last learned how to play piano as child, switching to bass as a teenager. He joined Hans-Gunther Oesterreich's Radio Bremen Dance Orchestra in 1946, when he was 17 years old. In 1948, he became the leader of the Becker-Last Ensemble, which performed for seven years. During that time, he was voted as the best bassist in the country by a German jazz poll for three consecutive years, from 1950-1952. After the disbandment of the Becker-Last Ensemble, he became the in-house arranger for Polydor Records, as well as for a number of European radio stations. For the next decade, he helped arrange hits for artists like Helmut Zacharias and Caterina Valente.

Last released his first album, Non-Stop Dancing, in 1965. The record of brief renditions of popular songs, all tied together by an insistent dance beat and joyous crowd noises. It was a hit and helped make him a major European star. Over the next two decades, Last released over 50 records, including several more volumes of Non-Stop Dancing. On these records, he varied his formula by adding different songs from different countries and genres, as well as guest performers like Richard Clayderman and Astrud Gilberto.

Though his concerts and albums were consistently successful – especially in England, where he had 52 hit albums between 1967-1986, which made him second to Elvis Presley in terms of number of charting records – he only had one hit single with "The Seduction," the theme from American Gigolo (1980). ~allmusicguide

Thanks to the original releaser!

________________

NITROFLARE

Music Pt. 1 | | Music Pt. 2

________________