Subcategories

Jens Buchert - Fata Morgana

Posted By: FLESH
Jens Buchert - Fata Morgana

Jens Buchert - Fata Morgana
Electronic, Downtempo, Ambient, House
FLAC+cue+log | 448.1 Mb | MP3, 192 Kbps | 97.3 Mb | Covers
Label: 4MPO | Catalog#: 8960807-2 | Country: Germany | Released: 2008

Tracklisting:
1 Fata Morgana (6:31)
2 Vibes Deluxe (5:55)
3 Seroton (5:38)
4 Nite Suite (5:48)
5 Dragonfly (6:13)
6 Assam (6:08)
7 La Finosa (Jazzclub Mix) (6:07)
8 Aurora Dub (6:02)
9 Cubanetic (Havanna Mix) (5:27)
10 Silver Session (5:40)
11 Fluffy Sky (5:53)
12 Rainland (6:15)

Exact Audio Copy V0.99 prebeta 4 from 23. January 2008

EAC extraction logfile from 24. June 2008, 9:35

Jens Buchert / Fata Morgana

Used drive : PIONEER DVD-RW DVR-112D Adapter: 3 ID: 0

Read mode : Secure
Utilize accurate stream : Yes
Defeat audio cache : Yes
Make use of C2 pointers : No

Read offset correction : 48
Overread into Lead-In and Lead-Out : No
Fill up missing offset samples with silence : Yes
Delete leading and trailing silent blocks : No
Null samples used in CRC calculations : Yes
Used interface : Installed external ASPI interface

Used output format : User Defined Encoder
Selected bitrate : 192 kBit/s
Quality : Low
Add ID3 tag : Yes
Command line compressor : C:\Program Files\E A C Audio\Flac\flac.exe
Additional command line options : -V -8 -T "artist=%a" -T "title=%t" -T "album=%g" -T "date=%y" -T "tracknumber=%n" -T "genre=%m" %s


TOC of the extracted CD

Track | Start | Length | Start sector | End sector
––––––––––––––––––––––––––––-
1 | 0:00.00 | 6:31.31 | 0 | 29355
2 | 6:31.31 | 5:54.73 | 29356 | 55978
3 | 12:26.29 | 5:38.46 | 55979 | 81374
4 | 18:05.00 | 5:47.67 | 81375 | 107466
5 | 23:52.67 | 6:13.09 | 107467 | 135450
6 | 30:06.01 | 6:08.15 | 135451 | 163065
7 | 36:14.16 | 6:07.50 | 163066 | 190640
8 | 42:21.66 | 6:02.22 | 190641 | 217812
9 | 48:24.13 | 5:27.56 | 217813 | 242393
10 | 53:51.69 | 5:40.50 | 242394 | 267943
11 | 59:32.44 | 5:53.28 | 267944 | 294446
12 | 65:25.72 | 6:15.05 | 294447 | 322576


Range status and errors

Selected range

Filename G:\www.subj.biz\Jens Buchert - Fata Morgana\Jens Buchert - Fata Morgana.wav

Peak level 100.0 %
Range quality 100.0 %
Test CRC 56364302
Copy CRC 56364302
Copy OK

No errors occurred


AccurateRip summary

Track 1 not present in database
Track 2 not present in database
Track 3 not present in database
Track 4 not present in database
Track 5 not present in database
Track 6 not present in database
Track 7 not present in database
Track 8 not present in database
Track 9 not present in database
Track 10 not present in database
Track 11 not present in database
Track 12 not present in database

None of the tracks are present in the AccurateRip database

End of status report


lossless
Скачать с RapidShare
Part 1 | Part 2 | Part 3 | Part 4 | Part 5

MP3
Скачать с RapidShare
Part 1 | Part 2

Covers
Covers

Folder1 Music RapidShare
Folder2 Music RapidShare

Welcome to my Blog