Subcategories

Jerry Lee Lewis - A Whole Lotta Jerry Lee Lewis (2012) {4CD Box Set Salvo Records SALVOBX410}

Posted By: ruskaval
Jerry Lee Lewis  - A Whole Lotta Jerry Lee Lewis (2012) {4CD Box Set Salvo Records SALVOBX410}

Jerry Lee Lewis - A Whole Lotta Jerry Lee Lewis (2012) {4CD Box Set Salvo Records SALVOBX410}
EAC rip (secure mode) | FLAC+CUE+LOG -> 1.91 Gb | MP3 @320 -> 699 Mb
Full Artwork @ 300 dpi (jpg) -> 62 Mb | 5% repair rar
© 2012 Salvo Records | SALVOBX410
Rock & Roll / Rockabilly / Honky Tonk / Country

Four-disc monument to the Killer, containing no filler…

What with one thing and another, it took the Grand Ole Opry a while to invite Jerry Lee Lewis to make his debut. Sixteen years, in fact, from his first hits (“Whole Lotta Shakin’ Going On”, “Great Balls Of Fire” ) to finally ushering the Killer onto the stage of Nashville’s Ryman auditorium in January 1973.

The high temple of the country music establishment had their reasons for hesitating. Lewis was not known for family-friendly behaviour, unless one counts as such already having three families by this point – one, to the detriment of his box office, with a cousin he’d wed when she was thirteen. But he’d grown up, surely. He was pushing 40. He’d married for a fourth time, to someone old enough to vote. And he was reinventing himself as a proper country singer – he’d had hits with versions of Kris Kristofferson’s “Me & Bobby McGee”, Jimmie Rodgers’ “Waiting For A Train” and Ray Griff’s “Who’s Gonna Play This Old Piano?”. The Opry prepared to formally welcome the black sheep to the fold.

“Let me tell ya somethin’ about Jerry Lee Lewis, ladies and gentlemen,” the ostensibly repentant sinner introduced himself. “I am a rock’n’rollin’, country-and-western, rhythm’n’blues singin’ MOTHERFUCKER.”

The failure to use this unimprovable assessment of Lewis as the title of this artefact is about the only mis-step its compilers made. The four discs contain 106 tracks, arranged chronologically – the first released by Sun records when Eisenhower was president and people thought this Elvis kid would be over by Christmas, the last a defiantly feral “Wild One”, from the soundtrack of 1989 biopic “Great Balls Of Fire” (Lewis has been little wearied by the two decades and change since – though 2010’s duets collection “Mean Old Man” was a treat).

As a study of Lewis’s progress, it’s riveting, not least because it reminds that his move countrywards was not merely a foray in search of an audience that might forgive him his manifold trespasses – he was singing Hank Williams’ “You Win Again” like he meant it as early as 1957. It’s also a necessary lesson that Lewis’s legend is underpinned by prodigious talent – this is a study of sustained instrumental virtuosity, a reminder of how much of rock’n’roll still bucks and twitches to the beat set by Lewis’s left hand, pounding the lower keys like they’ve walked into the bar and asked for a drink with a paper umbrella in it.

It’s also an expertly curated compendium of modern American song, although Lewis never really merely covered songs, or even did anything so mannerly as interpreted them. Time and again, he strips them down, soups them up, and turns them loose, unmistakable as anything but Jerry Lee Lewis numbers, breezily heedless of whether they were originally written as heartbreak laments (Hank Williams’ “Cold Cold Heart” ) or portents of apocalypse (Creedence Clearwater Revival’s “Bad Moon Rising” ). Even at his tenderest (Ernest Tubb’s “Walking The Floor Over You”, say), Lewis never quite dispels the concern that he’s about to set fire to something or swat someone with his piano stool.

Jerry Lee Lewis  - A Whole Lotta Jerry Lee Lewis (2012) {4CD Box Set Salvo Records SALVOBX410}


Lewis called his (terrific) 2006 album Last Man Standing, an acknowledgement of his status as a surviving pioneer (this title was perhaps rather a snub to Chuck Berry, but it, uh, wouldn’t have been the first). This collection is both monument to an incalculably influential canon, and a chronicle of a life now barely imaginable, still less repeatable. Lewis, like all the few remaining rock’n’roll pathfinders, has something of the gnarled cachet of veterans of long-ago wars, occupying the unfathomable realm of those who have experienced things beyond the ken of subsequent generations. He haunts this compilation as he haunts rock’n’roll, a cackling, piano-kicking embodiment of the chaotic contradiction of its origins: the devil’s music played by the God-fearing.

Extras: 70-page booklet, containing photos of Lewis at various stages op his career, complete details for each track, and a serviceable biographical essay. –Michael Bonner, Uncut
Jerry Lee Lewis  - A Whole Lotta Jerry Lee Lewis (2012) {4CD Box Set Salvo Records SALVOBX410}

There’s always been a danger that younger rock’n’roll fans’ first impression of Jerry Lee Lewis might be one of an easily-dismissed novelty. The wild and sweaty red hair; the madness in the eyes; the boot heel crashing onto a piano keyboard; the morally questionable underage cousin bride – any or all of them scream “caricature”, rather than “genius”.

Dennis Quaid’s shamefully lazy portrayal of The Killer in the 1989 biopic Great Balls Of Fire! almost exclusively drew on what today would be called the tabloid image of the man, with the thrill and the thump of the songs seemingly only tagged on as afterthought. Yes, Lewis was a larger-than-life personality from the get-go, but he’s also a hugely influential musical pioneer. A living legend.

Yet, despite his guaranteed place at rock’n’roll’s top table, he’s been surprisingly poorly served by anthologists. The last weighty career-spanning compilation of any real note was Rhino’s 1993 two-disc All Killer, No Filler, which did a good enough job but still left some niggling gaps. This box set is infinitely better; an electrifying 106 tracks across four discs, charting Jerry Lee’s ride from his 50s beginnings at Memphis’ Sun imprint, and not letting up until well into the 80s.

Of all of rock’n’roll’s first wave of superstars, Jerry Lee is arguably the only one who was still making new music worthy of attention 20 years after he began, let alone 40 (sadly, this collection doesn’t feature anything from his vibrant 1995 album Youngblood). Two 21st Century collections of A-lister duets have kept him in the public eye, as have constant live shows of formidable energy for a man in his mid-70s.

But let’s rewind to the start: how extraordinary must it have been to hear High School Confidential, Breathless or Lovin’ Up A Storm blasting through transistor radio speakers in the late 50s, like a frenzied escapologist trying to kick his way out of a tiny metal box? Rock’n’roll has always been about the most visceral emotions expressed in the most economical fashion, and Jerry Lee understood that more than most.

He also understood his geographical heritage. The boy from Ferriday, Louisiana, absorbed the blues and country emanating from the shacks and saloons of the rural south and parlayed those sounds into a fiery, mouth-burning stew with limitless global appeal. The country connection is important, as this was the music that arguably saved his bacon after the scandals of his private life prompted a fall from grace.

The late 60s and early 70s cuts are, in many ways, the most telling, with Lewis not so much reinventing himself as a country crooner (he still packed a venomous vocal punch), but honing, fine-tuning and evolving his core talents to remain relevant in an industry undergoing rapid changes. It’s instructive to sit down and listen to this whole box in a single sitting, if you have the time, because it maps out a fascinating journey, dotted with a few perilous pit-stops but five times as many uplifting, refuelled triumphs. These songs are Jerry Lee’s biography, and say so much more about him than any crappy Dennis Quaid film ever could. –Terry Staunton, Record Collector Magazine
Jerry Lee Lewis  - A Whole Lotta Jerry Lee Lewis (2012) {4CD Box Set Salvo Records SALVOBX410}


Salvo INFO

Track Listing:
Disc: 1

1. Crazy Arms
2. Whole Lotta Shakin' Goin' On
3. Great Balls Of Fire
4. You Win Again
5. Breathless
6. High School Confidential
7. Lewis Boogie
8. Break Up
9. I ll Sail My Ship Alone
10. Lovin Up A Storm
11. What'd I Say
12. Cold Cold Heart
13. Hit The Road Jack
14. Pen And Paper
15. I'm On Fire
16. She Was My Baby (He Was My Friend)
17. High Heel Sneakers
18. Just In Time
19. Baby, Hold Me Close
20. I Believe In You
21. Green Green Grass Of Home
22. Baby (You've Got What It Takes) (with Linda Gail Lewis)
23. Detroit City
24. Rockin' Jerry Lee
25. Memphis Beat
26. Big Boss Man
27. It's A Hang-Up Baby
28. Turn On Your Love Light
29. Shotgun Man

Jerry Lee Lewis  - A Whole Lotta Jerry Lee Lewis (2012) {4CD Box Set Salvo Records SALVOBX410}


Disc: 2
1. Another Place, Another Time
2. Walking The Floor Over You
3. I'm A Lonesome Fugitive
4. What's Made Milwaukee Famous (Has Made A Loser Out Of Me)
5. She Still Comes Around (To Love What's Left Of Me)
6. To Make Love Sweeter For You
7. There Stands The Glass
8. Don't Let Me Cross Over (with Linda Gail Lewis)
9. Jackson (with Linda Gail Lewis)
10. One Has My Name (The Other Has My Heart)
11. Invitation To Your Party
12. Earth Up Above (with Linda Gail Lewis)
13. She Even Woke Me Up To Say Goodbye
14. One Minute Past Eternity
15. Roll Over Beethoven (with Linda Gail Lewis)
16. Working Man Blues
17. Wine Me Up
18. Once More With Feeling
19. I Can't Seem To Say Goodbye
20. There Must Be More To Love Than This
21. Waiting For A Train
22. In Loving Memories
23. Sweet Georgia Brown
24. Touching Home
25. When He Walks On You (Like You Walked On Me)
26. Would You Take Another Chance On Me
27. Me And Bobby McGee
28. Thirteen At The Table

Jerry Lee Lewis  - A Whole Lotta Jerry Lee Lewis (2012) {4CD Box Set Salvo Records SALVOBX410}


Disc: 3
1. Chantilly Lace
2. Think About It Darlin'
3. Walk A Mile In My Shoes
4. Lonely Weekends
5. Me And Jesus (with Linda Gail Lewis)
6. Who's Gonna Play This Old Piano
7. No Honky Tonks In Heaven
8. No Traffic Out Of Abilene
9. No More Hanging On
10. Drinkin' Wine Spo-Dee-O-Dee
11. Bad Moon Rising
12. Juke Box
13. No Headstone On My Grave
14. Sometimes A Memory Ain't Enough
15. Ride Me Down Easy
16. I'm Left, You're Right, She's Gone
17. Just A Little Bit
18. Big Blue Diamonds
19. Tell Tale Signs
20. He Can't Fill My Shoes
21. Honey Hush
22. I Can Still Hear The Music In The Rest Room
23. House Of Blue Lights
24. Boogie Woogie Country Man
25. A Damn Good Country Song

Jerry Lee Lewis  - A Whole Lotta Jerry Lee Lewis (2012) {4CD Box Set Salvo Records SALVOBX410}


Disc: 4
1. Don't Boogie Woogie
2. I Can't Keep My Hands Off Of You
3. I Don't Want To Be Lonely Tonight
4. Let's Put It Back Together Again
5. Jerry Lee's Rock And Roll Revival Show
6. The Closest Thing To You
7. Middle Age Crazy
8. Tennessee Saturday Night
9. Come On In
10. I'll Find It Where I Can
11. I Hate You
12. Rockin' My Life Away
13. I Wish I Was Eighteen Again
14. Who Will The Next Fool Be
15. When Two Worlds Collide
16. Over The Rainbow
17. Thirty-Nine And Holding
18. I'm So Lonesome I Could Cry
19. My Fingers Do The Talkin'
20. Come As You Were
21. Honky Tonk Rock And Roll Piano Man
22. Why You Been Gone So Long
23. Sixteen Candles (with Johnny Cash, Roy Orbison & Carl Perkins)
24. Wild One (with David Kemper and Gerald McGee)

Jerry Lee Lewis  - A Whole Lotta Jerry Lee Lewis (2012) {4CD Box Set Salvo Records SALVOBX410}


Exact Audio Copy V1.0 beta 3 from 29. August 2011

EAC extraction logfile from 3. May 2012, 19:45

Jerry Lee Lewis / A Whole Lotta Jerry Lee Lewis (Disc 1)

Used drive : BENQ DVD DC DW1670 Adapter: 1 ID: 0

Read mode : Secure
Utilize accurate stream : Yes
Defeat audio cache : Yes
Make use of C2 pointers : No

Read offset correction : 102
Overread into Lead-In and Lead-Out : No
Fill up missing offset samples with silence : Yes
Delete leading and trailing silent blocks : No
Null samples used in CRC calculations : Yes
Used interface : Installed external ASPI interface
Gap handling : Appended to previous track

Used output format : User Defined Encoder
Selected bitrate : 256 kBit/s
Quality : High
Add ID3 tag : No
Command line compressor : C:\Program\Exact Audio Copy\Flac\flac.exe
Additional command line options : -8 -V -T "ARTIST=%artist%" -T "TITLE=%title%" -T "ALBUM=%albumtitle%" -T "DATE=%year%" -T "TRACKNUMBER=%tracknr%" -T "TOTALTRACKS=%numtracks%" -T "GENRE=%genre%" -T "ALBUMARTIST=%albumartist%" -T "ALBUM ARTIST=%albumartist%" -T "COMMENT=EAC Secure Mode, Test & Copy, AccurateRip, FLAC -8" %source%


TOC of the extracted CD

Track | Start | Length | Start sector | End sector
––––––––––––––––––––––––––––-
1 | 0:00.00 | 2:45.14 | 0 | 12388
2 | 2:45.14 | 2:53.50 | 12389 | 25413
3 | 5:38.64 | 1:53.04 | 25414 | 33892
4 | 7:31.68 | 2:56.39 | 33893 | 47131
5 | 10:28.32 | 2:43.53 | 47132 | 59409
6 | 13:12.10 | 2:30.55 | 59410 | 70714
7 | 15:42.65 | 2:01.19 | 70715 | 79808
8 | 17:44.09 | 2:39.13 | 79809 | 91746
9 | 20:23.22 | 2:10.01 | 91747 | 101497
10 | 22:33.23 | 1:52.35 | 101498 | 109932
11 | 24:25.58 | 2:27.69 | 109933 | 121026
12 | 26:53.52 | 3:07.39 | 121027 | 135090
13 | 30:01.16 | 1:55.71 | 135091 | 143786
14 | 31:57.12 | 2:28.44 | 143787 | 154930
15 | 34:25.56 | 2:24.19 | 154931 | 165749
16 | 36:50.00 | 2:18.18 | 165750 | 176117
17 | 39:08.18 | 3:42.18 | 176118 | 192785
18 | 42:50.36 | 2:54.64 | 192786 | 205899
19 | 45:45.25 | 3:06.03 | 205900 | 219852
20 | 48:51.28 | 2:34.35 | 219853 | 231437
21 | 51:25.63 | 2:40.50 | 231438 | 243487
22 | 54:06.38 | 2:37.22 | 243488 | 255284
23 | 56:43.60 | 2:46.36 | 255285 | 267770
24 | 59:30.21 | 2:41.11 | 267771 | 279856
25 | 62:11.32 | 2:50.31 | 279857 | 292637
26 | 65:01.63 | 2:51.73 | 292638 | 305535
27 | 67:53.61 | 2:15.26 | 305536 | 315686
28 | 70:09.12 | 2:30.61 | 315687 | 326997
29 | 72:39.73 | 2:42.43 | 326998 | 339190


Track 1

Filename C:\Rips\Jerry Lee Lewis - A Whole Lotta Jerry Lee Lewis (2012) [FLAC]\CD1\01 - Crazy Arms.wav

Pre-gap length 0:00:02.00

Peak level 97.7 %
Extraction speed 4.4 X
Track quality 100.0 %
Test CRC 94E64B57
Copy CRC 94E64B57
Track not present in AccurateRip database
Copy OK

Track 2

Filename C:\Rips\Jerry Lee Lewis - A Whole Lotta Jerry Lee Lewis (2012) [FLAC]\CD1\02 - Whole Lotta Shakin' Goin' On.wav

Peak level 97.7 %
Extraction speed 4.2 X
Track quality 100.0 %
Test CRC F2C1E48B
Copy CRC F2C1E48B
Track not present in AccurateRip database
Copy OK

Track 3

Filename C:\Rips\Jerry Lee Lewis - A Whole Lotta Jerry Lee Lewis (2012) [FLAC]\CD1\03 - Great Balls Of Fire.wav

Peak level 97.7 %
Extraction speed 4.6 X
Track quality 100.0 %
Test CRC 65C272E4
Copy CRC 65C272E4
Track not present in AccurateRip database
Copy OK

Track 4

Filename C:\Rips\Jerry Lee Lewis - A Whole Lotta Jerry Lee Lewis (2012) [FLAC]\CD1\04 - You Win Again.wav

Peak level 97.7 %
Extraction speed 5.2 X
Track quality 100.0 %
Test CRC F8249068
Copy CRC F8249068
Track not present in AccurateRip database
Copy OK

Track 5

Filename C:\Rips\Jerry Lee Lewis - A Whole Lotta Jerry Lee Lewis (2012) [FLAC]\CD1\05 - Breathless.wav

Peak level 97.7 %
Extraction speed 5.1 X
Track quality 100.0 %
Test CRC 6BE7F6C1
Copy CRC 6BE7F6C1
Track not present in AccurateRip database
Copy OK

Track 6

Filename C:\Rips\Jerry Lee Lewis - A Whole Lotta Jerry Lee Lewis (2012) [FLAC]\CD1\06 - High School Confidential.wav

Peak level 97.7 %
Extraction speed 3.6 X
Track quality 99.9 %
Test CRC 4B43CD1A
Copy CRC 4B43CD1A
Track not present in AccurateRip database
Copy OK

Track 7

Filename C:\Rips\Jerry Lee Lewis - A Whole Lotta Jerry Lee Lewis (2012) [FLAC]\CD1\07 - Lewis Boogie.wav

Peak level 97.7 %
Extraction speed 5.4 X
Track quality 100.0 %
Test CRC 924D009A
Copy CRC 924D009A
Track not present in AccurateRip database
Copy OK

Track 8

Filename C:\Rips\Jerry Lee Lewis - A Whole Lotta Jerry Lee Lewis (2012) [FLAC]\CD1\08 - Break Up.wav

Peak level 97.7 %
Extraction speed 6.0 X
Track quality 100.0 %
Test CRC 186359E8
Copy CRC 186359E8
Track not present in AccurateRip database
Copy OK

Track 9

Filename C:\Rips\Jerry Lee Lewis - A Whole Lotta Jerry Lee Lewis (2012) [FLAC]\CD1\09 - I'll Sail My Ship Alone.wav

Peak level 97.7 %
Extraction speed 5.9 X
Track quality 100.0 %
Test CRC DCDD1075
Copy CRC DCDD1075
Track not present in AccurateRip database
Copy OK

Track 10

Filename C:\Rips\Jerry Lee Lewis - A Whole Lotta Jerry Lee Lewis (2012) [FLAC]\CD1\10 - Lovin' Up A Storm.wav

Peak level 97.7 %
Extraction speed 5.9 X
Track quality 100.0 %
Test CRC EA343750
Copy CRC EA343750
Track not present in AccurateRip database
Copy OK

Track 11

Filename C:\Rips\Jerry Lee Lewis - A Whole Lotta Jerry Lee Lewis (2012) [FLAC]\CD1\11 - What'd I Say.wav

Peak level 97.7 %
Extraction speed 6.3 X
Track quality 100.0 %
Test CRC 88736C3B
Copy CRC 88736C3B
Track not present in AccurateRip database
Copy OK

Track 12

Filename C:\Rips\Jerry Lee Lewis - A Whole Lotta Jerry Lee Lewis (2012) [FLAC]\CD1\12 - Cold Cold Heart.wav

Peak level 97.7 %
Extraction speed 6.7 X
Track quality 100.0 %
Test CRC E8CEE41E
Copy CRC E8CEE41E
Track not present in AccurateRip database
Copy OK

Track 13

Filename C:\Rips\Jerry Lee Lewis - A Whole Lotta Jerry Lee Lewis (2012) [FLAC]\CD1\13 - Hit The Road Jack.wav

Peak level 97.7 %
Extraction speed 6.2 X
Track quality 100.0 %
Test CRC 1A7DF744
Copy CRC 1A7DF744
Track not present in AccurateRip database
Copy OK

Track 14

Filename C:\Rips\Jerry Lee Lewis - A Whole Lotta Jerry Lee Lewis (2012) [FLAC]\CD1\14 - Pen And Paper.wav

Peak level 97.7 %
Extraction speed 6.3 X
Track quality 100.0 %
Test CRC 501B5F53
Copy CRC 501B5F53
Track not present in AccurateRip database
Copy OK

Track 15

Filename C:\Rips\Jerry Lee Lewis - A Whole Lotta Jerry Lee Lewis (2012) [FLAC]\CD1\15 - I'm On Fire.wav

Peak level 97.7 %
Extraction speed 6.8 X
Track quality 100.0 %
Test CRC 1750DD6A
Copy CRC 1750DD6A
Track not present in AccurateRip database
Copy OK

Track 16

Filename C:\Rips\Jerry Lee Lewis - A Whole Lotta Jerry Lee Lewis (2012) [FLAC]\CD1\16 - She Was My Baby (He Was My Friend).wav

Peak level 97.7 %
Extraction speed 7.0 X
Track quality 100.0 %
Test CRC 082FE534
Copy CRC 082FE534
Track not present in AccurateRip database
Copy OK

Track 17

Filename C:\Rips\Jerry Lee Lewis - A Whole Lotta Jerry Lee Lewis (2012) [FLAC]\CD1\17 - High Heel Sneakers.wav

Peak level 97.7 %
Extraction speed 7.9 X
Track quality 100.0 %
Test CRC E3D24277
Copy CRC E3D24277
Track not present in AccurateRip database
Copy OK

Track 18

Filename C:\Rips\Jerry Lee Lewis - A Whole Lotta Jerry Lee Lewis (2012) [FLAC]\CD1\18 - Just In Time.wav

Peak level 97.7 %
Extraction speed 7.7 X
Track quality 100.0 %
Test CRC F1031BC2
Copy CRC F1031BC2
Track not present in AccurateRip database
Copy OK

Track 19

Filename C:\Rips\Jerry Lee Lewis - A Whole Lotta Jerry Lee Lewis (2012) [FLAC]\CD1\19 - Baby, Hold Me Close.wav

Peak level 97.7 %
Extraction speed 8.1 X
Track quality 100.0 %
Test CRC A925257F
Copy CRC A925257F
Track not present in AccurateRip database
Copy OK

Track 20

Filename C:\Rips\Jerry Lee Lewis - A Whole Lotta Jerry Lee Lewis (2012) [FLAC]\CD1\20 - I Believe In You.wav

Peak level 97.7 %
Extraction speed 7.9 X
Track quality 100.0 %
Test CRC 500EAAD9
Copy CRC 500EAAD9
Track not present in AccurateRip database
Copy OK

Track 21

Filename C:\Rips\Jerry Lee Lewis - A Whole Lotta Jerry Lee Lewis (2012) [FLAC]\CD1\21 - Green Green Grass Of Home.wav

Peak level 97.7 %
Extraction speed 5.2 X
Track quality 99.9 %
Test CRC A315FD08
Copy CRC A315FD08
Track not present in AccurateRip database
Copy OK

Track 22

Filename C:\Rips\Jerry Lee Lewis - A Whole Lotta Jerry Lee Lewis (2012) [FLAC]\CD1\22 - Baby, You've Got What It Takes.wav

Peak level 97.7 %
Extraction speed 8.2 X
Track quality 100.0 %
Test CRC 2C22B6C7
Copy CRC 2C22B6C7
Track not present in AccurateRip database
Copy OK

Track 23

Filename C:\Rips\Jerry Lee Lewis - A Whole Lotta Jerry Lee Lewis (2012) [FLAC]\CD1\23 - Detroit City.wav

Peak level 97.7 %
Extraction speed 8.4 X
Track quality 100.0 %
Test CRC AEF21AEC
Copy CRC AEF21AEC
Track not present in AccurateRip database
Copy OK

Track 24

Filename C:\Rips\Jerry Lee Lewis - A Whole Lotta Jerry Lee Lewis (2012) [FLAC]\CD1\24 - Rockin' Jerry Lee.wav

Peak level 97.7 %
Extraction speed 8.4 X
Track quality 100.0 %
Test CRC 8757407C
Copy CRC 8757407C
Track not present in AccurateRip database
Copy OK

Track 25

Filename C:\Rips\Jerry Lee Lewis - A Whole Lotta Jerry Lee Lewis (2012) [FLAC]\CD1\25 - Memphis Beat.wav

Peak level 97.7 %
Extraction speed 8.7 X
Track quality 100.0 %
Test CRC 1DF4DE68
Copy CRC 1DF4DE68
Track not present in AccurateRip database
Copy OK

Track 26

Filename C:\Rips\Jerry Lee Lewis - A Whole Lotta Jerry Lee Lewis (2012) [FLAC]\CD1\26 - Big Boss Man.wav

Peak level 97.7 %
Extraction speed 5.7 X
Track quality 99.9 %
Test CRC 71AF54EC
Copy CRC 71AF54EC
Track not present in AccurateRip database
Copy OK

Track 27

Filename C:\Rips\Jerry Lee Lewis - A Whole Lotta Jerry Lee Lewis (2012) [FLAC]\CD1\27 - It's A Hang Up Baby.wav

Peak level 97.7 %
Extraction speed 8.5 X
Track quality 100.0 %
Test CRC 59A112E4
Copy CRC 59A112E4
Track not present in AccurateRip database
Copy OK

Track 28

Filename C:\Rips\Jerry Lee Lewis - A Whole Lotta Jerry Lee Lewis (2012) [FLAC]\CD1\28 - Turn On Your Lovelight.wav

Peak level 97.7 %
Extraction speed 8.7 X
Track quality 100.0 %
Test CRC 21CAAEDE
Copy CRC 21CAAEDE
Track not present in AccurateRip database
Copy OK

Track 29

Filename C:\Rips\Jerry Lee Lewis - A Whole Lotta Jerry Lee Lewis (2012) [FLAC]\CD1\29 - Shotgun Man.wav

Peak level 97.7 %
Extraction speed 9.0 X
Track quality 100.0 %
Test CRC 90983708
Copy CRC 90983708
Track not present in AccurateRip database
Copy OK


None of the tracks are present in the AccurateRip database

No errors occurred

End of status report

==== Log checksum 6C8AE2A079B0C3AD01F57D8F471FB414C8BBF43B419F5E7F32E50DB7FEC6E782 ====

Exact Audio Copy V1.0 beta 3 from 29. August 2011

EAC extraction logfile from 4. May 2012, 18:35

Jerry Lee Lewis / A Whole Lotta Jerry Lee Lewis (Disc 2)

Used drive : BENQ DVD DC DW1670 Adapter: 1 ID: 0

Read mode : Secure
Utilize accurate stream : Yes
Defeat audio cache : Yes
Make use of C2 pointers : No

Read offset correction : 102
Overread into Lead-In and Lead-Out : No
Fill up missing offset samples with silence : Yes
Delete leading and trailing silent blocks : No
Null samples used in CRC calculations : Yes
Used interface : Installed external ASPI interface
Gap handling : Appended to previous track

Used output format : User Defined Encoder
Selected bitrate : 256 kBit/s
Quality : High
Add ID3 tag : No
Command line compressor : C:\Program\Exact Audio Copy\Flac\flac.exe
Additional command line options : -8 -V -T "ARTIST=%artist%" -T "TITLE=%title%" -T "ALBUM=%albumtitle%" -T "DATE=%year%" -T "TRACKNUMBER=%tracknr%" -T "TOTALTRACKS=%numtracks%" -T "GENRE=%genre%" -T "ALBUMARTIST=%albumartist%" -T "ALBUM ARTIST=%albumartist%" -T "COMMENT=EAC Secure Mode, Test & Copy, AccurateRip, FLAC -8" %source%


TOC of the extracted CD

Track | Start | Length | Start sector | End sector
––––––––––––––––––––––––––––-
1 | 0:00.00 | 2:25.42 | 0 | 10916
2 | 2:25.42 | 2:08.16 | 10917 | 20532
3 | 4:33.58 | 2:59.69 | 20533 | 34026
4 | 7:33.52 | 2:36.07 | 34027 | 45733
5 | 10:09.59 | 2:28.70 | 45734 | 56903
6 | 12:38.54 | 2:49.68 | 56904 | 69646
7 | 15:28.47 | 2:35.71 | 69647 | 81342
8 | 18:04.43 | 2:57.30 | 81343 | 94647
9 | 21:01.73 | 2:22.18 | 94648 | 105315
10 | 23:24.16 | 2:38.69 | 105316 | 117234
11 | 26:03.10 | 1:56.49 | 117235 | 125983
12 | 27:59.59 | 2:00.08 | 125984 | 134991
13 | 29:59.67 | 2:39.60 | 134992 | 146976
14 | 32:39.52 | 2:04.46 | 146977 | 156322
15 | 34:44.23 | 1:59.49 | 156323 | 165296
16 | 36:43.72 | 2:54.71 | 165297 | 178417
17 | 39:38.68 | 2:23.00 | 178418 | 189142
18 | 42:01.68 | 2:24.62 | 189143 | 200004
19 | 44:26.55 | 2:35.24 | 200005 | 211653
20 | 47:02.04 | 2:43.22 | 211654 | 223900
21 | 49:45.26 | 1:41.43 | 223901 | 231518
22 | 51:26.69 | 3:14.73 | 231519 | 246141
23 | 54:41.67 | 2:29.47 | 246142 | 257363
24 | 57:11.39 | 2:37.39 | 257364 | 269177
25 | 59:49.03 | 2:30.63 | 269178 | 280490
26 | 62:19.66 | 2:51.69 | 280491 | 293384
27 | 65:11.60 | 3:11.39 | 293385 | 307748
28 | 68:23.24 | 3:35.62 | 307749 | 323935


Track 1

Filename C:\Rips\Jerry Lee Lewis - A Whole Lotta Jerry Lee Lewis (2012) [FLAC]\CD2\01 - Another Place, Another Time.wav

Pre-gap length 0:00:02.00

Peak level 97.7 %
Extraction speed 4.2 X
Track quality 100.0 %
Test CRC 23C01B24
Copy CRC 23C01B24
Track not present in AccurateRip database
Copy OK

Track 2

Filename C:\Rips\Jerry Lee Lewis - A Whole Lotta Jerry Lee Lewis (2012) [FLAC]\CD2\02 - Walking The Floor Over You.wav

Peak level 97.7 %
Extraction speed 4.2 X
Track quality 100.0 %
Test CRC F97C7F62
Copy CRC F97C7F62
Track not present in AccurateRip database
Copy OK

Track 3

Filename C:\Rips\Jerry Lee Lewis - A Whole Lotta Jerry Lee Lewis (2012) [FLAC]\CD2\03 - I'm A Lonesome Fugitive.wav

Peak level 97.7 %
Extraction speed 3.4 X
Track quality 99.9 %
Test CRC 95BD3A7B
Copy CRC 95BD3A7B
Track not present in AccurateRip database
Copy OK

Track 4

Filename C:\Rips\Jerry Lee Lewis - A Whole Lotta Jerry Lee Lewis (2012) [FLAC]\CD2\04 - What's Made Milwaukee Famous (Has Made A Loser Out Of Me).wav

Peak level 97.7 %
Extraction speed 5.1 X
Track quality 100.0 %
Test CRC 0224DCE5
Copy CRC 0224DCE5
Track not present in AccurateRip database
Copy OK

Track 5

Filename C:\Rips\Jerry Lee Lewis - A Whole Lotta Jerry Lee Lewis (2012) [FLAC]\CD2\05 - She Still Comes Around (To Love What's Left Of Me).wav

Peak level 97.7 %
Extraction speed 5.2 X
Track quality 100.0 %
Test CRC 6A982DE8
Copy CRC 6A982DE8
Track not present in AccurateRip database
Copy OK

Track 6

Filename C:\Rips\Jerry Lee Lewis - A Whole Lotta Jerry Lee Lewis (2012) [FLAC]\CD2\06 - To Make Love Sweeter For You.wav

Peak level 97.7 %
Extraction speed 5.6 X
Track quality 100.0 %
Test CRC 89902583
Copy CRC 89902583
Track not present in AccurateRip database
Copy OK

Track 7

Filename C:\Rips\Jerry Lee Lewis - A Whole Lotta Jerry Lee Lewis (2012) [FLAC]\CD2\07 - There Stands The Glass.wav

Peak level 97.7 %
Extraction speed 5.8 X
Track quality 100.0 %
Test CRC B72DE4D7
Copy CRC B72DE4D7
Track not present in AccurateRip database
Copy OK

Track 8

Filename C:\Rips\Jerry Lee Lewis - A Whole Lotta Jerry Lee Lewis (2012) [FLAC]\CD2\08 - Don't Let Me Cross Over (with Linda Gail Lewis).wav

Peak level 97.7 %
Extraction speed 6.1 X
Track quality 100.0 %
Test CRC E94A8988
Copy CRC E94A8988
Track not present in AccurateRip database
Copy OK

Track 9

Filename C:\Rips\Jerry Lee Lewis - A Whole Lotta Jerry Lee Lewis (2012) [FLAC]\CD2\09 - Jackson (with Linda Gail Lewis).wav

Peak level 97.7 %
Extraction speed 6.0 X
Track quality 100.0 %
Test CRC FAF2513C
Copy CRC FAF2513C
Track not present in AccurateRip database
Copy OK

Track 10

Filename C:\Rips\Jerry Lee Lewis - A Whole Lotta Jerry Lee Lewis (2012) [FLAC]\CD2\10 - One Has My Name (The Other Has My Heart).wav

Peak level 97.7 %
Extraction speed 5.7 X
Track quality 100.0 %
Test CRC 5E6C0EA0
Copy CRC 5E6C0EA0
Track not present in AccurateRip database
Copy OK

Track 11

Filename C:\Rips\Jerry Lee Lewis - A Whole Lotta Jerry Lee Lewis (2012) [FLAC]\CD2\11 - Invitation To Your Party.wav

Peak level 97.7 %
Extraction speed 6.2 X
Track quality 100.0 %
Test CRC 439C57F0
Copy CRC 439C57F0
Track not present in AccurateRip database
Copy OK

Track 12

Filename C:\Rips\Jerry Lee Lewis - A Whole Lotta Jerry Lee Lewis (2012) [FLAC]\CD2\12 - Earth Up Above (with Linda Gail Lewis).wav

Peak level 97.7 %
Extraction speed 6.1 X
Track quality 100.0 %
Test CRC E648E70B
Copy CRC E648E70B
Track not present in AccurateRip database
Copy OK

Track 13

Filename C:\Rips\Jerry Lee Lewis - A Whole Lotta Jerry Lee Lewis (2012) [FLAC]\CD2\13 - She Even Woke Me Up To Say Goodbye.wav

Peak level 97.7 %
Extraction speed 6.8 X
Track quality 100.0 %
Test CRC 94C876CD
Copy CRC 94C876CD
Track not present in AccurateRip database
Copy OK

Track 14

Filename C:\Rips\Jerry Lee Lewis - A Whole Lotta Jerry Lee Lewis (2012) [FLAC]\CD2\14 - One Minute Past Eternity.wav

Peak level 97.7 %
Extraction speed 6.6 X
Track quality 100.0 %
Test CRC 9D0FF139
Copy CRC 9D0FF139
Track not present in AccurateRip database
Copy OK

Track 15

Filename C:\Rips\Jerry Lee Lewis - A Whole Lotta Jerry Lee Lewis (2012) [FLAC]\CD2\15 - Roll Over Beethoven (with Linda Gail Lewis).wav

Peak level 97.7 %
Extraction speed 6.8 X
Track quality 100.0 %
Test CRC ECA33087
Copy CRC ECA33087
Track not present in AccurateRip database
Copy OK

Track 16

Filename C:\Rips\Jerry Lee Lewis - A Whole Lotta Jerry Lee Lewis (2012) [FLAC]\CD2\16 - Working Man's Blues.wav

Peak level 97.7 %
Extraction speed 4.9 X
Track quality 99.9 %
Test CRC 3EFA5E4E
Copy CRC 3EFA5E4E
Track not present in AccurateRip database
Copy OK

Track 17

Filename C:\Rips\Jerry Lee Lewis - A Whole Lotta Jerry Lee Lewis (2012) [FLAC]\CD2\17 - Wine Me Up.wav

Peak level 97.7 %
Extraction speed 7.2 X
Track quality 100.0 %
Test CRC 593ED221
Copy CRC 593ED221
Track not present in AccurateRip database
Copy OK

Track 18

Filename C:\Rips\Jerry Lee Lewis - A Whole Lotta Jerry Lee Lewis (2012) [FLAC]\CD2\18 - Once More With Feeling.wav

Peak level 97.7 %
Extraction speed 7.4 X
Track quality 100.0 %
Test CRC DDCA4C7C
Copy CRC DDCA4C7C
Track not present in AccurateRip database
Copy OK

Track 19

Filename C:\Rips\Jerry Lee Lewis - A Whole Lotta Jerry Lee Lewis (2012) [FLAC]\CD2\19 - I Can't Seem To Say Goodbye.wav

Peak level 97.7 %
Extraction speed 7.7 X
Track quality 100.0 %
Test CRC 727A5EB0
Copy CRC 727A5EB0
Track not present in AccurateRip database
Copy OK

Track 20

Filename C:\Rips\Jerry Lee Lewis - A Whole Lotta Jerry Lee Lewis (2012) [FLAC]\CD2\20 - There Must Be More To Love Than This.wav

Peak level 97.7 %
Extraction speed 7.9 X
Track quality 100.0 %
Test CRC 6107B084
Copy CRC 6107B084
Track not present in AccurateRip database
Copy OK

Track 21

Filename C:\Rips\Jerry Lee Lewis - A Whole Lotta Jerry Lee Lewis (2012) [FLAC]\CD2\21 - Waiting For A Train.wav

Peak level 97.7 %
Extraction speed 4.0 X
Track quality 99.8 %
Test CRC 7F7AC26F
Copy CRC 7F7AC26F
Track not present in AccurateRip database
Copy OK

Track 22

Filename C:\Rips\Jerry Lee Lewis - A Whole Lotta Jerry Lee Lewis (2012) [FLAC]\CD2\22 - In Loving Memories.wav

Peak level 97.7 %
Extraction speed 8.3 X
Track quality 100.0 %
Test CRC 001053E7
Copy CRC 001053E7
Track not present in AccurateRip database
Copy OK

Track 23

Filename C:\Rips\Jerry Lee Lewis - A Whole Lotta Jerry Lee Lewis (2012) [FLAC]\CD2\23 - Sweet Georgia Brown.wav

Peak level 97.7 %
Extraction speed 8.2 X
Track quality 100.0 %
Test CRC E4C85EF8
Copy CRC E4C85EF8
Track not present in AccurateRip database
Copy OK

Track 24

Filename C:\Rips\Jerry Lee Lewis - A Whole Lotta Jerry Lee Lewis (2012) [FLAC]\CD2\24 - Touching Home.wav

Peak level 97.7 %
Extraction speed 8.4 X
Track quality 100.0 %
Test CRC 8D64F7DA
Copy CRC 8D64F7DA
Track not present in AccurateRip database
Copy OK

Track 25

Filename C:\Rips\Jerry Lee Lewis - A Whole Lotta Jerry Lee Lewis (2012) [FLAC]\CD2\25 - When He Walks On You (Like You Have Walked On Me).wav

Peak level 97.7 %
Extraction speed 8.5 X
Track quality 100.0 %
Test CRC F068E113
Copy CRC F068E113
Track not present in AccurateRip database
Copy OK

Track 26

Filename C:\Rips\Jerry Lee Lewis - A Whole Lotta Jerry Lee Lewis (2012) [FLAC]\CD2\26 - Would You Take Another Chance On Me.wav

Peak level 97.7 %
Extraction speed 8.8 X
Track quality 100.0 %
Test CRC 7F33AAFD
Copy CRC 7F33AAFD
Track not present in AccurateRip database
Copy OK

Track 27

Filename C:\Rips\Jerry Lee Lewis - A Whole Lotta Jerry Lee Lewis (2012) [FLAC]\CD2\27 - Me And Bobby McGee.wav

Peak level 97.7 %
Extraction speed 9.2 X
Track quality 100.0 %
Test CRC B03BE009
Copy CRC B03BE009
Track not present in AccurateRip database
Copy OK

Track 28

Filename C:\Rips\Jerry Lee Lewis - A Whole Lotta Jerry Lee Lewis (2012) [FLAC]\CD2\28 - Thirteen At The Table.wav

Peak level 97.7 %
Extraction speed 6.4 X
Track quality 99.9 %
Test CRC D60BC8F1
Copy CRC D60BC8F1
Track not present in AccurateRip database
Copy OK


None of the tracks are present in the AccurateRip database

No errors occurred

End of status report

==== Log checksum 083FF4D6B3BB43D0144A83B97585F1E31B968C00391A1D557E5CCC1D0049A241 ====

Exact Audio Copy V1.0 beta 3 from 29. August 2011

EAC extraction logfile from 23. June 2012, 19:41

Jerry Lee Lewis / A Whole Lotta Jerry Lee Lewis (Disc 3)

Used drive : BENQ DVD DC DW1670 Adapter: 1 ID: 0

Read mode : Secure
Utilize accurate stream : Yes
Defeat audio cache : Yes
Make use of C2 pointers : No

Read offset correction : 102
Overread into Lead-In and Lead-Out : No
Fill up missing offset samples with silence : Yes
Delete leading and trailing silent blocks : No
Null samples used in CRC calculations : Yes
Used interface : Installed external ASPI interface
Gap handling : Appended to previous track

Used output format : User Defined Encoder
Selected bitrate : 256 kBit/s
Quality : High
Add ID3 tag : No
Command line compressor : C:\Program\Exact Audio Copy\Flac\flac.exe
Additional command line options : -8 -V -T "ARTIST=%artist%" -T "TITLE=%title%" -T "ALBUM=%albumtitle%" -T "DATE=%year%" -T "TRACKNUMBER=%tracknr%" -T "TOTALTRACKS=%numtracks%" -T "GENRE=%genre%" -T "ALBUMARTIST=%albumartist%" -T "ALBUM ARTIST=%albumartist%" -T "COMMENT=EAC Secure Mode, Test & Copy, AccurateRip, FLAC -8" %source%


TOC of the extracted CD

Track | Start | Length | Start sector | End sector
––––––––––––––––––––––––––––-
1 | 0:00.00 | 2:49.58 | 0 | 12732
2 | 2:49.58 | 2:33.44 | 12733 | 24251
3 | 5:23.27 | 3:02.59 | 24252 | 37960
4 | 8:26.11 | 1:44.34 | 37961 | 45794
5 | 10:10.45 | 2:38.49 | 45795 | 57693
6 | 12:49.19 | 3:18.26 | 57694 | 72569
7 | 16:07.45 | 2:29.18 | 72570 | 83762
8 | 18:36.63 | 2:45.34 | 83763 | 96171
9 | 21:22.22 | 3:12.49 | 96172 | 110620
10 | 24:34.71 | 3:38.63 | 110621 | 127033
11 | 28:13.59 | 2:39.22 | 127034 | 138980
12 | 30:53.06 | 4:41.13 | 138981 | 160068
13 | 35:34.19 | 5:23.05 | 160069 | 184298
14 | 40:57.24 | 2:55.38 | 184299 | 197461
15 | 43:52.62 | 2:48.24 | 197462 | 210085
16 | 46:41.11 | 2:19.46 | 210086 | 220556
17 | 49:00.57 | 3:08.70 | 220557 | 234726
18 | 52:09.52 | 4:20.60 | 234727 | 254286
19 | 56:30.37 | 2:27.08 | 254287 | 265319
20 | 58:57.45 | 2:33.12 | 265320 | 276806
21 | 61:30.57 | 2:16.14 | 276807 | 287020
22 | 63:46.71 | 2:31.12 | 287021 | 298357
23 | 66:18.08 | 2:18.57 | 298358 | 308764
24 | 68:36.65 | 3:42.31 | 308765 | 325445
25 | 72:19.21 | 2:06.07 | 325446 | 334902


Track 1

Filename C:\Rips\Jerry Lee Lewis - A Whole Lotta Jerry Lee Lewis (2012) [FLAC]\CD3\01 - Chantilly Lace.wav

Pre-gap length 0:00:02.00

Peak level 97.7 %
Extraction speed 4.4 X
Track quality 100.0 %
Test CRC FB8545F9
Copy CRC FB8545F9
Track not present in AccurateRip database
Copy OK

Track 2

Filename C:\Rips\Jerry Lee Lewis - A Whole Lotta Jerry Lee Lewis (2012) [FLAC]\CD3\02 - Think About It Darlin'.wav

Peak level 97.7 %
Extraction speed 4.5 X
Track quality 100.0 %
Test CRC 8459BDB1
Copy CRC 8459BDB1
Track not present in AccurateRip database
Copy OK

Track 3

Filename C:\Rips\Jerry Lee Lewis - A Whole Lotta Jerry Lee Lewis (2012) [FLAC]\CD3\03 - Walk A Mile In My Shoes.wav

Peak level 97.7 %
Extraction speed 4.8 X
Track quality 100.0 %
Test CRC 235D0313
Copy CRC 235D0313
Track not present in AccurateRip database
Copy OK

Track 4

Filename C:\Rips\Jerry Lee Lewis - A Whole Lotta Jerry Lee Lewis (2012) [FLAC]\CD3\04 - Lonely Weekends.wav

Peak level 97.7 %
Extraction speed 4.6 X
Track quality 100.0 %
Test CRC 723AC0B2
Copy CRC 723AC0B2
Track not present in AccurateRip database
Copy OK

Track 5

Filename C:\Rips\Jerry Lee Lewis - A Whole Lotta Jerry Lee Lewis (2012) [FLAC]\CD3\05 - Me And Jesus (with Linda Gail Lewis).wav

Peak level 97.7 %
Extraction speed 5.4 X
Track quality 100.0 %
Test CRC 1F078E98
Copy CRC 1F078E98
Track not present in AccurateRip database
Copy OK

Track 6

Filename C:\Rips\Jerry Lee Lewis - A Whole Lotta Jerry Lee Lewis (2012) [FLAC]\CD3\06 - Who's Gonna Play This Old Piano.wav

Peak level 97.7 %
Extraction speed 5.8 X
Track quality 100.0 %
Test CRC 1C8A599C
Copy CRC 1C8A599C
Track not present in AccurateRip database
Copy OK

Track 7

Filename C:\Rips\Jerry Lee Lewis - A Whole Lotta Jerry Lee Lewis (2012) [FLAC]\CD3\07 - No Honky Tonks In Heaven.wav

Peak level 97.7 %
Extraction speed 5.8 X
Track quality 100.0 %
Test CRC AF13AAC4
Copy CRC AF13AAC4
Track not present in AccurateRip database
Copy OK

Track 8

Filename C:\Rips\Jerry Lee Lewis - A Whole Lotta Jerry Lee Lewis (2012) [FLAC]\CD3\08 - No Traffic Out Of Abilene.wav

Peak level 97.7 %
Extraction speed 6.1 X
Track quality 100.0 %
Test CRC 2CD1725D
Copy CRC 2CD1725D
Track not present in AccurateRip database
Copy OK

Track 9

Filename C:\Rips\Jerry Lee Lewis - A Whole Lotta Jerry Lee Lewis (2012) [FLAC]\CD3\09 - No More Hanging On.wav

Peak level 97.7 %
Extraction speed 6.5 X
Track quality 100.0 %
Test CRC A9A5E911
Copy CRC A9A5E911
Track not present in AccurateRip database
Copy OK

Track 10

Filename C:\Rips\Jerry Lee Lewis - A Whole Lotta Jerry Lee Lewis (2012) [FLAC]\CD3\10 - Drinkin' Wine Spo-Dee-O-Dee.wav

Peak level 97.7 %
Extraction speed 6.9 X
Track quality 100.0 %
Test CRC 60955E8E
Copy CRC 60955E8E
Track not present in AccurateRip database
Copy OK

Track 11

Filename C:\Rips\Jerry Lee Lewis - A Whole Lotta Jerry Lee Lewis (2012) [FLAC]\CD3\11 - Bad Moon Rising.wav

Peak level 97.7 %
Extraction speed 6.7 X
Track quality 100.0 %
Test CRC 5F63B09C
Copy CRC 5F63B09C
Track not present in AccurateRip database
Copy OK

Track 12

Filename C:\Rips\Jerry Lee Lewis - A Whole Lotta Jerry Lee Lewis (2012) [FLAC]\CD3\12 - Juke Box.wav

Peak level 97.7 %
Extraction speed 5.4 X
Track quality 99.9 %
Test CRC 21507C10
Copy CRC 21507C10
Track not present in AccurateRip database
Copy OK

Track 13

Filename C:\Rips\Jerry Lee Lewis - A Whole Lotta Jerry Lee Lewis (2012) [FLAC]\CD3\13 - No Headstone On My Grave.wav

Peak level 97.7 %
Extraction speed 7.9 X
Track quality 100.0 %
Test CRC DC884274
Copy CRC DC884274
Track not present in AccurateRip database
Copy OK

Track 14

Filename C:\Rips\Jerry Lee Lewis - A Whole Lotta Jerry Lee Lewis (2012) [FLAC]\CD3\14 - Sometimes A Memory Ain't Enough.wav

Peak level 97.7 %
Extraction speed 6.7 X
Track quality 100.0 %
Test CRC 4E1427DA
Copy CRC 4E1427DA
Track not present in AccurateRip database
Copy OK

Track 15

Filename C:\Rips\Jerry Lee Lewis - A Whole Lotta Jerry Lee Lewis (2012) [FLAC]\CD3\15 - Ride Me Down Easy.wav

Peak level 97.7 %
Extraction speed 5.0 X
Track quality 99.9 %
Test CRC 6F7B0B54
Copy CRC 6F7B0B54
Track not present in AccurateRip database
Copy OK

Track 16

Filename C:\Rips\Jerry Lee Lewis - A Whole Lotta Jerry Lee Lewis (2012) [FLAC]\CD3\16 - I'm Left, You're Right, She's Gone.wav

Peak level 97.7 %
Extraction speed 7.6 X
Track quality 100.0 %
Test CRC F7B65F59
Copy CRC F7B65F59
Track not present in AccurateRip database
Copy OK

Track 17

Filename C:\Rips\Jerry Lee Lewis - A Whole Lotta Jerry Lee Lewis (2012) [FLAC]\CD3\17 - Just A Little Bit.wav

Peak level 97.7 %
Extraction speed 7.9 X
Track quality 100.0 %
Test CRC 62417270
Copy CRC 62417270
Track not present in AccurateRip database
Copy OK

Track 18

Filename C:\Rips\Jerry Lee Lewis - A Whole Lotta Jerry Lee Lewis (2012) [FLAC]\CD3\18 - Big Blue Diamonds.wav

Peak level 97.7 %
Extraction speed 8.7 X
Track quality 100.0 %
Test CRC 99F56549
Copy CRC 99F56549
Track not present in AccurateRip database
Copy OK

Track 19

Filename C:\Rips\Jerry Lee Lewis - A Whole Lotta Jerry Lee Lewis (2012) [FLAC]\CD3\19 - Tell Tale Signs.wav

Peak level 97.7 %
Extraction speed 8.0 X
Track quality 100.0 %
Test CRC D62DD119
Copy CRC D62DD119
Track not present in AccurateRip database
Copy OK

Track 20

Filename C:\Rips\Jerry Lee Lewis - A Whole Lotta Jerry Lee Lewis (2012) [FLAC]\CD3\20 - He Can't Fill My Shoes.wav

Peak level 97.7 %
Extraction speed 8.2 X
Track quality 100.0 %
Test CRC 33C164BA
Copy CRC 33C164BA
Track not present in AccurateRip database
Copy OK

Track 21

Filename C:\Rips\Jerry Lee Lewis - A Whole Lotta Jerry Lee Lewis (2012) [FLAC]\CD3\21 - Honey Hush.wav

Peak level 97.7 %
Extraction speed 8.3 X
Track quality 100.0 %
Test CRC 80B78E14
Copy CRC 80B78E14
Track not present in AccurateRip database
Copy OK

Track 22

Filename C:\Rips\Jerry Lee Lewis - A Whole Lotta Jerry Lee Lewis (2012) [FLAC]\CD3\22 - I Can Still Hear The Music In The Restroom.wav

Peak level 97.7 %
Extraction speed 8.6 X
Track quality 100.0 %
Test CRC 77AA8C55
Copy CRC 77AA8C55
Track not present in AccurateRip database
Copy OK

Track 23

Filename C:\Rips\Jerry Lee Lewis - A Whole Lotta Jerry Lee Lewis (2012) [FLAC]\CD3\23 - House Of Blue Lights.wav

Peak level 97.7 %
Extraction speed 5.1 X
Track quality 99.9 %
Test CRC D35D3A5F
Copy CRC D35D3A5F
Track not present in AccurateRip database
Copy OK

Track 24

Filename C:\Rips\Jerry Lee Lewis - A Whole Lotta Jerry Lee Lewis (2012) [FLAC]\CD3\24 - Boogie Woogie Country Man.wav

Peak level 97.7 %
Extraction speed 6.6 X
Track quality 99.9 %
Test CRC F1993C8B
Copy CRC F1993C8B
Track not present in AccurateRip database
Copy OK

Track 25

Filename C:\Rips\Jerry Lee Lewis - A Whole Lotta Jerry Lee Lewis (2012) [FLAC]\CD3\25 - A Damn Good Country Song.wav

Peak level 97.7 %
Extraction speed 4.6 X
Track quality 100.0 %
Test CRC 4D450C76
Copy CRC 4D450C76
Track not present in AccurateRip database
Copy OK


None of the tracks are present in the AccurateRip database

No errors occurred

End of status report

==== Log checksum 7350A6A8AF6562F90E18345C13BC3AB761A934776F3AF70E2B776980FDD48D4D ====

Exact Audio Copy V1.0 beta 3 from 29. August 2011

EAC extraction logfile from 4. May 2012, 23:16

Jerry Lee Lewis / A Whole Lotta Jerry Lee Lewis (Disc 4)

Used drive : BENQ DVD DC DW1670 Adapter: 1 ID: 0

Read mode : Secure
Utilize accurate stream : Yes
Defeat audio cache : Yes
Make use of C2 pointers : No

Read offset correction : 102
Overread into Lead-In and Lead-Out : No
Fill up missing offset samples with silence : Yes
Delete leading and trailing silent blocks : No
Null samples used in CRC calculations : Yes
Used interface : Installed external ASPI interface
Gap handling : Appended to previous track

Used output format : User Defined Encoder
Selected bitrate : 256 kBit/s
Quality : High
Add ID3 tag : No
Command line compressor : C:\Program\Exact Audio Copy\Flac\flac.exe
Additional command line options : -8 -V -T "ARTIST=%artist%" -T "TITLE=%title%" -T "ALBUM=%albumtitle%" -T "DATE=%year%" -T "TRACKNUMBER=%tracknr%" -T "TOTALTRACKS=%numtracks%" -T "GENRE=%genre%" -T "ALBUMARTIST=%albumartist%" -T "ALBUM ARTIST=%albumartist%" -T "COMMENT=EAC Secure Mode, Test & Copy, AccurateRip, FLAC -8" %source%


TOC of the extracted CD

Track | Start | Length | Start sector | End sector
––––––––––––––––––––––––––––-
1 | 0:00.00 | 2:36.22 | 0 | 11721
2 | 2:36.22 | 3:13.52 | 11722 | 26248
3 | 5:49.74 | 3:13.74 | 26249 | 40797
4 | 9:03.73 | 3:18.38 | 40798 | 55685
5 | 12:22.36 | 2:51.25 | 55686 | 68535
6 | 15:13.61 | 3:15.37 | 68536 | 83197
7 | 18:29.23 | 3:51.61 | 83198 | 100583
8 | 22:21.09 | 2:30.22 | 100584 | 111855
9 | 24:51.31 | 2:32.19 | 111856 | 123274
10 | 27:23.50 | 2:46.06 | 123275 | 135730
11 | 30:09.56 | 2:12.26 | 135731 | 145656
12 | 32:22.07 | 3:26.26 | 145657 | 161132
13 | 35:48.33 | 3:42.25 | 161133 | 177807
14 | 39:30.58 | 5:49.02 | 177808 | 203984
15 | 45:19.60 | 2:29.58 | 203985 | 215217
16 | 47:49.43 | 3:45.71 | 215218 | 232163
17 | 51:35.39 | 2:56.73 | 232164 | 245436
18 | 54:32.37 | 2:41.56 | 245437 | 257567
19 | 57:14.18 | 2:49.73 | 257568 | 270315
20 | 60:04.16 | 2:25.49 | 270316 | 281239
21 | 62:29.65 | 2:29.46 | 281240 | 292460
22 | 64:59.36 | 2:55.05 | 292461 | 305590
23 | 67:54.41 | 3:47.26 | 305591 | 322641
24 | 71:41.67 | 2:20.50 | 322642 | 333191


Track 1

Filename C:\Rips\Jerry Lee Lewis - A Whole Lotta Jerry Lee Lewis (2012) [FLAC]\CD4\01 - Don't Boogie Woogie.wav

Pre-gap length 0:00:02.00

Peak level 97.7 %
Extraction speed 4.3 X
Track quality 100.0 %
Test CRC 9ED16115
Copy CRC 9ED16115
Track not present in AccurateRip database
Copy OK

Track 2

Filename C:\Rips\Jerry Lee Lewis - A Whole Lotta Jerry Lee Lewis (2012) [FLAC]\CD4\02 - I Can't Keep My Hands Off You.wav

Peak level 97.7 %
Extraction speed 4.8 X
Track quality 100.0 %
Test CRC B489CE13
Copy CRC B489CE13
Track not present in AccurateRip database
Copy OK

Track 3

Filename C:\Rips\Jerry Lee Lewis - A Whole Lotta Jerry Lee Lewis (2012) [FLAC]\CD4\03 - I Don't Want To Be Lonely Tonight.wav

Peak level 97.7 %
Extraction speed 5.1 X
Track quality 100.0 %
Test CRC 20866847
Copy CRC 20866847
Track not present in AccurateRip database
Copy OK

Track 4

Filename C:\Rips\Jerry Lee Lewis - A Whole Lotta Jerry Lee Lewis (2012) [FLAC]\CD4\04 - Let's Put It Back Together Again.wav

Peak level 97.7 %
Extraction speed 3.8 X
Track quality 99.9 %
Test CRC 8EE76FFB
Copy CRC 8EE76FFB
Track not present in AccurateRip database
Copy OK

Track 5

Filename C:\Rips\Jerry Lee Lewis - A Whole Lotta Jerry Lee Lewis (2012) [FLAC]\CD4\05 - Jerry Lee's Rock 'N' Roll Revival Show.wav

Peak level 97.7 %
Extraction speed 3.8 X
Track quality 99.9 %
Test CRC C29C9D33
Copy CRC C29C9D33
Track not present in AccurateRip database
Copy OK

Track 6

Filename C:\Rips\Jerry Lee Lewis - A Whole Lotta Jerry Lee Lewis (2012) [FLAC]\CD4\06 - The Closest Thing To You.wav

Peak level 97.7 %
Extraction speed 6.0 X
Track quality 100.0 %
Test CRC 013F6FA3
Copy CRC 013F6FA3
Track not present in AccurateRip database
Copy OK

Track 7

Filename C:\Rips\Jerry Lee Lewis - A Whole Lotta Jerry Lee Lewis (2012) [FLAC]\CD4\07 - Middle Age Crazy.wav

Peak level 97.7 %
Extraction speed 6.5 X
Track quality 100.0 %
Test CRC 1491E64F
Copy CRC 1491E64F
Track not present in AccurateRip database
Copy OK

Track 8

Filename C:\Rips\Jerry Lee Lewis - A Whole Lotta Jerry Lee Lewis (2012) [FLAC]\CD4\08 - Tennessee Saturday Night.wav

Peak level 97.7 %
Extraction speed 6.3 X
Track quality 100.0 %
Test CRC 408EE299
Copy CRC 408EE299
Track not present in AccurateRip database
Copy OK

Track 9

Filename C:\Rips\Jerry Lee Lewis - A Whole Lotta Jerry Lee Lewis (2012) [FLAC]\CD4\09 - Come On In.wav

Peak level 97.7 %
Extraction speed 6.4 X
Track quality 100.0 %
Test CRC 3776DB1C
Copy CRC 3776DB1C
Track not present in AccurateRip database
Copy OK

Track 10

Filename C:\Rips\Jerry Lee Lewis - A Whole Lotta Jerry Lee Lewis (2012) [FLAC]\CD4\10 - I'll Find It Where I Can.wav

Peak level 97.7 %
Extraction speed 6.8 X
Track quality 100.0 %
Test CRC D0F39778
Copy CRC D0F39778
Track not present in AccurateRip database
Copy OK

Track 11

Filename C:\Rips\Jerry Lee Lewis - A Whole Lotta Jerry Lee Lewis (2012) [FLAC]\CD4\11 - I Hate You.wav

Peak level 97.7 %
Extraction speed 6.5 X
Track quality 100.0 %
Test CRC AD6ABB05
Copy CRC AD6ABB05
Track not present in AccurateRip database
Copy OK

Track 12

Filename C:\Rips\Jerry Lee Lewis - A Whole Lotta Jerry Lee Lewis (2012) [FLAC]\CD4\12 - Rockin' My Life Away.wav

Peak level 97.7 %
Extraction speed 7.2 X
Track quality 100.0 %
Test CRC D9078E5C
Copy CRC D9078E5C
Track not present in AccurateRip database
Copy OK

Track 13

Filename C:\Rips\Jerry Lee Lewis - A Whole Lotta Jerry Lee Lewis (2012) [FLAC]\CD4\13 - I Wish I Was Eighteen Again.wav

Peak level 97.7 %
Extraction speed 7.5 X
Track quality 100.0 %
Test CRC A5C0E865
Copy CRC A5C0E865
Track not present in AccurateRip database
Copy OK

Track 14

Filename C:\Rips\Jerry Lee Lewis - A Whole Lotta Jerry Lee Lewis (2012) [FLAC]\CD4\14 - Who Will The Next Fool Be.wav

Peak level 97.7 %
Extraction speed 6.2 X
Track quality 100.0 %
Test CRC 2926F038
Copy CRC 2926F038
Track not present in AccurateRip database
Copy OK

Track 15

Filename C:\Rips\Jerry Lee Lewis - A Whole Lotta Jerry Lee Lewis (2012) [FLAC]\CD4\15 - When Two Worlds Collide.wav

Peak level 97.7 %
Extraction speed 7.1 X
Track quality 100.0 %
Test CRC DBF22A8A
Copy CRC DBF22A8A
Track not present in AccurateRip database
Copy OK

Track 16

Filename C:\Rips\Jerry Lee Lewis - A Whole Lotta Jerry Lee Lewis (2012) [FLAC]\CD4\16 - Over The Rainbow.wav

Peak level 97.7 %
Extraction speed 7.2 X
Track quality 100.0 %
Test CRC 85495244
Copy CRC 85495244
Track not present in AccurateRip database
Copy OK

Track 17

Filename C:\Rips\Jerry Lee Lewis - A Whole Lotta Jerry Lee Lewis (2012) [FLAC]\CD4\17 - Thirty-Nine And Holding.wav

Peak level 97.7 %
Extraction speed 5.4 X
Track quality 99.9 %
Test CRC E9E37068
Copy CRC E9E37068
Track not present in AccurateRip database
Copy OK

Track 18

Filename C:\Rips\Jerry Lee Lewis - A Whole Lotta Jerry Lee Lewis (2012) [FLAC]\CD4\18 - I'm So Lonesome I Could Cry.wav

Peak level 97.7 %
Extraction speed 7.6 X
Track quality 100.0 %
Test CRC 2D9ADA9F
Copy CRC 2D9ADA9F
Track not present in AccurateRip database
Copy OK

Track 19

Filename C:\Rips\Jerry Lee Lewis - A Whole Lotta Jerry Lee Lewis (2012) [FLAC]\CD4\19 - My Fingers Do The Talkin'.wav

Peak level 97.7 %
Extraction speed 5.4 X
Track quality 99.9 %
Test CRC 179F9036
Copy CRC 179F9036
Track not present in AccurateRip database
Copy OK

Track 20

Filename C:\Rips\Jerry Lee Lewis - A Whole Lotta Jerry Lee Lewis (2012) [FLAC]\CD4\20 - Come As You Were.wav

Peak level 97.7 %
Extraction speed 7.4 X
Track quality 100.0 %
Test CRC 7D35E48C
Copy CRC 7D35E48C
Track not present in AccurateRip database
Copy OK

Track 21

Filename C:\Rips\Jerry Lee Lewis - A Whole Lotta Jerry Lee Lewis (2012) [FLAC]\CD4\21 - Honky Tonk Rock 'N' Roll Piano Man.wav

Peak level 97.7 %
Extraction speed 6.8 X
Track quality 100.0 %
Test CRC 9883FE48
Copy CRC 9883FE48
Track not present in AccurateRip database
Copy OK

Track 22

Filename C:\Rips\Jerry Lee Lewis - A Whole Lotta Jerry Lee Lewis (2012) [FLAC]\CD4\22 - Why You Been Gone So Long.wav

Peak level 97.7 %
Extraction speed 6.6 X
Track quality 100.0 %
Test CRC 4D67B420
Copy CRC 4D67B420
Track not present in AccurateRip database
Copy OK

Track 23

Filename C:\Rips\Jerry Lee Lewis - A Whole Lotta Jerry Lee Lewis (2012) [FLAC]\CD4\23 - Sixteen Candles.wav

Peak level 97.7 %
Extraction speed 9.0 X
Track quality 100.0 %
Test CRC 9BD5E19E
Copy CRC 9BD5E19E
Track not present in AccurateRip database
Copy OK

Track 24

Filename C:\Rips\Jerry Lee Lewis - A Whole Lotta Jerry Lee Lewis (2012) [FLAC]\CD4\24 - Wild One.wav

Peak level 97.7 %
Extraction speed 8.5 X
Track quality 100.0 %
Test CRC 8CD27FE0
Copy CRC 8CD27FE0
Track not present in AccurateRip database
Copy OK


None of the tracks are present in the AccurateRip database

No errors occurred

End of status report

==== Log checksum E8BAE5B503E5D516362B872840B5E6D2163E737C7D68251D3CE1FA3F6EA6728C ====


Jerry Lee Lewis  - A Whole Lotta Jerry Lee Lewis (2012) {4CD Box Set Salvo Records SALVOBX410}


see more Jerry Lee Lewis…

NEXT -> more Jerry Lee Lewis on the way…


===