Subcategories

Jim Croce - The Studio Album Collection (1966-1973) {7 CD Box Set Limited Edition Edsel Records CROCEBOX01 rel 2015}

Posted By: ruskaval
Jim Croce - The Studio Album Collection (1966-1973) {7 CD Box Set Limited Edition Edsel Records CROCEBOX01 rel 2015}

Jim Croce - The Studio Album Collection (1966-1973) {7 CD Box Set Limited Edition Edsel Records CROCEBOX01 rel 2015}
EAC rip (secure mode) | FLAC (tracks)+CUE+LOG -> 1.08 Gb | MP3 @320 -> 472 Mb
Full Artwork @ 600 dpi (jpg) -> 291 Mb | 5% repair rar
© 1966-73, 2015 Lastrada / Edsel Records / Demon Music | CROCEBOX01
Folk Rock / Soft Rock / Folk / Blues / Singer/Songwriter / AM Pop

Edsel Records is delighted to present this box set spanning the entire career of Jim Croce and featuring all the studio recorded albums as well as a bonus disc of demo recordings. Singer-songwriter Jim Croce’s untimely death in an aeroplane crash (in September 1973, aged just 30) came at a point in his career when he seemed set for a lengthy and rewarding career. This box is the first time all the studio albums have ever been brought together in a single package, from the self-released debut ‘Facets’, recorded and released for just $500 – a wedding gift from Jim’s parents – to ‘I Got A Name’ which was released posthumously after his death whilst on tour promoting the previous album.
Jim Croce - The Studio Album Collection (1966-1973) {7 CD Box Set Limited Edition Edsel Records CROCEBOX01 rel 2015}

Discs two and three are collaborations with his wife Ingrid, and discs four, five and six were are recorded for and released by ABC Records. The final bonus disc of this set features demo recordings including those which when presented to ABC records secured the deal for the albums that followed. The booklet includes the lyrics and comprehensive 5000 word note by Alan Robinson.
Jim Croce - The Studio Album Collection (1966-1973) {7 CD Box Set Limited Edition Edsel Records CROCEBOX01 rel 2015}

Jim Croce - The Studio Album Collection (1966-1973) {7 CD Box Set Limited Edition Edsel Records CROCEBOX01 rel 2015}


TRACK LISTING:

Facets [Disc 1 of 7] - DR 9


01. Steel Rail Blues - 02:17
02. Coal Tattoo - 02:16
03. Texas Rodeo - 01:44
04. Charley Green, Play That Slide Trombone - 02:26
05. The Ballad Of Gunga Din - 04:05
06. Hard Hearted Hannah (The Vamp From Savannah) - 01:58
07. Sun Come Up - 02:05
08. The Blizzard - 02:53
09. Running Maggie - 01:51
10. Until It's Time For Me To Go - 03:05
11. Big Fat Woman - 01:57

Jim Croce - The Studio Album Collection (1966-1973) {7 CD Box Set Limited Edition Edsel Records CROCEBOX01 rel 2015}


Jim and Ingrid Too [Disc 2 of 7] - DR 10

01. Child Of Midnight - 02:49
02. Marianne - 02:35
03. Railroads And Riverboats - 03:12
04. Hard Times Are Over - 01:51
05. The Railroad Song - 02:55
06. Maybe Tomorrow - 02:28
07. Pa (Song For A Grandfather) - 01:50

Jim Croce - The Studio Album Collection (1966-1973) {7 CD Box Set Limited Edition Edsel Records CROCEBOX01 rel 2015}


Jim and Ingrid Croce [Disc 3 of 7] - DR 11
01. Age - 02:14
02. Spin, Spin, Spin - 02:46
03. I Am Who I Am - 02:30
04. What Do People Do - 01:54
05. Another Day, Another Town - 02:29
06. Vespers - 01:56
07. Big Wheel - 01:49
08. Just Another Day - 02:37
09. The Next Man That I Marry - 03:05
10. What The Hell - 03:11
11. The Man That Is Me - 02:53

Jim Croce - The Studio Album Collection (1966-1973) {7 CD Box Set Limited Edition Edsel Records CROCEBOX01 rel 2015}


You Don't Mess Around With Jim [Disc 4 of 7] - DR 10

01. You Don't Mess Around With Jim - 03:03
02. Tomorrow's Gonna Be A Brighter Day - 02:54
03. New York's Not My Home - 03:09
04. Hard Time Losin' Man - 02:28
05. Photographs And Memories - 02:08
06. Walkin' Back To Georgia - 02:54
07. Operator (That's Not The Way It Feels) - 03:49
08. Time In A Bottle - 02:28
09. Rapid Roy (The Stock Car Boy) - 02:46
10. Box No. 10 - 02:28
11. A Long Time Ago - 02:22
12. Hey Tomorrow - 02:43

Jim Croce - The Studio Album Collection (1966-1973) {7 CD Box Set Limited Edition Edsel Records CROCEBOX01 rel 2015}


Life and Times [Disc 5 of 7] - DR 12

01. One Less Set Of Footsteps - 02:48
02. Roller Derby Queen - 03:30
03. Dreamin' Again - 02:41
04. Careful Man - 02:24
05. Alabama Rain - 02:14
06. A Good Time Man Like Me Ain't Got No Business (Singing The Blues) - 02:06
07. Next Time, This Time - 02:54
08. Bad, Bad Leroy Brown - 03:02
09. These Dreams - 03:13
10. Speedball Tucker - 02:27
11. It Doesn't Have To Be That Way - 02:32

Jim Croce - The Studio Album Collection (1966-1973) {7 CD Box Set Limited Edition Edsel Records CROCEBOX01 rel 2015}


I Got a Name [Disc 6 of 7] - DR 10

01. I Got A Name - 03:13
02. Lover's Cross - 03:05
03. Five Short Minutes - 03:35
04. Age - 03:50
05. Workin' At The Car Wash Blues - 02:36
06. I'll Have To Say I Love You In A Song - 02:33
07. Salon And Saloon - 02:34
08. Thursday - 02:29
09. Top Hat Bar And Grille - 02:50
10. Recently - 02:36
11. The Hard Way Every Time - 02:27

Jim Croce - The Studio Album Collection (1966-1973) {7 CD Box Set Limited Edition Edsel Records CROCEBOX01 rel 2015}


The Lost Recordings [Disc 7 of 7] - DR 12

01. You Don't Mess Around Wth Jim - 02:43
02. New York's Not My Home - 02:50
03. Tomorrow's Gonna Be A Brighter Day - 02:37
04. Walkin' Back To Georgia - 02:46
05. Hard Time Losin' Man - 02:15
06. Operator - 03:43
07. Time In A Bottle - 02:24
08. Seems Like Such A Long Time Ago - 02:23
09. Mississippi Lady - 03:00
10. These Dreams - 02:34
11. A Good Time Man Like Me Ain't Got No Business (Singin' The Blues) - 02:08
12. Lover's Cross - 02:24

Jim Croce - The Studio Album Collection (1966-1973) {7 CD Box Set Limited Edition Edsel Records CROCEBOX01 rel 2015}


Exact Audio Copy V1.3 from 2. September 2016

EAC extraction logfile from 14. May 2017, 17:00

Jim Croce / The Studio Album Collection - Facets [Disc 1 of 7]

Used drive : ASUS BW-16D1HT Adapter: 1 ID: 0

Read mode : Secure
Utilize accurate stream : Yes
Defeat audio cache : Yes
Make use of C2 pointers : No

Read offset correction : 6
Overread into Lead-In and Lead-Out : No
Fill up missing offset samples with silence : Yes
Delete leading and trailing silent blocks : No
Null samples used in CRC calculations : Yes
Used interface : Native Win32 interface for Win NT & 2000
Gap handling : Appended to previous track

Used output format : User Defined Encoder
Selected bitrate : 896 kBit/s
Quality : High
Add ID3 tag : No
Command line compressor : C:\Exact Audio Copy\FLAC\FLAC.EXE
Additional command line options : -8 -V -T "ARTIST=%artist%" -T "TITLE=%title%" -T "ALBUM=%albumtitle%" -T "DATE=%year%" -T "TRACKNUMBER=%tracknr%" -T "TOTALTRACKS=%numtracks%" -T "GENRE=%genre%" -T "ALBUMARTIST=%albumartist%" -T "ALBUM ARTIST=%albumartist%" -T "COMMENT=EAC Secure Mode, Test & Copy, AccurateRip, FLAC -8" %source%


TOC of the extracted CD

Track | Start | Length | Start sector | End sector
––––––––––––––––––––––––––––-
1 | 0:00.00 | 2:16.57 | 0 | 10256
2 | 2:16.57 | 2:15.41 | 10257 | 20422
3 | 4:32.23 | 1:44.05 | 20423 | 28227
4 | 6:16.28 | 2:26.21 | 28228 | 39198
5 | 8:42.49 | 4:05.25 | 39199 | 57598
6 | 12:47.74 | 1:57.72 | 57599 | 66445
7 | 14:45.71 | 2:05.25 | 66446 | 75845
8 | 16:51.21 | 2:52.54 | 75846 | 88799
9 | 19:44.00 | 1:51.28 | 88800 | 97152
10 | 21:35.28 | 3:05.31 | 97153 | 111058
11 | 24:40.59 | 1:57.08 | 111059 | 119841


Track 1

Filename E:\01 - Steel Rail Blues.wav

Pre-gap length 0:00:02.00

Peak level 91.1 %
Extraction speed 0.7 X
Track quality 99.9 %
Test CRC 93202B3E
Copy CRC 93202B3E
Accurately ripped (confidence 7) [AE259799] (AR v2)
Copy OK

Track 2

Filename E:\02 - Coal Tattoo.wav

Pre-gap length 0:00:01.74

Peak level 93.2 %
Extraction speed 1.0 X
Track quality 100.0 %
Test CRC D296BC77
Copy CRC D296BC77
Accurately ripped (confidence 7) [D4D658C9] (AR v2)
Copy OK

Track 3

Filename E:\03 - Texas Rodeo.wav

Pre-gap length 0:00:01.74

Peak level 86.5 %
Extraction speed 1.0 X
Track quality 100.0 %
Test CRC 9211323C
Copy CRC 9211323C
Accurately ripped (confidence 7) [53EFD008] (AR v2)
Copy OK

Track 4

Filename E:\04 - Charley Green, Play That Slide Trombone.wav

Pre-gap length 0:00:01.74

Peak level 85.9 %
Extraction speed 1.1 X
Track quality 100.0 %
Test CRC 81DD88E1
Copy CRC 81DD88E1
Accurately ripped (confidence 7) [3D88033C] (AR v2)
Copy OK

Track 5

Filename E:\05 - The Ballad Of Gunga Din.wav

Pre-gap length 0:00:01.74

Peak level 93.4 %
Extraction speed 1.1 X
Track quality 99.9 %
Test CRC 1D248A02
Copy CRC 1D248A02
Accurately ripped (confidence 7) [D54AFE4B] (AR v2)
Copy OK

Track 6

Filename E:\06 - Hard Hearted Hannah (The Vamp From Savannah).wav

Pre-gap length 0:00:01.74

Peak level 90.8 %
Extraction speed 1.2 X
Track quality 100.0 %
Test CRC 176A92CA
Copy CRC 176A92CA
Accurately ripped (confidence 7) [1F12BD32] (AR v2)
Copy OK

Track 7

Filename E:\07 - Sun Come Up.wav

Pre-gap length 0:00:01.74

Peak level 87.3 %
Extraction speed 1.2 X
Track quality 100.0 %
Test CRC C9B6174F
Copy CRC C9B6174F
Accurately ripped (confidence 7) [FCBFA34F] (AR v2)
Copy OK

Track 8

Filename E:\08 - The Blizzard.wav

Pre-gap length 0:00:01.74

Peak level 90.4 %
Extraction speed 1.4 X
Track quality 100.0 %
Test CRC 0E434A36
Copy CRC 0E434A36
Accurately ripped (confidence 7) [730F4689] (AR v2)
Copy OK

Track 9

Filename E:\09 - Running Maggie.wav

Pre-gap length 0:00:01.74

Peak level 75.1 %
Extraction speed 1.3 X
Track quality 100.0 %
Test CRC B9F22BFC
Copy CRC B9F22BFC
Accurately ripped (confidence 7) [78247898] (AR v2)
Copy OK

Track 10

Filename E:\10 - Until It's Time For Me To Go.wav

Pre-gap length 0:00:01.74

Peak level 94.4 %
Extraction speed 1.5 X
Track quality 100.0 %
Test CRC EE19AC90
Copy CRC EE19AC90
Accurately ripped (confidence 7) [1E1EB19B] (AR v2)
Copy OK

Track 11

Filename E:\11 - Big Fat Woman.wav

Pre-gap length 0:00:01.74

Peak level 90.6 %
Extraction speed 1.4 X
Track quality 100.0 %
Test CRC 473706AC
Copy CRC 473706AC
Accurately ripped (confidence 7) [78625735] (AR v2)
Copy OK


All tracks accurately ripped

No errors occurred

End of status report

==== Log checksum 7751CA8E6494BCF3D7574BE826A6BF65BB9BD19E8842073BFF3DD52DA9781153 ====
Exact Audio Copy V1.3 from 2. September 2016

EAC extraction logfile from 15. May 2017, 7:20

Jim Croce / The Studio Album Collection - Jim and Ingrid Too [Disc 2 of 7]

Used drive : ASUS BW-16D1HT Adapter: 1 ID: 0

Read mode : Secure
Utilize accurate stream : Yes
Defeat audio cache : Yes
Make use of C2 pointers : No

Read offset correction : 6
Overread into Lead-In and Lead-Out : No
Fill up missing offset samples with silence : Yes
Delete leading and trailing silent blocks : No
Null samples used in CRC calculations : Yes
Used interface : Native Win32 interface for Win NT & 2000
Gap handling : Appended to previous track

Used output format : User Defined Encoder
Selected bitrate : 896 kBit/s
Quality : High
Add ID3 tag : No
Command line compressor : C:\Exact Audio Copy\FLAC\FLAC.EXE
Additional command line options : -8 -V -T "ARTIST=%artist%" -T "TITLE=%title%" -T "ALBUM=%albumtitle%" -T "DATE=%year%" -T "TRACKNUMBER=%tracknr%" -T "TOTALTRACKS=%numtracks%" -T "GENRE=%genre%" -T "ALBUMARTIST=%albumartist%" -T "ALBUM ARTIST=%albumartist%" -T "COMMENT=EAC Secure Mode, Test & Copy, AccurateRip, FLAC -8" %source%


TOC of the extracted CD

Track | Start | Length | Start sector | End sector
––––––––––––––––––––––––––––-
1 | 0:00.00 | 2:48.58 | 0 | 12657
2 | 2:48.58 | 2:34.40 | 12658 | 24247
3 | 5:23.23 | 3:12.24 | 24248 | 38671
4 | 8:35.47 | 1:50.64 | 38672 | 46985
5 | 10:26.36 | 2:54.64 | 46986 | 60099
6 | 13:21.25 | 2:28.11 | 60100 | 71210
7 | 15:49.36 | 1:49.60 | 71211 | 79445


Track 1

Filename E:\01 - Child Of Midnight.wav

Pre-gap length 0:00:02.00

Peak level 94.6 %
Extraction speed 0.9 X
Track quality 100.0 %
Test CRC 08654DCD
Copy CRC 08654DCD
Accurately ripped (confidence 7) [400A832F] (AR v2)
Copy OK

Track 2

Filename E:\02 - Marianne.wav

Pre-gap length 0:00:01.74

Peak level 97.9 %
Extraction speed 1.0 X
Track quality 100.0 %
Test CRC 201A7AFE
Copy CRC 201A7AFE
Accurately ripped (confidence 7) [95CF7C96] (AR v2)
Copy OK

Track 3

Filename E:\03 - Railroads And Riverboats.wav

Pre-gap length 0:00:01.74

Peak level 93.7 %
Extraction speed 1.1 X
Track quality 100.0 %
Test CRC 5CEC3315
Copy CRC 5CEC3315
Accurately ripped (confidence 7) [DACDB88A] (AR v2)
Copy OK

Track 4

Filename E:\04 - Hard Times Are Over.wav

Pre-gap length 0:00:01.74

Peak level 95.4 %
Extraction speed 0.8 X
Track quality 99.9 %
Test CRC 29BA43F5
Copy CRC 29BA43F5
Accurately ripped (confidence 7) [34C671FC] (AR v2)
Copy OK

Track 5

Filename E:\05 - The Railroad Song.wav

Pre-gap length 0:00:01.74

Peak level 97.9 %
Extraction speed 1.2 X
Track quality 100.0 %
Test CRC 4A82E2A0
Copy CRC 4A82E2A0
Accurately ripped (confidence 7) [0B887F27] (AR v2)
Copy OK

Track 6

Filename E:\06 - Maybe Tomorrow.wav

Pre-gap length 0:00:01.74

Peak level 89.4 %
Extraction speed 1.2 X
Track quality 100.0 %
Test CRC EFF3E290
Copy CRC EFF3E290
Accurately ripped (confidence 7) [6638E89B] (AR v2)
Copy OK

Track 7

Filename E:\07 - Pa (Song For A Grandfather).wav

Pre-gap length 0:00:01.74

Peak level 84.5 %
Extraction speed 1.2 X
Track quality 100.0 %
Test CRC 682601AA
Copy CRC 682601AA
Accurately ripped (confidence 7) [CE1E7754] (AR v2)
Copy OK


All tracks accurately ripped

No errors occurred

End of status report

==== Log checksum E4519B973888D8EADFBB2613035668F274D42333A919A4A867819D33DCF7BF1D ====
Exact Audio Copy V1.3 from 2. September 2016

EAC extraction logfile from 14. May 2017, 21:09

Jim Croce / The Studio Album Collection - Jim and Ingrid Croce [Disc 3 of 7]

Used drive : ASUS BW-16D1HT Adapter: 1 ID: 0

Read mode : Secure
Utilize accurate stream : Yes
Defeat audio cache : Yes
Make use of C2 pointers : No

Read offset correction : 6
Overread into Lead-In and Lead-Out : No
Fill up missing offset samples with silence : Yes
Delete leading and trailing silent blocks : No
Null samples used in CRC calculations : Yes
Used interface : Native Win32 interface for Win NT & 2000
Gap handling : Appended to previous track

Used output format : User Defined Encoder
Selected bitrate : 896 kBit/s
Quality : High
Add ID3 tag : No
Command line compressor : C:\Exact Audio Copy\FLAC\FLAC.EXE
Additional command line options : -8 -V -T "ARTIST=%artist%" -T "TITLE=%title%" -T "ALBUM=%albumtitle%" -T "DATE=%year%" -T "TRACKNUMBER=%tracknr%" -T "TOTALTRACKS=%numtracks%" -T "GENRE=%genre%" -T "ALBUMARTIST=%albumartist%" -T "ALBUM ARTIST=%albumartist%" -T "COMMENT=EAC Secure Mode, Test & Copy, AccurateRip, FLAC -8" %source%


TOC of the extracted CD

Track | Start | Length | Start sector | End sector
––––––––––––––––––––––––––––-
1 | 0:00.00 | 2:14.02 | 0 | 10051
2 | 2:14.02 | 2:45.44 | 10052 | 22470
3 | 4:59.46 | 2:30.15 | 22471 | 33735
4 | 7:29.61 | 1:54.27 | 33736 | 42312
5 | 9:24.13 | 2:28.71 | 42313 | 53483
6 | 11:53.09 | 1:56.11 | 53484 | 62194
7 | 13:49.20 | 1:49.27 | 62195 | 70396
8 | 15:38.47 | 2:37.04 | 70397 | 82175
9 | 18:15.51 | 3:04.44 | 82176 | 96019
10 | 21:20.20 | 3:10.40 | 96020 | 110309
11 | 24:30.60 | 2:52.40 | 110310 | 123249


Track 1

Filename E:\01 - Age.wav

Pre-gap length 0:00:02.00

Peak level 98.8 %
Extraction speed 0.9 X
Track quality 100.0 %
Test CRC B316DA96
Copy CRC B316DA96
Accurately ripped (confidence 7) [70A3335B] (AR v2)
Copy OK

Track 2

Filename E:\02 - Spin, Spin, Spin.wav

Pre-gap length 0:00:01.74

Peak level 96.8 %
Extraction speed 1.0 X
Track quality 100.0 %
Test CRC 7F7F76F3
Copy CRC 7F7F76F3
Accurately ripped (confidence 7) [072C653E] (AR v2)
Copy OK

Track 3

Filename E:\03 - I Am Who I Am.wav

Pre-gap length 0:00:01.74

Peak level 94.1 %
Extraction speed 1.1 X
Track quality 100.0 %
Test CRC EE801836
Copy CRC EE801836
Accurately ripped (confidence 7) [C80E17B0] (AR v2)
Copy OK

Track 4

Filename E:\04 - What Do People Do.wav

Pre-gap length 0:00:01.74

Peak level 97.2 %
Extraction speed 1.0 X
Track quality 100.0 %
Test CRC FDA99A24
Copy CRC FDA99A24
Accurately ripped (confidence 7) [84B1EE42] (AR v2)
Copy OK

Track 5

Filename E:\05 - Another Day, Another Town.wav

Pre-gap length 0:00:01.74

Peak level 94.3 %
Extraction speed 1.2 X
Track quality 100.0 %
Test CRC 23C5186C
Copy CRC 23C5186C
Accurately ripped (confidence 7) [8D9898E9] (AR v2)
Copy OK

Track 6

Filename E:\06 - Vespers.wav

Pre-gap length 0:00:01.74

Peak level 92.0 %
Extraction speed 1.1 X
Track quality 100.0 %
Test CRC E67D77A3
Copy CRC E67D77A3
Accurately ripped (confidence 7) [EA3E1C78] (AR v2)
Copy OK

Track 7

Filename E:\07 - Big Wheel.wav

Pre-gap length 0:00:01.74

Peak level 98.8 %
Extraction speed 1.2 X
Track quality 100.0 %
Test CRC D5989A65
Copy CRC D5989A65
Accurately ripped (confidence 7) [B5491792] (AR v2)
Copy OK

Track 8

Filename E:\08 - Just Another Day.wav

Pre-gap length 0:00:01.74

Peak level 97.3 %
Extraction speed 1.1 X
Track quality 99.9 %
Test CRC 9856BCB5
Copy CRC 9856BCB5
Accurately ripped (confidence 7) [2B99CD37] (AR v2)
Copy OK

Track 9

Filename E:\09 - The Next Man That I Marry.wav

Pre-gap length 0:00:01.74

Peak level 96.6 %
Extraction speed 1.2 X
Track quality 99.9 %
Test CRC 22F4CA65
Copy CRC 22F4CA65
Accurately ripped (confidence 7) [952BA6C2] (AR v2)
Copy OK

Track 10

Filename E:\10 - What The Hell.wav

Pre-gap length 0:00:01.74

Peak level 98.5 %
Extraction speed 1.3 X
Track quality 99.9 %
Test CRC 72587563
Copy CRC 72587563
Accurately ripped (confidence 7) [455E6BCF] (AR v2)
Copy OK

Track 11

Filename E:\11 - The Man That Is Me.wav

Pre-gap length 0:00:01.74

Peak level 97.2 %
Extraction speed 1.5 X
Track quality 100.0 %
Test CRC 84766AA5
Copy CRC 84766AA5
Accurately ripped (confidence 7) [DCB9CE88] (AR v2)
Copy OK


All tracks accurately ripped

No errors occurred

End of status report

==== Log checksum FEFE2A9065DAD07DAAFD059E49092230CBCF381B842968D872A2EA8D88373702 ====
Exact Audio Copy V1.3 from 2. September 2016

EAC extraction logfile from 15. May 2017, 8:42

Jim Croce / The Studio Album Collection - You Don't Mess Around With Jim [Disc 4 of 7]

Used drive : ASUS BW-16D1HT Adapter: 1 ID: 0

Read mode : Secure
Utilize accurate stream : Yes
Defeat audio cache : Yes
Make use of C2 pointers : No

Read offset correction : 6
Overread into Lead-In and Lead-Out : No
Fill up missing offset samples with silence : Yes
Delete leading and trailing silent blocks : No
Null samples used in CRC calculations : Yes
Used interface : Native Win32 interface for Win NT & 2000
Gap handling : Appended to previous track

Used output format : User Defined Encoder
Selected bitrate : 896 kBit/s
Quality : High
Add ID3 tag : No
Command line compressor : C:\Exact Audio Copy\FLAC\FLAC.EXE
Additional command line options : -8 -V -T "ARTIST=%artist%" -T "TITLE=%title%" -T "ALBUM=%albumtitle%" -T "DATE=%year%" -T "TRACKNUMBER=%tracknr%" -T "TOTALTRACKS=%numtracks%" -T "GENRE=%genre%" -T "ALBUMARTIST=%albumartist%" -T "ALBUM ARTIST=%albumartist%" -T "COMMENT=EAC Secure Mode, Test & Copy, AccurateRip, FLAC -8" %source%


TOC of the extracted CD

Track | Start | Length | Start sector | End sector
––––––––––––––––––––––––––––-
1 | 0:00.00 | 3:02.70 | 0 | 13719
2 | 3:02.70 | 2:53.62 | 13720 | 26756
3 | 5:56.57 | 3:08.73 | 26757 | 40929
4 | 9:05.55 | 2:28.10 | 40930 | 52039
5 | 11:33.65 | 2:08.01 | 52040 | 61640
6 | 13:41.66 | 2:53.42 | 61641 | 74657
7 | 16:35.33 | 3:49.33 | 74658 | 91865
8 | 20:24.66 | 2:28.08 | 91866 | 102973
9 | 22:52.74 | 2:46.27 | 102974 | 115450
10 | 25:39.26 | 2:27.40 | 115451 | 126515
11 | 28:06.66 | 2:22.33 | 126516 | 137198
12 | 30:29.24 | 2:43.10 | 137199 | 149433


Track 1

Filename E:\01 - You Don't Mess Around With Jim.wav

Pre-gap length 0:00:02.00

Peak level 82.2 %
Extraction speed 0.8 X
Track quality 99.9 %
Test CRC C1CCA40A
Copy CRC C1CCA40A
Accurately ripped (confidence 7) [F90D5354] (AR v2)
Copy OK

Track 2

Filename E:\02 - Tomorrow's Gonna Be A Brighter Day.wav

Pre-gap length 0:00:03.00

Peak level 83.2 %
Extraction speed 1.0 X
Track quality 100.0 %
Test CRC AEAC988A
Copy CRC AEAC988A
Accurately ripped (confidence 7) [21DDD4B6] (AR v2)
Copy OK

Track 3

Filename E:\03 - New York's Not My Home.wav

Pre-gap length 0:00:03.00

Peak level 81.9 %
Extraction speed 1.1 X
Track quality 100.0 %
Test CRC 3A861887
Copy CRC 3A861887
Accurately ripped (confidence 7) [200A9A81] (AR v2)
Copy OK

Track 4

Filename E:\04 - Hard Time Losin' Man.wav

Pre-gap length 0:00:03.00

Peak level 84.2 %
Extraction speed 1.1 X
Track quality 100.0 %
Test CRC A94B94A0
Copy CRC A94B94A0
Accurately ripped (confidence 7) [987BCA8D] (AR v2)
Copy OK

Track 5

Filename E:\05 - Photographs And Memories.wav

Pre-gap length 0:00:03.00

Peak level 77.2 %
Extraction speed 1.2 X
Track quality 100.0 %
Test CRC B59B3634
Copy CRC B59B3634
Accurately ripped (confidence 7) [E83A5E82] (AR v2)
Copy OK

Track 6

Filename E:\06 - Walkin' Back To Georgia.wav

Pre-gap length 0:00:03.00

Peak level 81.9 %
Extraction speed 1.3 X
Track quality 100.0 %
Test CRC 52D32010
Copy CRC 52D32010
Accurately ripped (confidence 7) [BFD0E212] (AR v2)
Copy OK

Track 7

Filename E:\07 - Operator (That's Not The Way It Feels).wav

Pre-gap length 0:00:03.00

Peak level 82.8 %
Extraction speed 1.4 X
Track quality 100.0 %
Test CRC 75CE86D8
Copy CRC 75CE86D8
Accurately ripped (confidence 7) [CF3791DF] (AR v2)
Copy OK

Track 8

Filename E:\08 - Time In A Bottle.wav

Pre-gap length 0:00:03.00

Peak level 74.6 %
Extraction speed 1.4 X
Track quality 100.0 %
Test CRC D3EC57C7
Copy CRC D3EC57C7
Accurately ripped (confidence 7) [184AEA1D] (AR v2)
Copy OK

Track 9

Filename E:\09 - Rapid Roy (The Stock Car Boy).wav

Pre-gap length 0:00:03.00

Peak level 90.0 %
Extraction speed 1.8 X
Track quality 99.9 %
Test CRC A59955DD
Copy CRC A59955DD
Accurately ripped (confidence 7) [37056C75] (AR v2)
Copy OK

Track 10

Filename E:\10 - Box No. 10.wav

Pre-gap length 0:00:03.00

Peak level 84.7 %
Extraction speed 1.5 X
Track quality 100.0 %
Test CRC 5788E68F
Copy CRC 5788E68F
Accurately ripped (confidence 7) [17C74767] (AR v2)
Copy OK

Track 11

Filename E:\11 - A Long Time Ago.wav

Pre-gap length 0:00:03.00

Peak level 78.0 %
Extraction speed 1.2 X
Track quality 99.9 %
Test CRC 236A5865
Copy CRC 236A5865
Accurately ripped (confidence 7) [39A2658C] (AR v2)
Copy OK

Track 12

Filename E:\12 - Hey Tomorrow.wav

Pre-gap length 0:00:03.00

Peak level 76.5 %
Extraction speed 1.6 X
Track quality 100.0 %
Test CRC 18735B8D
Copy CRC 18735B8D
Accurately ripped (confidence 7) [0F07B042] (AR v2)
Copy OK


All tracks accurately ripped

No errors occurred

End of status report

==== Log checksum B43E7C8C4681A16DDF93D2DE8AA037AB7A3D7EEFAFA310071C18A91D83E1D821 ====
Exact Audio Copy V1.3 from 2. September 2016

EAC extraction logfile from 16. May 2017, 8:00

Jim Croce / The Studio Album Collection - Life and Times [Disc 5 of 7]

Used drive : ASUS BW-16D1HT Adapter: 1 ID: 0

Read mode : Secure
Utilize accurate stream : Yes
Defeat audio cache : Yes
Make use of C2 pointers : No

Read offset correction : 6
Overread into Lead-In and Lead-Out : No
Fill up missing offset samples with silence : Yes
Delete leading and trailing silent blocks : No
Null samples used in CRC calculations : Yes
Used interface : Native Win32 interface for Win NT & 2000
Gap handling : Appended to previous track

Used output format : User Defined Encoder
Selected bitrate : 896 kBit/s
Quality : High
Add ID3 tag : No
Command line compressor : C:\Exact Audio Copy\FLAC\FLAC.EXE
Additional command line options : -8 -V -T "ARTIST=%artist%" -T "TITLE=%title%" -T "ALBUM=%albumtitle%" -T "DATE=%year%" -T "TRACKNUMBER=%tracknr%" -T "TOTALTRACKS=%numtracks%" -T "GENRE=%genre%" -T "ALBUMARTIST=%albumartist%" -T "ALBUM ARTIST=%albumartist%" -T "COMMENT=EAC Secure Mode, Test & Copy, AccurateRip, FLAC -8" %source%


TOC of the extracted CD

Track | Start | Length | Start sector | End sector
––––––––––––––––––––––––––––-
1 | 0:00.00 | 2:47.49 | 0 | 12573
2 | 2:47.49 | 3:30.31 | 12574 | 28354
3 | 6:18.05 | 2:40.61 | 28355 | 40415
4 | 8:58.66 | 2:24.29 | 40416 | 51244
5 | 11:23.20 | 2:13.45 | 51245 | 61264
6 | 13:36.65 | 2:06.03 | 61265 | 70717
7 | 15:42.68 | 2:54.35 | 70718 | 83802
8 | 18:37.28 | 3:02.21 | 83803 | 97473
9 | 21:39.49 | 3:13.25 | 97474 | 111973
10 | 24:52.74 | 2:26.74 | 111974 | 122997
11 | 27:19.73 | 2:31.39 | 122998 | 134361


Track 1

Filename E:\01 - One Less Set Of Footsteps.wav

Pre-gap length 0:00:02.00

Peak level 77.0 %
Extraction speed 0.8 X
Track quality 99.9 %
Test CRC BBFB8ABD
Copy CRC BBFB8ABD
Accurately ripped (confidence 6) [4A2575ED] (AR v2)
Copy OK

Track 2

Filename E:\02 - Roller Derby Queen.wav

Pre-gap length 0:00:02.06

Peak level 87.0 %
Extraction speed 1.1 X
Track quality 100.0 %
Test CRC 5C18BA9F
Copy CRC 5C18BA9F
Accurately ripped (confidence 6) [DC06398E] (AR v2)
Copy OK

Track 3

Filename E:\03 - Dreamin' Again.wav

Pre-gap length 0:00:02.07

Peak level 71.9 %
Extraction speed 1.1 X
Track quality 100.0 %
Test CRC FA2FC3D4
Copy CRC FA2FC3D4
Accurately ripped (confidence 6) [E600B6EA] (AR v2)
Copy OK

Track 4

Filename E:\04 - Careful Man.wav

Pre-gap length 0:00:01.47

Peak level 74.6 %
Extraction speed 0.9 X
Track quality 99.9 %
Test CRC 869A9111
Copy CRC 869A9111
Accurately ripped (confidence 6) [67EEB42A] (AR v2)
Copy OK

Track 5

Filename E:\05 - Alabama Rain.wav

Pre-gap length 0:00:02.47

Peak level 72.7 %
Extraction speed 1.2 X
Track quality 100.0 %
Test CRC 63D57A3C
Copy CRC 63D57A3C
Accurately ripped (confidence 6) [94903E5C] (AR v2)
Copy OK

Track 6

Filename E:\06 - A Good Time Man Like Me Ain't Got No Business (Singing The Blues).wav

Pre-gap length 0:00:01.49

Peak level 70.8 %
Extraction speed 1.2 X
Track quality 100.0 %
Test CRC F27CBA64
Copy CRC F27CBA64
Accurately ripped (confidence 6) [10F7EB7B] (AR v2)
Copy OK

Track 7

Filename E:\07 - Next Time, This Time.wav

Pre-gap length 0:00:02.67

Peak level 73.2 %
Extraction speed 1.3 X
Track quality 100.0 %
Test CRC 526CCDD4
Copy CRC 526CCDD4
Accurately ripped (confidence 6) [B745A56E] (AR v2)
Copy OK

Track 8

Filename E:\08 - Bad, Bad Leroy Brown.wav

Pre-gap length 0:00:02.48

Peak level 81.1 %
Extraction speed 1.2 X
Track quality 99.9 %
Test CRC 6782C020
Copy CRC 6782C020
Accurately ripped (confidence 6) [5E6CFA91] (AR v2)
Copy OK

Track 9

Filename E:\09 - These Dreams.wav

Pre-gap length 0:00:02.61

Peak level 68.9 %
Extraction speed 1.5 X
Track quality 100.0 %
Test CRC ED9C0FFE
Copy CRC ED9C0FFE
Accurately ripped (confidence 6) [EF63F5C3] (AR v2)
Copy OK

Track 10

Filename E:\10 - Speedball Tucker.wav

Pre-gap length 0:00:02.12

Peak level 86.0 %
Extraction speed 1.5 X
Track quality 100.0 %
Test CRC F39ECC85
Copy CRC F39ECC85
Accurately ripped (confidence 6) [10CAC320] (AR v2)
Copy OK

Track 11

Filename E:\11 - It Doesn't Have To Be That Way.wav

Pre-gap length 0:00:02.32

Peak level 73.7 %
Extraction speed 1.5 X
Track quality 100.0 %
Test CRC D51E62C7
Copy CRC D51E62C7
Accurately ripped (confidence 6) [11C828BE] (AR v2)
Copy OK


All tracks accurately ripped

No errors occurred

End of status report

==== Log checksum A9449DE10D29735FAFA47EF67E6C5D2C6655E483246567EDFC6B448EFD3EBB78 ====
Exact Audio Copy V1.3 from 2. September 2016

EAC extraction logfile from 16. May 2017, 17:26

Jim Croce / The Studio Album Collection - I Got a Name [Disc 6 of 7]

Used drive : ASUS BW-16D1HT Adapter: 1 ID: 0

Read mode : Secure
Utilize accurate stream : Yes
Defeat audio cache : Yes
Make use of C2 pointers : No

Read offset correction : 6
Overread into Lead-In and Lead-Out : No
Fill up missing offset samples with silence : Yes
Delete leading and trailing silent blocks : No
Null samples used in CRC calculations : Yes
Used interface : Native Win32 interface for Win NT & 2000
Gap handling : Appended to previous track

Used output format : User Defined Encoder
Selected bitrate : 896 kBit/s
Quality : High
Add ID3 tag : No
Command line compressor : C:\Exact Audio Copy\FLAC\FLAC.EXE
Additional command line options : -8 -V -T "ARTIST=%artist%" -T "TITLE=%title%" -T "ALBUM=%albumtitle%" -T "DATE=%year%" -T "TRACKNUMBER=%tracknr%" -T "TOTALTRACKS=%numtracks%" -T "GENRE=%genre%" -T "ALBUMARTIST=%albumartist%" -T "ALBUM ARTIST=%albumartist%" -T "COMMENT=EAC Secure Mode, Test & Copy, AccurateRip, FLAC -8" %source%


TOC of the extracted CD

Track | Start | Length | Start sector | End sector
––––––––––––––––––––––––––––-
1 | 0:00.00 | 3:12.55 | 0 | 14454
2 | 3:12.55 | 3:04.63 | 14455 | 28317
3 | 6:17.43 | 3:35.07 | 28318 | 44449
4 | 9:52.50 | 3:49.40 | 44450 | 61664
5 | 13:42.15 | 2:36.34 | 61665 | 73398
6 | 16:18.49 | 2:32.55 | 73399 | 84853
7 | 18:51.29 | 2:34.17 | 84854 | 96420
8 | 21:25.46 | 2:28.61 | 96421 | 107581
9 | 23:54.32 | 2:50.29 | 107582 | 120360
10 | 26:44.61 | 2:35.68 | 120361 | 132053
11 | 29:20.54 | 2:26.38 | 132054 | 143041


Track 1

Filename E:\01 - I Got A Name.wav

Pre-gap length 0:00:02.00

Peak level 98.8 %
Extraction speed 1.0 X
Track quality 100.0 %
Test CRC 28C2002F
Copy CRC 28C2002F
Accurately ripped (confidence 5) [DA4B39A2] (AR v2)
Copy OK

Track 2

Filename E:\02 - Lover's Cross.wav

Pre-gap length 0:00:01.73

Peak level 98.8 %
Extraction speed 1.1 X
Track quality 100.0 %
Test CRC 0F6673BE
Copy CRC 0F6673BE
Accurately ripped (confidence 5) [30429A2E] (AR v2)
Copy OK

Track 3

Filename E:\03 - Five Short Minutes.wav

Pre-gap length 0:00:02.74

Peak level 98.8 %
Extraction speed 1.0 X
Track quality 99.9 %
Test CRC 857723FA
Copy CRC 857723FA
Accurately ripped (confidence 5) [6F09F2BA] (AR v2)
Copy OK

Track 4

Filename E:\04 - Age.wav

Pre-gap length 0:00:03.04

Peak level 98.8 %
Extraction speed 1.3 X
Track quality 100.0 %
Test CRC 2D8A01F6
Copy CRC 2D8A01F6
Accurately ripped (confidence 5) [36469332] (AR v2)
Copy OK

Track 5

Filename E:\05 - Workin' At The Car Wash Blues.wav

Pre-gap length 0:00:03.42

Peak level 98.8 %
Extraction speed 1.3 X
Track quality 100.0 %
Test CRC 2EC2F790
Copy CRC 2EC2F790
Accurately ripped (confidence 5) [8297316E] (AR v2)
Copy OK

Track 6

Filename E:\06 - I'll Have To Say I Love You In A Song.wav

Pre-gap length 0:00:03.39

Peak level 98.8 %
Extraction speed 1.1 X
Track quality 99.9 %
Test CRC CC0F210A
Copy CRC CC0F210A
Accurately ripped (confidence 5) [E2D620CB] (AR v2)
Copy OK

Track 7

Filename E:\07 - Salon And Saloon.wav

Pre-gap length 0:00:02.53

Peak level 94.7 %
Extraction speed 1.4 X
Track quality 100.0 %
Test CRC 57D53244
Copy CRC 57D53244
Accurately ripped (confidence 5) [6683A518] (AR v2)
Copy OK

Track 8

Filename E:\08 - Thursday.wav

Pre-gap length 0:00:02.58

Peak level 98.8 %
Extraction speed 1.4 X
Track quality 100.0 %
Test CRC F678028C
Copy CRC F678028C
Accurately ripped (confidence 5) [9270439E] (AR v2)
Copy OK

Track 9

Filename E:\09 - Top Hat Bar And Grille.wav

Pre-gap length 0:00:02.37

Peak level 98.8 %
Extraction speed 1.5 X
Track quality 100.0 %
Test CRC 8D6C2E4E
Copy CRC 8D6C2E4E
Accurately ripped (confidence 5) [3B3A7736] (AR v2)
Copy OK

Track 10

Filename E:\10 - Recently.wav

Pre-gap length 0:00:02.42

Peak level 97.9 %
Extraction speed 1.5 X
Track quality 100.0 %
Test CRC 55431639
Copy CRC 55431639
Accurately ripped (confidence 5) [3ACE6FD1] (AR v2)
Copy OK

Track 11

Filename E:\11 - The Hard Way Every Time.wav

Pre-gap length 0:00:03.06

Peak level 98.8 %
Extraction speed 1.5 X
Track quality 100.0 %
Test CRC 6D0BC8DD
Copy CRC 6D0BC8DD
Accurately ripped (confidence 5) [0F297DBA] (AR v2)
Copy OK


All tracks accurately ripped

No errors occurred

End of status report

==== Log checksum B778A0D9D05B3022055F61866CDFC6B79006E88793BE437ADD1E75AAF4AA2AA8 ====
Exact Audio Copy V1.3 from 2. September 2016

EAC extraction logfile from 16. May 2017, 18:27

Jim Croce / The Studio Album Collection - The Lost Recordings [Disc 7 of 7]

Used drive : ASUS BW-16D1HT Adapter: 1 ID: 0

Read mode : Secure
Utilize accurate stream : Yes
Defeat audio cache : Yes
Make use of C2 pointers : No

Read offset correction : 6
Overread into Lead-In and Lead-Out : No
Fill up missing offset samples with silence : Yes
Delete leading and trailing silent blocks : No
Null samples used in CRC calculations : Yes
Used interface : Native Win32 interface for Win NT & 2000
Gap handling : Appended to previous track

Used output format : User Defined Encoder
Selected bitrate : 896 kBit/s
Quality : High
Add ID3 tag : No
Command line compressor : C:\Exact Audio Copy\FLAC\FLAC.EXE
Additional command line options : -8 -V -T "ARTIST=%artist%" -T "TITLE=%title%" -T "ALBUM=%albumtitle%" -T "DATE=%year%" -T "TRACKNUMBER=%tracknr%" -T "TOTALTRACKS=%numtracks%" -T "GENRE=%genre%" -T "ALBUMARTIST=%albumartist%" -T "ALBUM ARTIST=%albumartist%" -T "COMMENT=EAC Secure Mode, Test & Copy, AccurateRip, FLAC -8" %source%


TOC of the extracted CD

Track | Start | Length | Start sector | End sector
––––––––––––––––––––––––––––-
1 | 0:00.00 | 2:42.59 | 0 | 12208
2 | 2:42.59 | 2:49.53 | 12209 | 24936
3 | 5:32.37 | 2:36.70 | 24937 | 36706
4 | 8:09.32 | 2:45.72 | 36707 | 49153
5 | 10:55.29 | 2:15.11 | 49154 | 59289
6 | 13:10.40 | 3:42.47 | 59290 | 75986
7 | 16:53.12 | 2:23.73 | 75987 | 86784
8 | 19:17.10 | 2:23.33 | 86785 | 97542
9 | 21:40.43 | 2:59.53 | 97543 | 111020
10 | 24:40.21 | 2:33.66 | 111021 | 122561
11 | 27:14.12 | 2:08.24 | 122562 | 132185
12 | 29:22.36 | 2:23.39 | 132186 | 142949


Track 1

Filename E:\01 - You Don't Mess Around Wth Jim.wav

Pre-gap length 0:00:02.00

Peak level 98.8 %
Extraction speed 0.9 X
Track quality 100.0 %
Test CRC F908F7A7
Copy CRC F908F7A7
Accurately ripped (confidence 7) [168E8E54] (AR v2)
Copy OK

Track 2

Filename E:\02 - New York's Not My Home.wav

Pre-gap length 0:00:01.74

Peak level 98.8 %
Extraction speed 1.0 X
Track quality 100.0 %
Test CRC 87EC221A
Copy CRC 87EC221A
Accurately ripped (confidence 7) [8BCD660F] (AR v2)
Copy OK

Track 3

Filename E:\03 - Tomorrow's Gonna Be A Brighter Day.wav

Pre-gap length 0:00:01.74

Peak level 98.8 %
Extraction speed 1.1 X
Track quality 100.0 %
Test CRC AECB493D
Copy CRC AECB493D
Accurately ripped (confidence 7) [B93E09CB] (AR v2)
Copy OK

Track 4

Filename E:\04 - Walkin' Back To Georgia.wav

Pre-gap length 0:00:01.74

Peak level 98.8 %
Extraction speed 1.2 X
Track quality 100.0 %
Test CRC 019F3898
Copy CRC 019F3898
Accurately ripped (confidence 7) [47BE18B4] (AR v2)
Copy OK

Track 5

Filename E:\05 - Hard Time Losin' Man.wav

Pre-gap length 0:00:01.74

Peak level 98.8 %
Extraction speed 1.2 X
Track quality 100.0 %
Test CRC 3EB9A03C
Copy CRC 3EB9A03C
Accurately ripped (confidence 7) [7064D8AC] (AR v2)
Copy OK

Track 6

Filename E:\06 - Operator.wav

Pre-gap length 0:00:01.74

Peak level 98.8 %
Extraction speed 1.3 X
Track quality 100.0 %
Test CRC B8B0B9C8
Copy CRC B8B0B9C8
Accurately ripped (confidence 7) [0E383BC4] (AR v2)
Copy OK

Track 7

Filename E:\07 - Time In A Bottle.wav

Pre-gap length 0:00:01.74

Peak level 74.4 %
Extraction speed 1.3 X
Track quality 100.0 %
Test CRC CCCA93DA
Copy CRC CCCA93DA
Accurately ripped (confidence 7) [BE15B495] (AR v2)
Copy OK

Track 8

Filename E:\08 - Seems Like Such A Long Time Ago.wav

Pre-gap length 0:00:01.74

Peak level 98.8 %
Extraction speed 1.1 X
Track quality 99.9 %
Test CRC 87B9486C
Copy CRC 87B9486C
Accurately ripped (confidence 7) [2F9D9FDC] (AR v2)
Copy OK

Track 9

Filename E:\09 - Mississippi Lady.wav

Pre-gap length 0:00:01.74

Peak level 82.2 %
Extraction speed 1.5 X
Track quality 100.0 %
Test CRC E5751E40
Copy CRC E5751E40
Accurately ripped (confidence 7) [AC9CC104] (AR v2)
Copy OK

Track 10

Filename E:\10 - These Dreams.wav

Pre-gap length 0:00:01.74

Peak level 98.8 %
Extraction speed 1.5 X
Track quality 100.0 %
Test CRC FEE24F23
Copy CRC FEE24F23
Accurately ripped (confidence 7) [9B1B7915] (AR v2)
Copy OK

Track 11

Filename E:\11 - A Good Time Man Like Me Ain't Got No Business (Singin' The Blues).wav

Pre-gap length 0:00:01.74

Peak level 98.8 %
Extraction speed 1.5 X
Track quality 100.0 %
Test CRC A01C3A84
Copy CRC A01C3A84
Accurately ripped (confidence 7) [92865C42] (AR v2)
Copy OK

Track 12

Filename E:\12 - Lover's Cross.wav

Pre-gap length 0:00:01.74

Peak level 85.2 %
Extraction speed 1.5 X
Track quality 100.0 %
Test CRC A1F01264
Copy CRC A1F01264
Accurately ripped (confidence 7) [98B49296] (AR v2)
Copy OK


All tracks accurately ripped

No errors occurred

End of status report

==== Log checksum 90D15F8B441CD71FAA638BAB18722A5F74A43D67EF3BE5FBF71176032B2B17FC ====


Jim Croce - The Studio Album Collection (1966-1973) {7 CD Box Set Limited Edition Edsel Records CROCEBOX01 rel 2015}


see also:
Jim Croce - 24 karat Gold In A Bottle (1972-73) {DCC Compact Classics ‎GZS-1060 rel 1994}



===