Subcategories

Joe Tex - Bumps & Bruises (1977) {2013 Remastered & Expanded - Big Break Records CDBBR 0247}

Posted By: ruskaval
Joe Tex - Bumps & Bruises (1977) {2013 Remastered & Expanded - Big Break Records CDBBR 0247}

Joe Tex - Bumps & Bruises (1977) {2013 Remastered & Expanded - Big Break Records CDBBR 0247}
EAC rip (secure mode) | FLAC (tracks)+CUE+LOG -> 330 Mb | MP3 @320 -> 111 Mb
Full Artwork @ 300 dpi (png) -> 79 Mb | 5% repair rar
© 1977, 2013 Epic / Big Break Records | CDBBR 0247
R&B / Soul / Funk / Disco / Southern Soul

· Joe Tex (born Joseph Arrington, Jr. in Rogers, Texas) was one of Southern Soul’s most uncompromising performers blending gospel, country and rhythm & blues into his repertoire. After winning several revues at the famed Apollo Theatre Tex signed to King Records, in 1955 and recorded a succession of singles for the label from ballads to rockers. A session at Muscle Shoals in 1964, with the singer now signed to the Dial label, produced Tex’s first R&B #1 with the straight ahead R&B ballad ‘Hold What You’ve Got.’ Over the next 10 years Tex racked up numerous R&B and Pop hits including arguably his most well-known song ‘Skinny Legs And All’ in 1967 (R&B #2) and ‘I Gotcha,’ his fourth R&B #1 in 1972.

· BUMPS & BRUISES was the first album Tex recorded for Epic Records and was released in 1977 as the Disco era was gaining a powerful momentum. Tex very cleverly, and with hilarious results, adapted one of the Disco era’s new dance crazes, The Bump, and came up with another crossover hit, ‘Ain’t Gonna Bump No More (With No Big Fat Woman),’ (R&B #7/Pop #12 / UK #2). Tex injects his down-home funky style into the disco realm while playfully proclaiming his reluctance to keep dancing with the lady in question; she was clearly too much woman for him.

· ‘Hungry For Your Love’ was the second single from the album and reached a modest #84 on the R&B charts. Tex delivers a passionate, yearning vocal on this southern style, gospel tinged ballad. This album is much more rooted in the raw R&B and Funk that Tex had become famed for rather than the hint of what the opening track may suggest. From mid-tempo cuts like "Leaving You Dinner” to ballads like ‘I Almost Got To Heaven Once’ through to propulsive funk grooves like ‘I Mess Up Everything I Get My Hands On’, Tex is in fine form throughout proving his raw style could compete with the shiny and slick new sounds in the late 1970’s.

· Before sadly passing away in 1982 Tex reformed The Soul Clan with Wilson Pickett, Ben E. King and Don Covay in 1980, showing how well respected his career had been amongst his peers.

· BBR is very proud to bring you BUMPS & BRUISES, completely remastered and repackaged complete with extensive liner notes and extended bonus content. A must have for all Funk, Soul and Disco fans!
Joe Tex - Bumps & Bruises (1977) {2013 Remastered & Expanded - Big Break Records CDBBR 0247}


Track Listing

1. AIN’T GONNA BUMP NO MORE
2. LEAVING YOU DINNER
3. BE COOL (WILLIE IS DANCING WITH A CISSY)
4. I MESS UP EVERYTHING I GET MY HANDS ON
5. WE HELD ON
6. I ALMOST GOT TO HEAVEN ONCE
7. HUNGRY FOR YOUR LOVE
8. JUMP BAD
9. THERE’S SOMETHING WRONG

BONUS TRACKS
10. AIN’T GONNA BUMP NO MORE (WITH NO BIG FAT WOMAN) (Single Version)
11. HUNGRY FOR YOUR LOVE (Single Version)
12. WE HELD ON (Single Version)

Exact Audio Copy V1.0 beta 3 from 29. August 2011

EAC extraction logfile from 7. July 2014, 23:15

Joe Tex / Bumps & Bruises

Used drive : TSSTcorp CDDVDW Adapter: 0 ID: 0

Read mode : Secure
Utilize accurate stream : Yes
Defeat audio cache : Yes
Make use of C2 pointers : No

Read offset correction : 6
Overread into Lead-In and Lead-Out : No
Fill up missing offset samples with silence : Yes
Delete leading and trailing silent blocks : No
Null samples used in CRC calculations : Yes
Used interface : Native Win32 interface for Win NT & 2000
Gap handling : Appended to previous track

Used output format : User Defined Encoder
Selected bitrate : 128 kBit/s
Quality : High
Add ID3 tag : No
Command line compressor : C:\Program Files (x86)\Exact Audio Copy\Flac\flac.exe
Additional command line options : -8 -V -T "ARTIST=%artist%" -T "TITLE=%title%" -T "ALBUM=%albumtitle%" -T "DATE=%year%" -T "TRACKNUMBER=%tracknr%" -T "TOTALTRACKS=%numtracks%" -T "GENRE=%genre%" -T "ALBUMARTIST=%albumartist%" -T "ALBUM ARTIST=%albumartist%" -T "COMMENT=EAC Secure Mode, Test & Copy, AccurateRip, FLAC -8" %source%


TOC of the extracted CD

Track | Start | Length | Start sector | End sector
––––––––––––––––––––––––––––-
1 | 0:00.00 | 6:48.03 | 0 | 30602
2 | 6:48.03 | 3:23.15 | 30603 | 45842
3 | 10:11.18 | 5:31.09 | 45843 | 70676
4 | 15:42.27 | 3:07.46 | 70677 | 84747
5 | 18:49.73 | 3:26.21 | 84748 | 100218
6 | 22:16.19 | 3:56.70 | 100219 | 117988
7 | 26:13.14 | 4:03.58 | 117989 | 136271
8 | 30:16.72 | 3:58.48 | 136272 | 154169
9 | 34:15.45 | 2:49.23 | 154170 | 166867
10 | 37:04.68 | 3:31.20 | 166868 | 182712
11 | 40:36.13 | 3:14.23 | 182713 | 197285
12 | 43:50.36 | 2:58.69 | 197286 | 210704


Track 1

Filename C:\AddisistheGodFlac\01 - Ain't Gonna Bump No More (With No Big Fat Woman).wav

Pre-gap length 0:00:02.00

Peak level 96.6 %
Extraction speed 2.6 X
Track quality 99.9 %
Test CRC EFAEB22B
Copy CRC EFAEB22B
Accurately ripped (confidence 1) [B15422A3] (AR v2)
Copy OK

Track 2

Filename C:\AddisistheGodFlac\02 - Leaving You Dinner.wav

Pre-gap length 0:00:00.61

Peak level 96.6 %
Extraction speed 2.4 X
Track quality 99.9 %
Test CRC 7D50F911
Copy CRC 7D50F911
Accurately ripped (confidence 1) [AECA3629] (AR v2)
Copy OK

Track 3

Filename C:\AddisistheGodFlac\03 - Be Cool (Willie Is Dancing With A Sissy).wav

Pre-gap length 0:00:01.12

Peak level 96.6 %
Extraction speed 3.6 X
Track quality 100.0 %
Test CRC 7CC98DD6
Copy CRC 7CC98DD6
Accurately ripped (confidence 1) [7FBBECB6] (AR v2)
Copy OK

Track 4

Filename C:\AddisistheGodFlac\04 - I Mess Up Everything I Get My Hands On.wav

Pre-gap length 0:00:01.20

Peak level 96.6 %
Extraction speed 3.5 X
Track quality 100.0 %
Test CRC C8705EF4
Copy CRC C8705EF4
Accurately ripped (confidence 1) [E0CF781B] (AR v2)
Copy OK

Track 5

Filename C:\AddisistheGodFlac\05 - We Held On.wav

Pre-gap length 0:00:00.70

Peak level 96.6 %
Extraction speed 3.7 X
Track quality 100.0 %
Test CRC D5B550B5
Copy CRC D5B550B5
Accurately ripped (confidence 1) [FC4F723A] (AR v2)
Copy OK

Track 6

Filename C:\AddisistheGodFlac\06 - I Almost Got To Heaven Once.wav

Pre-gap length 0:00:00.69

Peak level 96.6 %
Extraction speed 4.0 X
Track quality 100.0 %
Test CRC 32A17359
Copy CRC 32A17359
Accurately ripped (confidence 1) [E1E01705] (AR v2)
Copy OK

Track 7

Filename C:\AddisistheGodFlac\07 - Hungry For Your Love.wav

Pre-gap length 0:00:01.23

Peak level 96.6 %
Extraction speed 4.2 X
Track quality 100.0 %
Test CRC 5237688C
Copy CRC 5237688C
Accurately ripped (confidence 1) [F651ECF6] (AR v2)
Copy OK

Track 8

Filename C:\AddisistheGodFlac\08 - Jump Bad.wav

Pre-gap length 0:00:01.58

Peak level 96.6 %
Extraction speed 4.4 X
Track quality 100.0 %
Test CRC C6D03C98
Copy CRC C6D03C98
Accurately ripped (confidence 1) [52E13556] (AR v2)
Copy OK

Track 9

Filename C:\AddisistheGodFlac\09 - There's Something Wrong.wav

Pre-gap length 0:00:00.59

Peak level 96.6 %
Extraction speed 3.2 X
Track quality 99.9 %
Test CRC 306381ED
Copy CRC 306381ED
Accurately ripped (confidence 1) [0779F168] (AR v2)
Copy OK

Track 10

Filename C:\AddisistheGodFlac\10 - Ain't Gonna Bump No More (With No Big Fat Woman) (Single Version).wav

Pre-gap length 0:00:03.46

Peak level 96.6 %
Extraction speed 4.6 X
Track quality 100.0 %
Test CRC 65E5E320
Copy CRC 65E5E320
Accurately ripped (confidence 1) [EF3389F4] (AR v2)
Copy OK

Track 11

Filename C:\AddisistheGodFlac\11 - Hungry For Your Love (Single Version).wav

Pre-gap length 0:00:01.73

Peak level 96.6 %
Extraction speed 4.7 X
Track quality 100.0 %
Test CRC D6C46029
Copy CRC D6C46029
Accurately ripped (confidence 1) [188E3E1F] (AR v2)
Copy OK

Track 12

Filename C:\AddisistheGodFlac\12 - We Held On (Single Version).wav

Pre-gap length 0:00:01.73

Peak level 96.6 %
Extraction speed 4.7 X
Track quality 100.0 %
Test CRC DF30F382
Copy CRC DF30F382
Accurately ripped (confidence 1) [785F6C4C] (AR v2)
Copy OK


All tracks accurately ripped

No errors occurred

End of status report

==== Log checksum 064892DABB271B7A603A55E19CB1B164F9D0CBFDB8BEFD5592BC6CAC8C8E6263 ====


Joe Tex - Bumps & Bruises (1977) {2013 Remastered & Expanded - Big Break Records CDBBR 0247}

Joe Tex - Bumps & Bruises (1977) {2013 Remastered & Expanded - Big Break Records CDBBR 0247}


see more Big Break Records Remasters…


===