Tags
Language
Tags

Joe Zawinul - The Rise & Fall Of The Third Stream (1967) {2012 Japan Jazz Best Collection 1000 Series 24bit Rem WPCR-27124}

Posted By: ruskaval
Joe Zawinul - The Rise & Fall Of The Third Stream (1967) {2012 Japan Jazz Best Collection 1000 Series 24bit Rem WPCR-27124}

Joe Zawinul - The Rise & Fall Of The Third Stream (1967) {2012 Japan Jazz Best Collection 1000 Series 24bit Remaster WPCR-27124}
EAC rip (secure mode) | FLAC (tracks)+CUE+LOG -> 218 Mb | MP3 @320 -> 82 Mb
Full Artwork @ 600 dpi (png) -> 205 Mb | 5% repair rar | 24bit remaster
© 1967, 2012 Vortex / Rhino / Warner Japan / WEA | WPCR-27124 | Jazz Best Collection 1000 Series
Jazz / Hard Bop / Soul Jazz / Third Stream / Piano

Features 24 bit remastering and comes with a mini-description. Although Joe first came to big fame in the US as a funky vamper and soloist behind Cannonball Adderley's big group of the 60s, this early album as a leader has a much more mature sound than Joe's funky work with Cannon – and it rightly earns the "third stream" tag in the title through the use of an enlarged ensemble that includes cello and viola, in addition to the core group of soulful players like Jimmy Owens, Richard Davis, and Freddie Waits. William Fischer's also on the record on tenor, and many of the tracks are his own compositions, with that kind of weird off-kilter, slightly serious approach he used on other Atlantic/Vortex sessions at the time. The mix of soul and serious scoring is actually a pretty darn compelling blend – as you'll hear on tracks like "Lord, Lord, Lord", "Soul Of A Village", and "The 5th Canto".
This transitional recording sees Joe Zawinul moving from the role of jazz pianist to that of a synthesist in the broad sense of the word. The recording, made up of advanced hard bop and post bop themes, includes – with varying degrees of cohesion – passages for cello and violas. The strings never completely meld with the jazz instrumentation, but they also don't get in the way. The title suggests Zawinul sees little value in partitioning music under such headings as "Third Stream" (a rubric for the fusion of jazz and classical music). This view would be famously exemplified in the influential projects with which Zawinul would soon be involved. Zawinul sticks with acoustic piano except for "Soul of a Village", where he improvises in a soul-jazz vein on Fender Rhodes over the tamboura-like droning of a prepared piano. On other tracks, his playing is similar to the sweeping grandeur of McCoy Tyner. Elsewhere, he is in more of a Keith Jarrett or Bill Evans space. There's good work from Jimmy Owens on trumpet and William Fischer on tenor sax, along with a top-flight rhythm section comprising bassist Richard Davis and either Freddie Waits or Roy McCurdy on drums.What's interesting about this music is the insight it provides on directions Zawinul would soon take with Miles Davis on the ethereal In a Silent Way, on the impressionistic 1971 eponymous release Zawinul, and then with the borderless fusioneering of Weather Report. These later projects are the realization of ideas that Zawinul was beginning to form on this 1967 session.
Joe Zawinul - The Rise & Fall Of The Third Stream (1967) {2012 Japan Jazz Best Collection 1000 Series 24bit Rem WPCR-27124}


Personnel:
Joe Zawinul - piano and electric piano
William Fischer - tenor saxophone and arrangements
Jimmy Owens - trumpet
Alfred Brown - viola
Selwart Clarke - viola
Theodore Israel - viola
Kermit Moore - cello
Richard Davis - bass
Roy McCurdy - drums
Freddie Waits - drums
Warren Smith - percussion

tracklist:
01 - Baptismal
02 - The Soul Of A Village - Part I
03 - The Soul Of A Village - Part II
04 - The Fifth Canto
05 - From Vienna, With Love
06 - Lord, Lord, Lord
07 - A Concerto, Retitled

Exact Audio Copy V1.1 from 23. June 2015

EAC extraction logfile from 18. April 2016, 15:56

Joe Zawinul / The Rise & Fall Of The Third Stream

Used drive : TSSTcorpCDDVDW SE-208DB Adapter: 1 ID: 0

Read mode : Secure
Utilize accurate stream : Yes
Defeat audio cache : Yes
Make use of C2 pointers : No

Read offset correction : 6
Overread into Lead-In and Lead-Out : No
Fill up missing offset samples with silence : Yes
Delete leading and trailing silent blocks : No
Null samples used in CRC calculations : Yes
Used interface : Native Win32 interface for Win NT & 2000
Gap handling : Appended to previous track

Used output format : User Defined Encoder
Selected bitrate : 1024 kBit/s
Quality : High
Add ID3 tag : No
Command line compressor : C:\Program Files (x86)\FLAC Frontend\tools\flac.exe
Additional command line options : -8 -V -T "ARTIST=%artist%" -T "TITLE=%title%" -T "ALBUM=%albumtitle%" -T "DATE=%year%" -T "TRACKNUMBER=%tracknr%" -T "TOTALTRACKS=%numtracks%" -T "GENRE=%genre%" -T "ALBUMARTIST=%albumartist%" -T "ALBUM ARTIST=%albumartist%" -T "COMMENT=EAC Secure Mode, Test & Copy, AccurateRip, FLAC -8" %source%


TOC of the extracted CD

Track | Start | Length | Start sector | End sector
––––––––––––––––––––––––––––-
1 | 0:00.00 | 7:38.61 | 0 | 34410
2 | 7:38.61 | 2:13.51 | 34411 | 44436
3 | 9:52.37 | 4:15.36 | 44437 | 63597
4 | 14:07.73 | 7:00.42 | 63598 | 95139
5 | 21:08.40 | 4:27.36 | 95140 | 115200
6 | 25:36.01 | 3:56.48 | 115201 | 132948
7 | 29:32.49 | 5:22.53 | 132949 | 157151


Track 1

Filename D:\_EAC\Joe Zawinul - The Rise & Fall Of The Third Stream (1967) [FLAC] {WPCR-27124}\01 - Baptismal.wav

Pre-gap length 0:00:02.00

Peak level 100.0 %
Extraction speed 2.6 X
Track quality 99.9 %
Test CRC 9891798A
Copy CRC 9891798A
Accurately ripped (confidence 1) [2B5A4F64] (AR v2)
Copy OK

Track 2

Filename D:\_EAC\Joe Zawinul - The Rise & Fall Of The Third Stream (1967) [FLAC] {WPCR-27124}\02 - The Soul Of A Village - Part I.wav

Pre-gap length 0:00:01.58

Peak level 100.0 %
Extraction speed 2.7 X
Track quality 100.0 %
Test CRC 316B5C32
Copy CRC 316B5C32
Accurately ripped (confidence 1) [D96C6417] (AR v2)
Copy OK

Track 3

Filename D:\_EAC\Joe Zawinul - The Rise & Fall Of The Third Stream (1967) [FLAC] {WPCR-27124}\03 - The Soul Of A Village - Part II.wav

Pre-gap length 0:00:02.07

Peak level 100.0 %
Extraction speed 3.3 X
Track quality 100.0 %
Test CRC A77DC2C7
Copy CRC A77DC2C7
Accurately ripped (confidence 1) [6B5CE5A4] (AR v2)
Copy OK

Track 4

Filename D:\_EAC\Joe Zawinul - The Rise & Fall Of The Third Stream (1967) [FLAC] {WPCR-27124}\04 - The Fifth Canto.wav

Pre-gap length 0:00:01.31

Peak level 100.0 %
Extraction speed 3.8 X
Track quality 100.0 %
Test CRC C757EA24
Copy CRC C757EA24
Accurately ripped (confidence 1) [549043E3] (AR v2)
Copy OK

Track 5

Filename D:\_EAC\Joe Zawinul - The Rise & Fall Of The Third Stream (1967) [FLAC] {WPCR-27124}\05 - From Vienna, With Love.wav

Pre-gap length 0:00:00.70

Peak level 100.0 %
Extraction speed 3.9 X
Track quality 100.0 %
Test CRC AB3F0A78
Copy CRC AB3F0A78
Accurately ripped (confidence 1) [4DC9833F] (AR v2)
Copy OK

Track 6

Filename D:\_EAC\Joe Zawinul - The Rise & Fall Of The Third Stream (1967) [FLAC] {WPCR-27124}\06 - Lord, Lord, Lord.wav

Pre-gap length 0:00:01.34

Peak level 100.0 %
Extraction speed 4.0 X
Track quality 100.0 %
Test CRC 91FEF12E
Copy CRC 91FEF12E
Accurately ripped (confidence 1) [4DD7F303] (AR v2)
Copy OK

Track 7

Filename D:\_EAC\Joe Zawinul - The Rise & Fall Of The Third Stream (1967) [FLAC] {WPCR-27124}\07 - A Concerto, Retitled.wav

Pre-gap length 0:00:01.28

Peak level 100.0 %
Extraction speed 3.7 X
Track quality 99.9 %
Test CRC EB9FB3D6
Copy CRC EB9FB3D6
Accurately ripped (confidence 1) [7BB98DB9] (AR v2)
Copy OK


All tracks accurately ripped

No errors occurred

End of status report

==== Log checksum 3346157B7CE368BDA59D9253EBE58860664F61059E5FCD4EE27B40F441290A6D ====


Joe Zawinul - The Rise & Fall Of The Third Stream (1967) {2012 Japan Jazz Best Collection 1000 Series 24bit Rem WPCR-27124}

Joe Zawinul - The Rise & Fall Of The Third Stream (1967) {2012 Japan Jazz Best Collection 1000 Series 24bit Rem WPCR-27124}


more Joe Zawinul…

see more Japan Jazz Best Collection 1000 Series…

NEXT -> more Japan Jazz Best Collection 1000 Series on the way…


===