Subcategories

John Coltrane - The 1961 Newport Set (2012) {Solar}

Posted By: Hungry Mind
John Coltrane - The 1961 Newport Set (2012) {Solar}

John Coltrane - The 1961 Newport Set (2012) {Solar}
EAC Rip | FLAC (tracks+.cue+log) - 301 MB | Scans PNG - 32 MB
Genre: jazz | RAR 5% Rec. | Label: Solar Records | CAT # 4569918 | 2012

1961 Newport Set album by John Coltrane was released May 15, 2012 on the Solar label. EU-only release containing John Coltrane's never before released 1961 performance at the Newport Jazz Festival. 1961 Newport Set songs At the time, his group consisted of a quintet with Trane as the only horn, plus piano, two basses, and drums. 1961 Newport Set album As a bonus, we have added another complete performance from the same year, recorded in Helsinki, Finland, during the tour on which Eric Dolphy joined the group. This is the first time this set is presented in the correct pitch. 1961 Newport Set CD music Includes 8-page booklet.
John Coltrane - The 1961 Newport Set (2012) {Solar}

ARTISTS
JOHN COLTRANE tenor & soprano sax
McCOY TYNER piano
ART DAVIS & REGGIE WORKMAN bass
ELVIN JONES drums

TRACKLIST
01. Announcement 1:24*
02. IMPRESSIONS 6:23*
03. NAIMA 4:17*
04. MY FAVORITE THINGS 16:27*
05. BLUE TRAIN 9:28º
06. I WANT TO TALK ABOUT YOU 7:18º
07. IMPRESSIONS 8:23º
08. MY FAVORITE THINGS 21:04º

Live at the Newport Jazz Festival, Newport, Rhode Island, July 1, 1961.

* PREVIOUSLY UNISSUED
º BONUS TRACKS: Same personnel except Eric Dolphy (as, fl) added and Art Davis omitted. Kulttuuritalo, Helsinki, Finland, November 22, 1961.

Exact Audio Copy V1.0 beta 3 from 29. August 2011

EAC extraction logfile from 21. November 2012, 15:09

John Coltrane / The 1961 Newport Set

Used drive : PLEXTOR DVDR PX-860A Adapter: 0 ID: 0

Read mode : Secure
Utilize accurate stream : Yes
Defeat audio cache : Yes
Make use of C2 pointers : No

Read offset correction : 96
Overread into Lead-In and Lead-Out : No
Fill up missing offset samples with silence : Yes
Delete leading and trailing silent blocks : No
Null samples used in CRC calculations : Yes
Used interface : Native Win32 interface for Win NT & 2000
Gap handling : Appended to previous track

Used output format : User Defined Encoder
Selected bitrate : 1024 kBit/s
Quality : High
Add ID3 tag : No
Command line compressor : C:\Program Files\Exact Audio Copy\Flac\flac.exe
Additional command line options : -8 -V -T "ARTIST=%artist%" -T "TITLE=%title%" -T "ALBUM=%albumtitle%" -T "DATE=%year%" -T "TRACKNUMBER=%tracknr%" -T "GENRE=%genre%" -T "PERFORMER=%albuminterpret%" -T "COMPOSER=%composer%" %haslyrics%–tag-from-file=LYRICS="%lyricsfile%"%haslyrics% -T "ALBUMARTIST=%albumartist%" -T "DISCNUMBER=%cdnumber%" -T "TOTALDISCS=%totalcds%" -T "TOTALTRACKS=%numtracks%" -T "COMMENT=EAC Secure Mode, Test & Copy, AccurateRip, FLAC -8" %source% -o %dest%


TOC of the extracted CD

Track | Start | Length | Start sector | End sector
––––––––––––––––––––––––––––-
1 | 0:00.00 | 1:24.15 | 0 | 6314
2 | 1:24.15 | 6:23.00 | 6315 | 35039
3 | 7:47.15 | 4:17.33 | 35040 | 54347
4 | 12:04.48 | 16:27.53 | 54348 | 128425
5 | 28:32.26 | 9:28.50 | 128426 | 171075
6 | 38:01.01 | 7:18.37 | 171076 | 203962
7 | 45:19.38 | 8:23.15 | 203963 | 241702
8 | 53:42.53 | 21:04.52 | 241703 | 336554


Track 1

Filename I:\DL\John Coltrane - The 1961 Newport Set (2012) [FLAC]\01 - Announcement.wav

Pre-gap length 0:00:02.00

Peak level 100.0 %
Extraction speed 3.2 X
Track quality 100.0 %
Test CRC EF9CF725
Copy CRC EF9CF725
Track not present in AccurateRip database
Copy OK

Track 2

Filename I:\DL\John Coltrane - The 1961 Newport Set (2012) [FLAC]\02 - Impressions.wav

Peak level 98.8 %
Extraction speed 4.8 X
Track quality 100.0 %
Test CRC 851C2597
Copy CRC 851C2597
Track not present in AccurateRip database
Copy OK

Track 3

Filename I:\DL\John Coltrane - The 1961 Newport Set (2012) [FLAC]\03 - Naima.wav

Peak level 98.1 %
Extraction speed 5.1 X
Track quality 100.0 %
Test CRC 52CC2DB8
Copy CRC 52CC2DB8
Track not present in AccurateRip database
Copy OK

Track 4

Filename I:\DL\John Coltrane - The 1961 Newport Set (2012) [FLAC]\04 - My Favorite Things.wav

Peak level 98.8 %
Extraction speed 6.0 X
Track quality 99.9 %
Test CRC BC08FE50
Copy CRC BC08FE50
Track not present in AccurateRip database
Copy OK

Track 5

Filename I:\DL\John Coltrane - The 1961 Newport Set (2012) [FLAC]\05 - Blue Train.wav

Peak level 98.8 %
Extraction speed 5.8 X
Track quality 100.0 %
Test CRC A465A281
Copy CRC A465A281
Track not present in AccurateRip database
Copy OK

Track 6

Filename I:\DL\John Coltrane - The 1961 Newport Set (2012) [FLAC]\06 - I Want to Talk about You.wav

Peak level 90.6 %
Extraction speed 5.1 X
Track quality 100.0 %
Test CRC 11B195C0
Copy CRC 11B195C0
Track not present in AccurateRip database
Copy OK

Track 7

Filename I:\DL\John Coltrane - The 1961 Newport Set (2012) [FLAC]\07 - Impressions.wav

Peak level 94.6 %
Extraction speed 5.7 X
Track quality 100.0 %
Test CRC 187CC697
Copy CRC 187CC697
Track not present in AccurateRip database
Copy OK

Track 8

Filename I:\DL\John Coltrane - The 1961 Newport Set (2012) [FLAC]\08 - My Favorite Things.wav

Peak level 89.4 %
Extraction speed 8.1 X
Track quality 100.0 %
Test CRC 43BAB769
Copy CRC 43BAB769
Track not present in AccurateRip database
Copy OK


None of the tracks are present in the AccurateRip database

No errors occurred

End of status report

–– CUETools DB Plugin V2.1.3

[CTDB TOCID: HCE3cwzNx0YYdZaxf..z0b4FchE-] found, Submit result: HCE3cwzNx0YYdZaxf..z0b4FchE- has been confirmed
[cc0400e3] (1/1) Accurately ripped


==== Log checksum 0C679B14A4866B7C8484714FA0A21A6E9C0220A50C0A2AABC8CF1AE8909A6B03 ====


John Coltrane - The 1961 Newport Set (2012) {Solar}

Special Thanks to the original uploader!