Subcategories

John Lee Hooker - The Folk Lore Of John Lee Hooker & Folk Blues (1961-62) {2on1 Hoodoo Records rel 2014}

Posted By: ruskaval
John Lee Hooker - The Folk Lore Of John Lee Hooker & Folk Blues (1961-62) {2on1 Hoodoo Records rel 2014}

John Lee Hooker - The Folk Lore Of John Lee Hooker & Folk Blues (1961-62) {2on1 Hoodoo Records rel 2014}
EAC rip (secure mode) | FLAC (tracks)+CUE+LOG -> 406 Mb | MP3 @320 -> 181 Mb
Full Artwork @ 300 dpi (png) -> 56 Mb | 5% repair rar | 24bit remastered
© 1961-62, 2014 Vee Jay / Crown / Hoodoo Records | 263499
Blues / Electric Blues / Blues Revival / Delta Blues

Two classic Hooker LPs, all digitally re-mastered, 22 solid slabs of dark, leathery, brooding nostalgia. This is the electric blues at its very roots. If there’s still anyone out there reading this magazine who hasn’t at least one Hooker album in their collection, then you’re still a long way from qualifying as a blues aficionado. So this is a good place to start. This stripped-bare, one man and a growling electric guitar (on most tracks) music is the stuff those guys who fled the south for the auto production lines in the north used to listen to. Hooker’s ‘talking blues’ style is well represented on Folk Lore. Great numbers like I’m Going Upstairs (and we all know what John was going up for), I Like to See You Walk and My First Wife Left Me start to haunt you like some swamp ghost. The Folk Blues tracks are no less powerful. Half A Stranger, Shake, Holler And Run, Down Child and Gonna Boogie all roll into one another to form a big, dusty landscape punctuated by mid-20th century American industry.

John Lee Hooker - The Folk Lore Of John Lee Hooker & Folk Blues (1961-62) {2on1 Hoodoo Records rel 2014}


Hooker has always been, and will remain, one of that Holy Trinity with Muddy Waters and Howlin’ Wolf, the men who form the very bedrock of dark, primeval music. Original, inspirational, often imitated, but never duplicated. What is there to say about this CD other than … you need it? Play it in the dark with a bottle of Jack Daniels – it’ll either scare you to death or thrill you out of your skin.

Is it that good? Damn right it is. It’s John Lee Hooker!
John Lee Hooker - The Folk Lore Of John Lee Hooker & Folk Blues (1961-62) {2on1 Hoodoo Records rel 2014}


Track Listing:
The Folk Lore Of John Lee Hooker (1961)

1. Tupelo
2. I'm Mad Again
3. I'm Going Upstairs
4. Want Ad Blues
5. Five Long Years
6. I Like To See You Walk
7. The Hobo
8. Hard-Headed Woman
9. Wednesday Evening Blues
10. Take Me As I Am
11. My First Wife Left Me
12. You're Looking Good Tonight

Folk Blues (1962)
13. Baby I'm Gonna Miss You
14. Half A Stranger
15. Shake Holler And Run
16. Down Child
17. Gonna Boogie
18. Bad Boy
19. Rock House Boogie
20. Let's Talk It Over
21. Baby You Ain't No Good
22. Lookin' For A Woman

Bonus Tracks
23. Devil's Jump
24. Run On
25. You've Taken My Woman
26. Rosie Mae

Exact Audio Copy V1.2 from 12. August 2016

EAC extraction logfile from 4. November 2016, 6:35

John Lee Hooker / The Folk Lore Of John Lee Hooker / Folk Blues

Used drive : TSSTcorpCDDVDW SH-224BB Adapter: 1 ID: 0

Read mode : Secure
Utilize accurate stream : Yes
Defeat audio cache : Yes
Make use of C2 pointers : No

Read offset correction : 6
Overread into Lead-In and Lead-Out : No
Fill up missing offset samples with silence : Yes
Delete leading and trailing silent blocks : No
Null samples used in CRC calculations : Yes
Used interface : Native Win32 interface for Win NT & 2000
Gap handling : Appended to previous track

Used output format : User Defined Encoder
Selected bitrate : 768 kBit/s
Quality : High
Add ID3 tag : No
Command line compressor : C:\Program Files (x86)\Exact Audio Copy\Flac\flac.exe
Additional command line options : -8 -V -T "ARTIST=%artist%" -T "TITLE=%title%" -T "ALBUM=%albumtitle%" -T "DATE=%year%" -T "TRACKNUMBER=%tracknr%" -T "TOTALTRACKS=%numtracks%" -T "GENRE=%genre%" -T "ALBUMARTIST=%albumartist%" -T "ALBUM ARTIST=%albumartist%" -T "COMMENT=EAC Secure Mode, Test & Copy, AccurateRip, FLAC -8" %source%


TOC of the extracted CD

Track | Start | Length | Start sector | End sector
––––––––––––––––––––––––––––-
1 | 0:00.00 | 3:27.00 | 0 | 15524
2 | 3:27.00 | 2:39.10 | 15525 | 27459
3 | 6:06.10 | 2:54.66 | 27460 | 40575
4 | 9:01.01 | 2:15.00 | 40576 | 50700
5 | 11:16.01 | 3:38.57 | 50701 | 67107
6 | 14:54.58 | 2:54.66 | 67108 | 80223
7 | 17:49.49 | 3:11.00 | 80224 | 94548
8 | 21:00.49 | 2:31.19 | 94549 | 105892
9 | 23:31.68 | 3:59.10 | 105893 | 123827
10 | 27:31.03 | 3:01.29 | 123828 | 137431
11 | 30:32.32 | 3:35.00 | 137432 | 153556
12 | 34:07.32 | 2:57.65 | 153557 | 166896
13 | 37:05.22 | 2:41.00 | 166897 | 178971
14 | 39:46.22 | 3:16.57 | 178972 | 193728
15 | 43:03.04 | 2:50.38 | 193729 | 206516
16 | 45:53.42 | 3:00.00 | 206517 | 220016
17 | 48:53.42 | 2:29.66 | 220017 | 231257
18 | 51:23.33 | 3:12.29 | 231258 | 245686
19 | 54:35.62 | 3:01.19 | 245687 | 259280
20 | 57:37.06 | 3:07.00 | 259281 | 273305
21 | 60:44.06 | 3:13.66 | 273306 | 287846
22 | 63:57.72 | 3:19.57 | 287847 | 302828
23 | 67:17.54 | 2:52.47 | 302829 | 315775
24 | 70:10.26 | 2:15.38 | 315776 | 325938
25 | 72:25.64 | 2:30.00 | 325939 | 337188
26 | 74:55.64 | 2:44.57 | 337189 | 349545


Track 1

Filename C:\Rips\John Lee Hooker - The Folk Lore Of John Lee Hooker (1961) & Folk Blues (1962) [FLAC] (2on1 2014)\01 - Tupelo.wav

Pre-gap length 0:00:02.00

Peak level 91.2 %
Extraction speed 1.8 X
Track quality 100.0 %
Test CRC E63AC044
Copy CRC E63AC044
Accurately ripped (confidence 2) [9CBE5779] (AR v2)
Copy OK

Track 2

Filename C:\Rips\John Lee Hooker - The Folk Lore Of John Lee Hooker (1961) & Folk Blues (1962) [FLAC] (2on1 2014)\02 - I'm Mad Again.wav

Pre-gap length 0:00:03.00

Peak level 91.2 %
Extraction speed 1.9 X
Track quality 100.0 %
Test CRC 28F744B8
Copy CRC 28F744B8
Accurately ripped (confidence 2) [5BA02EE1] (AR v2)
Copy OK

Track 3

Filename C:\Rips\John Lee Hooker - The Folk Lore Of John Lee Hooker (1961) & Folk Blues (1962) [FLAC] (2on1 2014)\03 - I'm Going Upstairs.wav

Pre-gap length 0:00:03.00

Peak level 91.2 %
Extraction speed 2.0 X
Track quality 100.0 %
Test CRC EE955463
Copy CRC EE955463
Accurately ripped (confidence 2) [6BFDFF62] (AR v2)
Copy OK

Track 4

Filename C:\Rips\John Lee Hooker - The Folk Lore Of John Lee Hooker (1961) & Folk Blues (1962) [FLAC] (2on1 2014)\04 - Want Ad Blues.wav

Pre-gap length 0:00:03.00

Peak level 91.2 %
Extraction speed 2.0 X
Track quality 100.0 %
Test CRC 4C560D87
Copy CRC 4C560D87
Accurately ripped (confidence 2) [C7899679] (AR v2)
Copy OK

Track 5

Filename C:\Rips\John Lee Hooker - The Folk Lore Of John Lee Hooker (1961) & Folk Blues (1962) [FLAC] (2on1 2014)\05 - Five Long Years.wav

Pre-gap length 0:00:03.00

Peak level 91.2 %
Extraction speed 1.9 X
Track quality 99.9 %
Test CRC F240C793
Copy CRC F240C793
Accurately ripped (confidence 2) [BDE918F9] (AR v2)
Copy OK

Track 6

Filename C:\Rips\John Lee Hooker - The Folk Lore Of John Lee Hooker (1961) & Folk Blues (1962) [FLAC] (2on1 2014)\06 - I Like To See You Walk.wav

Pre-gap length 0:00:03.00

Peak level 91.2 %
Extraction speed 2.3 X
Track quality 100.0 %
Test CRC 44821049
Copy CRC 44821049
Accurately ripped (confidence 2) [D5263974] (AR v2)
Copy OK

Track 7

Filename C:\Rips\John Lee Hooker - The Folk Lore Of John Lee Hooker (1961) & Folk Blues (1962) [FLAC] (2on1 2014)\07 - The Hobo.wav

Pre-gap length 0:00:03.00

Peak level 91.2 %
Extraction speed 2.4 X
Track quality 100.0 %
Test CRC C46A3146
Copy CRC C46A3146
Accurately ripped (confidence 2) [1C94B60C] (AR v2)
Copy OK

Track 8

Filename C:\Rips\John Lee Hooker - The Folk Lore Of John Lee Hooker (1961) & Folk Blues (1962) [FLAC] (2on1 2014)\08 - Hard Headed Woman.wav

Pre-gap length 0:00:03.00

Peak level 91.2 %
Extraction speed 2.4 X
Track quality 100.0 %
Test CRC 3F58E834
Copy CRC 3F58E834
Accurately ripped (confidence 2) [4F9D2735] (AR v2)
Copy OK

Track 9

Filename C:\Rips\John Lee Hooker - The Folk Lore Of John Lee Hooker (1961) & Folk Blues (1962) [FLAC] (2on1 2014)\09 - Wednesday Evening Blues.wav

Pre-gap length 0:00:03.00

Peak level 91.2 %
Extraction speed 2.7 X
Track quality 100.0 %
Test CRC FBC232E5
Copy CRC FBC232E5
Accurately ripped (confidence 2) [C80D1EF7] (AR v2)
Copy OK

Track 10

Filename C:\Rips\John Lee Hooker - The Folk Lore Of John Lee Hooker (1961) & Folk Blues (1962) [FLAC] (2on1 2014)\10 - Take Me As I Am.wav

Pre-gap length 0:00:03.00

Peak level 91.2 %
Extraction speed 2.7 X
Track quality 100.0 %
Test CRC BBDF7F04
Copy CRC BBDF7F04
Accurately ripped (confidence 2) [9150117A] (AR v2)
Copy OK

Track 11

Filename C:\Rips\John Lee Hooker - The Folk Lore Of John Lee Hooker (1961) & Folk Blues (1962) [FLAC] (2on1 2014)\11 - My First Wife Left Me.wav

Pre-gap length 0:00:03.00

Peak level 91.2 %
Extraction speed 2.9 X
Track quality 100.0 %
Test CRC 8E5BEBD4
Copy CRC 8E5BEBD4
Accurately ripped (confidence 2) [A7885897] (AR v2)
Copy OK

Track 12

Filename C:\Rips\John Lee Hooker - The Folk Lore Of John Lee Hooker (1961) & Folk Blues (1962) [FLAC] (2on1 2014)\12 - You're Looking Good Tonight.wav

Pre-gap length 0:00:03.00

Peak level 91.2 %
Extraction speed 2.9 X
Track quality 100.0 %
Test CRC 56685015
Copy CRC 56685015
Accurately ripped (confidence 2) [9BB35A5C] (AR v2)
Copy OK

Track 13

Filename C:\Rips\John Lee Hooker - The Folk Lore Of John Lee Hooker (1961) & Folk Blues (1962) [FLAC] (2on1 2014)\13 - Baby I'm Gonna Miss You.wav

Pre-gap length 0:00:03.00

Peak level 91.2 %
Extraction speed 2.0 X
Track quality 99.9 %
Test CRC CF806305
Copy CRC CF806305
Accurately ripped (confidence 2) [1B42735C] (AR v2)
Copy OK

Track 14

Filename C:\Rips\John Lee Hooker - The Folk Lore Of John Lee Hooker (1961) & Folk Blues (1962) [FLAC] (2on1 2014)\14 - Half A Stranger.wav

Pre-gap length 0:00:03.00

Peak level 91.2 %
Extraction speed 3.0 X
Track quality 100.0 %
Test CRC 30C38B73
Copy CRC 30C38B73
Accurately ripped (confidence 2) [03C70665] (AR v2)
Copy OK

Track 15

Filename C:\Rips\John Lee Hooker - The Folk Lore Of John Lee Hooker (1961) & Folk Blues (1962) [FLAC] (2on1 2014)\15 - Shake Holler And Run.wav

Pre-gap length 0:00:03.00

Peak level 91.2 %
Extraction speed 3.1 X
Track quality 100.0 %
Test CRC C565702A
Copy CRC C565702A
Accurately ripped (confidence 2) [B3C28A23] (AR v2)
Copy OK

Track 16

Filename C:\Rips\John Lee Hooker - The Folk Lore Of John Lee Hooker (1961) & Folk Blues (1962) [FLAC] (2on1 2014)\16 - Down Child.wav

Pre-gap length 0:00:03.00

Peak level 91.2 %
Extraction speed 3.1 X
Track quality 100.0 %
Test CRC E43C890D
Copy CRC E43C890D
Accurately ripped (confidence 2) [56793A62] (AR v2)
Copy OK

Track 17

Filename C:\Rips\John Lee Hooker - The Folk Lore Of John Lee Hooker (1961) & Folk Blues (1962) [FLAC] (2on1 2014)\17 - Gonna Boogie.wav

Pre-gap length 0:00:03.00

Peak level 91.2 %
Extraction speed 3.1 X
Track quality 100.0 %
Test CRC CD7E89B1
Copy CRC CD7E89B1
Accurately ripped (confidence 2) [EBD256BD] (AR v2)
Copy OK

Track 18

Filename C:\Rips\John Lee Hooker - The Folk Lore Of John Lee Hooker (1961) & Folk Blues (1962) [FLAC] (2on1 2014)\18 - Bad Boy.wav

Pre-gap length 0:00:03.00

Peak level 91.2 %
Extraction speed 3.1 X
Track quality 100.0 %
Test CRC D1E29B07
Copy CRC D1E29B07
Accurately ripped (confidence 2) [6159824C] (AR v2)
Copy OK

Track 19

Filename C:\Rips\John Lee Hooker - The Folk Lore Of John Lee Hooker (1961) & Folk Blues (1962) [FLAC] (2on1 2014)\19 - Rock House Boogie.wav

Pre-gap length 0:00:03.00

Peak level 91.2 %
Extraction speed 2.2 X
Track quality 99.9 %
Test CRC 8B0FA126
Copy CRC 8B0FA126
Accurately ripped (confidence 2) [27680DB9] (AR v2)
Copy OK

Track 20

Filename C:\Rips\John Lee Hooker - The Folk Lore Of John Lee Hooker (1961) & Folk Blues (1962) [FLAC] (2on1 2014)\20 - Let's Talk It Over.wav

Pre-gap length 0:00:03.00

Peak level 91.2 %
Extraction speed 3.2 X
Track quality 100.0 %
Test CRC 7BBCA6CA
Copy CRC 7BBCA6CA
Accurately ripped (confidence 2) [E9D67735] (AR v2)
Copy OK

Track 21

Filename C:\Rips\John Lee Hooker - The Folk Lore Of John Lee Hooker (1961) & Folk Blues (1962) [FLAC] (2on1 2014)\21 - Baby You Ain't No Good.wav

Pre-gap length 0:00:03.00

Peak level 91.2 %
Extraction speed 2.2 X
Track quality 99.9 %
Test CRC BD4814D5
Copy CRC BD4814D5
Accurately ripped (confidence 2) [0EDADA9E] (AR v2)
Copy OK

Track 22

Filename C:\Rips\John Lee Hooker - The Folk Lore Of John Lee Hooker (1961) & Folk Blues (1962) [FLAC] (2on1 2014)\22 - Lookin' For A Woman.wav

Pre-gap length 0:00:03.00

Peak level 91.2 %
Extraction speed 3.3 X
Track quality 100.0 %
Test CRC E82BEFB8
Copy CRC E82BEFB8
Accurately ripped (confidence 2) [011970F2] (AR v2)
Copy OK

Track 23

Filename C:\Rips\John Lee Hooker - The Folk Lore Of John Lee Hooker (1961) & Folk Blues (1962) [FLAC] (2on1 2014)\23 - Devil's Jump.wav

Pre-gap length 0:00:03.00

Peak level 91.2 %
Extraction speed 2.2 X
Track quality 99.9 %
Test CRC 230CC2BB
Copy CRC 230CC2BB
Accurately ripped (confidence 2) [F8813546] (AR v2)
Copy OK

Track 24

Filename C:\Rips\John Lee Hooker - The Folk Lore Of John Lee Hooker (1961) & Folk Blues (1962) [FLAC] (2on1 2014)\24 - Run On.wav

Pre-gap length 0:00:03.00

Peak level 91.2 %
Extraction speed 3.4 X
Track quality 100.0 %
Test CRC 8535E020
Copy CRC 8535E020
Accurately ripped (confidence 2) [35BED6E3] (AR v2)
Copy OK

Track 25

Filename C:\Rips\John Lee Hooker - The Folk Lore Of John Lee Hooker (1961) & Folk Blues (1962) [FLAC] (2on1 2014)\25 - You've Taken My Woman.wav

Pre-gap length 0:00:03.00

Peak level 91.2 %
Extraction speed 3.6 X
Track quality 100.0 %
Test CRC E47FA170
Copy CRC E47FA170
Accurately ripped (confidence 2) [9262C9C7] (AR v2)
Copy OK

Track 26

Filename C:\Rips\John Lee Hooker - The Folk Lore Of John Lee Hooker (1961) & Folk Blues (1962) [FLAC] (2on1 2014)\26 - Rosie Mae.wav

Pre-gap length 0:00:03.00

Peak level 91.2 %
Extraction speed 3.6 X
Track quality 100.0 %
Test CRC 12FC9FED
Copy CRC 12FC9FED
Accurately ripped (confidence 2) [57A53823] (AR v2)
Copy OK


All tracks accurately ripped

No errors occurred

End of status report

–– CUETools DB Plugin V2.1.6

[CTDB TOCID: dGg8mL3fl8nuCPJa4OmLUdbVUhI-] found
Submit result: dGg8mL3fl8nuCPJa4OmLUdbVUhI- has been confirmed
Track | CTDB Status
1 | (1/1) Accurately ripped
2 | (1/1) Accurately ripped
3 | (1/1) Accurately ripped
4 | (1/1) Accurately ripped
5 | (1/1) Accurately ripped
6 | (1/1) Accurately ripped
7 | (1/1) Accurately ripped
8 | (1/1) Accurately ripped
9 | (1/1) Accurately ripped
10 | (1/1) Accurately ripped
11 | (1/1) Accurately ripped
12 | (1/1) Accurately ripped
13 | (1/1) Accurately ripped
14 | (1/1) Accurately ripped
15 | (1/1) Accurately ripped
16 | (1/1) Accurately ripped
17 | (1/1) Accurately ripped
18 | (1/1) Accurately ripped
19 | (1/1) Accurately ripped
20 | (1/1) Accurately ripped
21 | (1/1) Accurately ripped
22 | (1/1) Accurately ripped
23 | (1/1) Accurately ripped
24 | (1/1) Accurately ripped
25 | (1/1) Accurately ripped
26 | (1/1) Accurately ripped


==== Log checksum FD255EEAA39AAB96F6D3B71C2602C426AA63A5CFB1539D06D0D1D40F2567DCFB ====


John Lee Hooker - The Folk Lore Of John Lee Hooker & Folk Blues (1961-62) {2on1 Hoodoo Records rel 2014}

John Lee Hooker - The Folk Lore Of John Lee Hooker & Folk Blues (1961-62) {2on1 Hoodoo Records rel 2014}


All thanks goes to the original releaser!

See also:
Canned Heat with John Lee Hooker - Carnegie Hall 1971 (2015) {Cleopatra Records}
John Lee Hooker - I'm John Lee Hooker (1959) & Travelin' (1960) {Soul Jam Records 600804 rel 2011}
John Lee Hooker - John Lee Hooker (The Galaxy LP) (1962) {Soul Jam Records Remastered & Expanded 2016}