Subcategories

John Lee Hooker - Sings The Blues (1961) & Sings Blues (1960) {Soul Jam Records 600843 rel 2014}

Posted By: ruskaval
John Lee Hooker - Sings The Blues (1961) & Sings Blues (1960) {Soul Jam Records 600843 rel 2014}

John Lee Hooker - Sings The Blues (1961) & Sings Blues (1960) {Soul Jam Records 600843 rel 2014}
EAC rip (secure mode) | FLAC (tracks)+CUE+LOG -> 359 Mb | MP3 @320 -> 180 Mb
Full Artwork @ 300 dpi (png) -> 47 Mb | 5% repair rar | 24bit remastered
© 1960-61, 2014 Crown / King / Soul Jam Records | 600843
Blues / Electric Blues / Delta Blues / Acoustic Blues / Detroit Blues / Blues Revival

John Lee Hooker developed a “talking blues” style that became his trademark. Though similar to the early Delta tradition, his metrically free approach and unique sound would make him a staple of Detroit blues. Often called the “King of the Boogie,” Hooker's driving, rhythmic approach to guitar playing has become an integral part of the blues. This quintessential release includes two albums from the beginning of his career: Sings the Blues (Crown 1961) and Sings Blues (King 1960). Although the two records share nearly identical titles, each contains a different and excellent track list. The former LP features great electric numbers such as “Hug and Squeeze (You),” “Good Rockin' Mama,” and “The Syndicate,” while the latter contains Hooker's solo recordings originally issued on the Modern label. Both albums have been remastered and packaged together in this very special collector's edition, which also includes 5 bonus tracks from the same period.
John Lee Hooker - Sings The Blues (1961) & Sings Blues (1960) {Soul Jam Records 600843 rel 2014}


PERSONNEL:

JOHN LEE HOOKER, vocals, lead guitar and foot stomping, plus:

EDDIE KIRKLAND, guitar & bass
BOB THURMAN, piano
TOM WHITEHEAD, drums
OTIS FINCH, tenor sax
among others

Recorded in Detroit and Chicago, 1950-­1955


John Lee Hooker - Sings The Blues (1961) & Sings Blues (1960) {Soul Jam Records 600843 rel 2014}


Track Listing:
Sings The Blues (1961)

1. Hug and Squeeze
2. I Love You Baby
3. The Syndicate
4. Boogie Woogie All Night Long
5. Good Rockin' Mama
6. Let Your Daddy Ride
7. Turn Over a New Leaf
8. Don't You Remember Me
9. Driftin' from Door to Door
10. She Left Me On My Bended Knee

Sings Blues (1960)
11. Wandering Blues
12. I'm Gonna Kill That Woman
13. Heart Trouble Blues
14. Slim's Stomp
15. The Numbers
16. Nightmare Blues
17. Moanin' Blues
18. Don't Go Baby
19. Late Last Night
20. Devil's Jump
21. Who's Been Jiving You?

Bonus Tracks
22. I Tried Hard
23. You Receive Me
24. Taxi Driver
25. Roll 'N' Roll
26. I'm Ready

Exact Audio Copy V1.2 from 12. August 2016

EAC extraction logfile from 17. November 2016, 15:34

John Lee Hooker / Sings The Blues / Sings Blues

Used drive : TSSTcorpCDDVDW SH-224BB Adapter: 1 ID: 0

Read mode : Secure
Utilize accurate stream : Yes
Defeat audio cache : Yes
Make use of C2 pointers : No

Read offset correction : 6
Overread into Lead-In and Lead-Out : No
Fill up missing offset samples with silence : Yes
Delete leading and trailing silent blocks : No
Null samples used in CRC calculations : Yes
Used interface : Native Win32 interface for Win NT & 2000
Gap handling : Appended to previous track

Used output format : User Defined Encoder
Selected bitrate : 768 kBit/s
Quality : High
Add ID3 tag : No
Command line compressor : C:\Program Files (x86)\Exact Audio Copy\Flac\flac.exe
Additional command line options : -8 -V -T "ARTIST=%artist%" -T "TITLE=%title%" -T "ALBUM=%albumtitle%" -T "DATE=%year%" -T "TRACKNUMBER=%tracknr%" -T "TOTALTRACKS=%numtracks%" -T "GENRE=%genre%" -T "ALBUMARTIST=%albumartist%" -T "ALBUM ARTIST=%albumartist%" -T "COMMENT=EAC Secure Mode, Test & Copy, AccurateRip, FLAC -8" %source%


TOC of the extracted CD

Track | Start | Length | Start sector | End sector
––––––––––––––––––––––––––––-
1 | 0:00.00 | 2:56.29 | 0 | 13228
2 | 2:56.29 | 3:12.29 | 13229 | 27657
3 | 6:08.58 | 3:00.29 | 27658 | 41186
4 | 9:09.12 | 2:41.66 | 41187 | 53327
5 | 11:51.03 | 2:28.19 | 53328 | 64446
6 | 14:19.22 | 2:38.63 | 64447 | 76359
7 | 16:58.10 | 3:09.00 | 76360 | 90534
8 | 20:07.10 | 2:48.10 | 90535 | 103144
9 | 22:55.20 | 3:00.19 | 103145 | 116663
10 | 25:55.39 | 2:58.24 | 116664 | 130037
11 | 28:53.63 | 3:14.38 | 130038 | 144625
12 | 32:08.26 | 3:02.00 | 144626 | 158275
13 | 35:10.26 | 2:57.66 | 158276 | 171616
14 | 38:08.17 | 2:58.10 | 171617 | 184976
15 | 41:06.27 | 3:07.29 | 184977 | 199030
16 | 44:13.56 | 2:58.00 | 199031 | 212380
17 | 47:11.56 | 3:01.57 | 212381 | 226012
18 | 50:13.38 | 3:12.66 | 226013 | 240478
19 | 53:26.29 | 2:58.19 | 240479 | 253847
20 | 56:24.48 | 2:52.10 | 253848 | 266757
21 | 59:16.58 | 3:10.38 | 266758 | 281045
22 | 62:27.21 | 2:54.47 | 281046 | 294142
23 | 65:21.68 | 3:13.47 | 294143 | 308664
24 | 68:35.40 | 3:06.66 | 308665 | 322680
25 | 71:42.31 | 2:41.61 | 322681 | 334816
26 | 74:24.17 | 2:37.66 | 334817 | 346657


Track 1

Filename C:\Rips\John Lee Hooker - Sings The Blues (1961) & Sings Blues (1960) [FLAC] (2on1 2014)\01 - Hug & Squeeze You.wav

Pre-gap length 0:00:02.00

Peak level 91.2 %
Extraction speed 4.2 X
Track quality 100.0 %
Test CRC 664F5AF9
Copy CRC 664F5AF9
Accurately ripped (confidence 1) [B41E8324] (AR v2)
Copy OK

Track 2

Filename C:\Rips\John Lee Hooker - Sings The Blues (1961) & Sings Blues (1960) [FLAC] (2on1 2014)\02 - I Love You Baby.wav

Pre-gap length 0:00:03.00

Peak level 91.2 %
Extraction speed 4.6 X
Track quality 100.0 %
Test CRC 430B2B19
Copy CRC 430B2B19
Accurately ripped (confidence 1) [5FA0F939] (AR v2)
Copy OK

Track 3

Filename C:\Rips\John Lee Hooker - Sings The Blues (1961) & Sings Blues (1960) [FLAC] (2on1 2014)\03 - The Syndicate.wav

Pre-gap length 0:00:03.00

Peak level 91.2 %
Extraction speed 4.8 X
Track quality 100.0 %
Test CRC 95688432
Copy CRC 95688432
Accurately ripped (confidence 1) [EEDBCB35] (AR v2)
Copy OK

Track 4

Filename C:\Rips\John Lee Hooker - Sings The Blues (1961) & Sings Blues (1960) [FLAC] (2on1 2014)\04 - Boogie Woogie All Night Long.wav

Pre-gap length 0:00:03.00

Peak level 91.2 %
Extraction speed 4.9 X
Track quality 100.0 %
Test CRC 12A83954
Copy CRC 12A83954
Accurately ripped (confidence 1) [C85FC006] (AR v2)
Copy OK

Track 5

Filename C:\Rips\John Lee Hooker - Sings The Blues (1961) & Sings Blues (1960) [FLAC] (2on1 2014)\05 - Good Rockin' Mama.wav

Pre-gap length 0:00:03.00

Peak level 91.2 %
Extraction speed 5.0 X
Track quality 100.0 %
Test CRC 374678A7
Copy CRC 374678A7
Accurately ripped (confidence 1) [E6249A09] (AR v2)
Copy OK

Track 6

Filename C:\Rips\John Lee Hooker - Sings The Blues (1961) & Sings Blues (1960) [FLAC] (2on1 2014)\06 - Let Your Daddy Ride.wav

Pre-gap length 0:00:03.00

Peak level 91.2 %
Extraction speed 5.3 X
Track quality 100.0 %
Test CRC D52CA291
Copy CRC D52CA291
Accurately ripped (confidence 1) [A21D9414] (AR v2)
Copy OK

Track 7

Filename C:\Rips\John Lee Hooker - Sings The Blues (1961) & Sings Blues (1960) [FLAC] (2on1 2014)\07 - Turn Over A New Leaf.wav

Pre-gap length 0:00:03.00

Peak level 91.2 %
Extraction speed 5.7 X
Track quality 100.0 %
Test CRC AEA6361A
Copy CRC AEA6361A
Accurately ripped (confidence 1) [1F2B573E] (AR v2)
Copy OK

Track 8

Filename C:\Rips\John Lee Hooker - Sings The Blues (1961) & Sings Blues (1960) [FLAC] (2on1 2014)\08 - Don't You Remember Me.wav

Pre-gap length 0:00:03.00

Peak level 91.2 %
Extraction speed 5.7 X
Track quality 100.0 %
Test CRC DDF3FFA2
Copy CRC DDF3FFA2
Accurately ripped (confidence 1) [3C52CA48] (AR v2)
Copy OK

Track 9

Filename C:\Rips\John Lee Hooker - Sings The Blues (1961) & Sings Blues (1960) [FLAC] (2on1 2014)\09 - Driftin' From Door To Door.wav

Pre-gap length 0:00:03.00

Peak level 91.2 %
Extraction speed 4.4 X
Track quality 99.9 %
Test CRC ABE9A052
Copy CRC ABE9A052
Accurately ripped (confidence 1) [AFAD86A8] (AR v2)
Copy OK

Track 10

Filename C:\Rips\John Lee Hooker - Sings The Blues (1961) & Sings Blues (1960) [FLAC] (2on1 2014)\10 - She Left Me On My Bended Knee.wav

Pre-gap length 0:00:03.00

Peak level 91.2 %
Extraction speed 6.0 X
Track quality 100.0 %
Test CRC 634235C3
Copy CRC 634235C3
Accurately ripped (confidence 1) [4AAAAD86] (AR v2)
Copy OK

Track 11

Filename C:\Rips\John Lee Hooker - Sings The Blues (1961) & Sings Blues (1960) [FLAC] (2on1 2014)\11 - Wandering Blues.wav

Pre-gap length 0:00:03.00

Peak level 91.2 %
Extraction speed 5.0 X
Track quality 99.9 %
Test CRC 1265968F
Copy CRC 1265968F
Accurately ripped (confidence 1) [1F2CA8DD] (AR v2)
Copy OK

Track 12

Filename C:\Rips\John Lee Hooker - Sings The Blues (1961) & Sings Blues (1960) [FLAC] (2on1 2014)\12 - I'm Gonna Kill That Woman.wav

Pre-gap length 0:00:03.00

Peak level 91.2 %
Extraction speed 6.6 X
Track quality 100.0 %
Test CRC 3CE5309E
Copy CRC 3CE5309E
Accurately ripped (confidence 1) [D974D89C] (AR v2)
Copy OK

Track 13

Filename C:\Rips\John Lee Hooker - Sings The Blues (1961) & Sings Blues (1960) [FLAC] (2on1 2014)\13 - Heart Trouble Blues.wav

Pre-gap length 0:00:03.00

Peak level 91.2 %
Extraction speed 6.7 X
Track quality 100.0 %
Test CRC C1EDD0CF
Copy CRC C1EDD0CF
Accurately ripped (confidence 1) [18C82E11] (AR v2)
Copy OK

Track 14

Filename C:\Rips\John Lee Hooker - Sings The Blues (1961) & Sings Blues (1960) [FLAC] (2on1 2014)\14 - Slim's Stomp.wav

Pre-gap length 0:00:03.00

Peak level 91.2 %
Extraction speed 6.8 X
Track quality 100.0 %
Test CRC C0B4C3F9
Copy CRC C0B4C3F9
Accurately ripped (confidence 1) [E5D33D2B] (AR v2)
Copy OK

Track 15

Filename C:\Rips\John Lee Hooker - Sings The Blues (1961) & Sings Blues (1960) [FLAC] (2on1 2014)\15 - The Numbers.wav

Pre-gap length 0:00:03.00

Peak level 91.2 %
Extraction speed 7.0 X
Track quality 100.0 %
Test CRC BE8463D3
Copy CRC BE8463D3
Accurately ripped (confidence 1) [F1DAB32D] (AR v2)
Copy OK

Track 16

Filename C:\Rips\John Lee Hooker - Sings The Blues (1961) & Sings Blues (1960) [FLAC] (2on1 2014)\16 - Nightmare Blues.wav

Pre-gap length 0:00:03.00

Peak level 91.2 %
Extraction speed 7.2 X
Track quality 100.0 %
Test CRC A372B60E
Copy CRC A372B60E
Accurately ripped (confidence 1) [675B9307] (AR v2)
Copy OK

Track 17

Filename C:\Rips\John Lee Hooker - Sings The Blues (1961) & Sings Blues (1960) [FLAC] (2on1 2014)\17 - Moanin' Blues.wav

Pre-gap length 0:00:03.00

Peak level 91.2 %
Extraction speed 7.3 X
Track quality 100.0 %
Test CRC 81093243
Copy CRC 81093243
Accurately ripped (confidence 1) [C84E062B] (AR v2)
Copy OK

Track 18

Filename C:\Rips\John Lee Hooker - Sings The Blues (1961) & Sings Blues (1960) [FLAC] (2on1 2014)\18 - Don't Go Baby.wav

Pre-gap length 0:00:03.00

Peak level 91.2 %
Extraction speed 5.9 X
Track quality 99.9 %
Test CRC 1D5591AE
Copy CRC 1D5591AE
Accurately ripped (confidence 1) [F1EAB135] (AR v2)
Copy OK

Track 19

Filename C:\Rips\John Lee Hooker - Sings The Blues (1961) & Sings Blues (1960) [FLAC] (2on1 2014)\19 - Late Last Night.wav

Pre-gap length 0:00:03.00

Peak level 91.2 %
Extraction speed 5.8 X
Track quality 99.9 %
Test CRC 6A061316
Copy CRC 6A061316
Accurately ripped (confidence 1) [CBE8ABB0] (AR v2)
Copy OK

Track 20

Filename C:\Rips\John Lee Hooker - Sings The Blues (1961) & Sings Blues (1960) [FLAC] (2on1 2014)\20 - Devil's Jump.wav

Pre-gap length 0:00:03.00

Peak level 91.2 %
Extraction speed 7.6 X
Track quality 100.0 %
Test CRC 4CAC3F05
Copy CRC 4CAC3F05
Accurately ripped (confidence 1) [D2BE498F] (AR v2)
Copy OK

Track 21

Filename C:\Rips\John Lee Hooker - Sings The Blues (1961) & Sings Blues (1960) [FLAC] (2on1 2014)\21 - Who's Been Jiving You.wav

Pre-gap length 0:00:03.00

Peak level 91.2 %
Extraction speed 8.0 X
Track quality 100.0 %
Test CRC 2985D732
Copy CRC 2985D732
Accurately ripped (confidence 1) [4611FCE7] (AR v2)
Copy OK

Track 22

Filename C:\Rips\John Lee Hooker - Sings The Blues (1961) & Sings Blues (1960) [FLAC] (2on1 2014)\22 - I Tried Hard.wav

Pre-gap length 0:00:03.00

Peak level 91.2 %
Extraction speed 6.0 X
Track quality 99.9 %
Test CRC 859692DA
Copy CRC 859692DA
Accurately ripped (confidence 1) [105DD3A3] (AR v2)
Copy OK

Track 23

Filename C:\Rips\John Lee Hooker - Sings The Blues (1961) & Sings Blues (1960) [FLAC] (2on1 2014)\23 - You Receive Me.wav

Pre-gap length 0:00:03.00

Peak level 91.2 %
Extraction speed 8.1 X
Track quality 100.0 %
Test CRC 0E01FE77
Copy CRC 0E01FE77
Accurately ripped (confidence 1) [FAE7AE7F] (AR v2)
Copy OK

Track 24

Filename C:\Rips\John Lee Hooker - Sings The Blues (1961) & Sings Blues (1960) [FLAC] (2on1 2014)\24 - Taxi Driver.wav

Pre-gap length 0:00:03.00

Peak level 91.2 %
Extraction speed 6.3 X
Track quality 99.9 %
Test CRC 47194177
Copy CRC 47194177
Accurately ripped (confidence 1) [54180E1A] (AR v2)
Copy OK

Track 25

Filename C:\Rips\John Lee Hooker - Sings The Blues (1961) & Sings Blues (1960) [FLAC] (2on1 2014)\25 - Roll 'N' Roll.wav

Pre-gap length 0:00:03.00

Peak level 91.2 %
Extraction speed 8.1 X
Track quality 100.0 %
Test CRC AD14EFC9
Copy CRC AD14EFC9
Accurately ripped (confidence 1) [9B4D737D] (AR v2)
Copy OK

Track 26

Filename C:\Rips\John Lee Hooker - Sings The Blues (1961) & Sings Blues (1960) [FLAC] (2on1 2014)\26 - I'm Ready.wav

Pre-gap length 0:00:03.00

Peak level 91.2 %
Extraction speed 8.2 X
Track quality 100.0 %
Test CRC 7E8368A3
Copy CRC 7E8368A3
Accurately ripped (confidence 1) [2056AA7D] (AR v2)
Copy OK


All tracks accurately ripped

No errors occurred

End of status report

–– CUETools DB Plugin V2.1.6

[CTDB TOCID: tzacq4LwpHjTYh0UW484ydl3ncg-] found
Submit result: tzacq4LwpHjTYh0UW484ydl3ncg- has been confirmed
Track | CTDB Status
1 | (1/1) Accurately ripped
2 | (1/1) Accurately ripped
3 | (1/1) Accurately ripped
4 | (1/1) Accurately ripped
5 | (1/1) Accurately ripped
6 | (1/1) Accurately ripped
7 | (1/1) Accurately ripped
8 | (1/1) Accurately ripped
9 | (1/1) Accurately ripped
10 | (1/1) Accurately ripped
11 | (1/1) Accurately ripped
12 | (1/1) Accurately ripped
13 | (1/1) Accurately ripped
14 | (1/1) Accurately ripped
15 | (1/1) Accurately ripped
16 | (1/1) Accurately ripped
17 | (1/1) Accurately ripped
18 | (1/1) Accurately ripped
19 | (1/1) Accurately ripped
20 | (1/1) Accurately ripped
21 | (1/1) Accurately ripped
22 | (1/1) Accurately ripped
23 | (1/1) Accurately ripped
24 | (1/1) Accurately ripped
25 | (1/1) Accurately ripped
26 | (1/1) Accurately ripped


==== Log checksum B7B9BF3889F93D8317193269E6F4A1693BC9C90A8A11FF0422905D5F37E1316F ====


John Lee Hooker - Sings The Blues (1961) & Sings Blues (1960) {Soul Jam Records 600843 rel 2014}

John Lee Hooker - Sings The Blues (1961) & Sings Blues (1960) {Soul Jam Records 600843 rel 2014}




===