Tags
Language
Tags

The John Young Trio - A Touch Of Pepper (1962) {2013 Japan Jazz The Best Series 24-bit Remaster UCCU-9742}

Posted By:
The John Young Trio - A Touch Of Pepper (1962) {2013 Japan Jazz The Best Series 24-bit Remaster UCCU-9742}

The John Young Trio - A Touch Of Pepper (1962) {2013 Japan Jazz The Best Series 24-bit Remaster UCCU-9742}
EAC rip (secure mode) | FLAC (tracks)+CUE+LOG -> 215 Mb | MP3 @320 -> 95 Mb
Full Artwork @ 600 dpi (png) -> 128 Mb | 5% repair rar | 24-bit remaster
© 1962, 2013 Argo / Verve / Universal Japan | UCCU-9742
Jazz / Cool / Hard Bop / Piano

One of the few sides ever recorded as a leader by Chicago soul jazz pianist John Young – a tasty trio set with just the right touch of pepper! The tracks are short and lively, very much in the mode of other Chicago trio players – like John Wright or Ramsey Lewis – and most of the tunes have a nicely rolling groove, thanks to great backing from from Sam Kidd on bass and Phil Thomas on drums – both of whom echo strongly the great Chicago groove going on at the time. The album also features a strong mixture of originals and upbeat standards – with titles that include "Joey", "In Other Words", "Blues Oreenee", "The Bridge", "Serenata", and "Search Me".
The John Young Trio - A Touch Of Pepper (1962) {2013 Japan Jazz The Best Series 24-bit Remaster UCCU-9742}


Personnel:
John Young - piano
Sam Kidd - bass
Phil Thomas - drums

tracklist:
01 - Blues Oreenee
02 - Joey
03 - Everything's Coming Up Roses
04 - A Lot Of Living To Do
05 - Search Me
06 - Serenata
07 - Inch Worm
08 - The Bridge
09 - In Other Words (Fly Me To The Moon)

Exact Audio Copy V1.1 from 23. June 2015

EAC extraction logfile from 19. September 2015, 12:22

The John Young Trio / A Touch Of Pepper

Used drive : TSSTcorpCDDVDW SE-208DB Adapter: 7 ID: 0

Read mode : Secure
Utilize accurate stream : Yes
Defeat audio cache : Yes
Make use of C2 pointers : No

Read offset correction : 6
Overread into Lead-In and Lead-Out : No
Fill up missing offset samples with silence : Yes
Delete leading and trailing silent blocks : No
Null samples used in CRC calculations : Yes
Used interface : Installed external ASPI interface
Gap handling : Appended to previous track

Used output format : User Defined Encoder
Selected bitrate : 1024 kBit/s
Quality : High
Add ID3 tag : No
Command line compressor : C:\Program Files (x86)\FLAC Frontend\tools\flac.exe
Additional command line options : -8 -V -T "ARTIST=%artist%" -T "TITLE=%title%" -T "ALBUM=%albumtitle%" -T "DATE=%year%" -T "TRACKNUMBER=%tracknr%" -T "TOTALTRACKS=%numtracks%" -T "GENRE=%genre%" -T "ALBUMARTIST=%albumartist%" -T "ALBUM ARTIST=%albumartist%" -T "COMMENT=EAC Secure Mode, Test & Copy, AccurateRip, FLAC -8" %source%


TOC of the extracted CD

Track | Start | Length | Start sector | End sector
––––––––––––––––––––––––––––-
1 | 0:00.00 | 4:09.47 | 0 | 18721
2 | 4:09.47 | 5:24.25 | 18722 | 43046
3 | 9:33.72 | 3:19.23 | 43047 | 57994
4 | 12:53.20 | 4:20.15 | 57995 | 77509
5 | 17:13.35 | 3:56.22 | 77510 | 95231
6 | 21:09.57 | 5:11.13 | 95232 | 118569
7 | 26:20.70 | 5:35.45 | 118570 | 143739
8 | 31:56.40 | 3:31.40 | 143740 | 159604
9 | 35:28.05 | 5:03.07 | 159605 | 182336


Track 1

Filename M:\_EAC\The John Young Trio - A Touch Of Pepper (1962) [FLAC] {2013 Japan Jazz The Best Series 24-bit Remaster}\01 - Blues Oreenee.wav

Pre-gap length 0:00:02.00

Peak level 77.2 %
Extraction speed 0.9 X
Track quality 99.9 %
Test CRC 0FB6CFE1
Copy CRC 0FB6CFE1
Cannot be verified as accurate (confidence 1) [847A481C], AccurateRip returned [567E96C6] (AR v2)
Copy OK

Track 2

Filename M:\_EAC\The John Young Trio - A Touch Of Pepper (1962) [FLAC] {2013 Japan Jazz The Best Series 24-bit Remaster}\02 - Joey.wav

Pre-gap length 0:00:03.49

Peak level 59.0 %
Extraction speed 1.0 X
Track quality 99.9 %
Test CRC ADE98099
Copy CRC ADE98099
Cannot be verified as accurate (confidence 1) [B06E9CF8], AccurateRip returned [098241E2] (AR v2)
Copy OK

Track 3

Filename M:\_EAC\The John Young Trio - A Touch Of Pepper (1962) [FLAC] {2013 Japan Jazz The Best Series 24-bit Remaster}\03 - Everything's Coming Up Roses.wav

Pre-gap length 0:00:03.16

Peak level 73.5 %
Extraction speed 1.2 X
Track quality 100.0 %
Test CRC BF3FEFD0
Copy CRC BF3FEFD0
Cannot be verified as accurate (confidence 1) [64D34C00], AccurateRip returned [F117A2EE] (AR v2)
Copy OK

Track 4

Filename M:\_EAC\The John Young Trio - A Touch Of Pepper (1962) [FLAC] {2013 Japan Jazz The Best Series 24-bit Remaster}\04 - A Lot Of Living To Do.wav

Pre-gap length 0:00:05.02

Peak level 65.6 %
Extraction speed 1.3 X
Track quality 100.0 %
Test CRC ED19780D
Copy CRC ED19780D
Cannot be verified as accurate (confidence 1) [8F57FA16], AccurateRip returned [64C626EB] (AR v2)
Copy OK

Track 5

Filename M:\_EAC\The John Young Trio - A Touch Of Pepper (1962) [FLAC] {2013 Japan Jazz The Best Series 24-bit Remaster}\05 - Search Me.wav

Pre-gap length 0:00:03.24

Peak level 57.9 %
Extraction speed 1.3 X
Track quality 100.0 %
Test CRC ACDB71C1
Copy CRC ACDB71C1
Cannot be verified as accurate (confidence 1) [6DDAFD89], AccurateRip returned [93348CCA] (AR v2)
Copy OK

Track 6

Filename M:\_EAC\The John Young Trio - A Touch Of Pepper (1962) [FLAC] {2013 Japan Jazz The Best Series 24-bit Remaster}\06 - Serenata.wav

Pre-gap length 0:00:03.59

Peak level 58.4 %
Extraction speed 1.5 X
Track quality 100.0 %
Test CRC 2A8C0AF0
Copy CRC 2A8C0AF0
Cannot be verified as accurate (confidence 1) [FA8B0D59], AccurateRip returned [18731C56] (AR v2)
Copy OK

Track 7

Filename M:\_EAC\The John Young Trio - A Touch Of Pepper (1962) [FLAC] {2013 Japan Jazz The Best Series 24-bit Remaster}\07 - Inch Worm.wav

Pre-gap length 0:00:03.57

Peak level 70.0 %
Extraction speed 1.5 X
Track quality 100.0 %
Test CRC CFB1DA12
Copy CRC CFB1DA12
Cannot be verified as accurate (confidence 1) [35CEBA5A], AccurateRip returned [0A8CD6E4] (AR v2)
Copy OK

Track 8

Filename M:\_EAC\The John Young Trio - A Touch Of Pepper (1962) [FLAC] {2013 Japan Jazz The Best Series 24-bit Remaster}\08 - The Bridge.wav

Pre-gap length 0:00:03.59

Peak level 77.3 %
Extraction speed 1.5 X
Track quality 100.0 %
Test CRC E8120514
Copy CRC E8120514
Cannot be verified as accurate (confidence 1) [B3FCF659], AccurateRip returned [616CED9F] (AR v2)
Copy OK

Track 9

Filename M:\_EAC\The John Young Trio - A Touch Of Pepper (1962) [FLAC] {2013 Japan Jazz The Best Series 24-bit Remaster}\09 - In Other Words (Fly Me To The Moon).wav

Pre-gap length 0:00:04.59

Peak level 70.8 %
Extraction speed 1.4 X
Track quality 99.9 %
Test CRC 981BCF77
Copy CRC 981BCF77
Cannot be verified as accurate (confidence 1) [73CA17BF], AccurateRip returned [F278F3DA] (AR v2)
Copy OK


No tracks could be verified as accurate
You may have a different pressing from the one(s) in the database

No errors occurred

End of status report

==== Log checksum 196B9ACDEFB99F6855C69AFEFE29A1AB2160B27631DAFCAEA76E8FD9A7055E6A ====


The John Young Trio - A Touch Of Pepper (1962) {2013 Japan Jazz The Best Series 24-bit Remaster UCCU-9742}

The John Young Trio - A Touch Of Pepper (1962) {2013 Japan Jazz The Best Series 24-bit Remaster UCCU-9742}


see more Japan Jazz The Best Series…


===