Subcategories

John Zorn - 49 Acts Of Unspeakable Depravity In The Abominable Life And Times Of Gilles de Rais (2016) {Tzadik TZ 8348}

Posted By: ruskaval
John Zorn - 49 Acts Of Unspeakable Depravity In The Abominable Life And Times Of Gilles de Rais (2016) {Tzadik TZ 8348}

John Zorn & Simulacrum - 49 Acts Of Unspeakable Depravity In The Abominable Life And Times Of Gilles de Rais (2016) {Tzadik TZ 8348}
XLD rip (secure mode) | FLAC (tracks)+CUE+LOG -> 276 Mb | MP3 @320 -> 110 Mb | Artwork | 5% repair rar
© 2016 Tzadik | Tzadik Archival Series | TZ 8348
Jazz / Jazz Rock / Heavy Metal / Jazz Funk / Jazz Blues

"49 Acts of Unspeakable Depravity in the Abominable Life and Times of Gilles de Rais" is the fifth CD by Simulacrum, an organ trio of unparalleled power that brings the sounds of heavy metal, blues, funk and jazz together with modern classical music. Tighter than ever and able to stop and start at breakneck speed, Medeski, Hollenberg and Grohowski are at their raging best as they blaze through Zorn’s wildest flights of fancy—a ten-movement suite evoking a sick and decadent descent into madness. Driven by an intense and powerful fury, this CD contains some of the craziest sounds you are ever likely to hear as genres, noise, instrumental colors and driving rhythms collide head-on. A jaw-dropping visit to a new musical world where absolutely anything is possible!
John Zorn - 49 Acts Of Unspeakable Depravity In The Abominable Life And Times Of Gilles de Rais (2016) {Tzadik TZ 8348}


Music and More INFO

Personnel:
Simulacrum

John Medeski: Organ
Kenny Grohowski: Drums
Matt Hollenberg: Guitar

All music composed, arranged and conducted by John Zorn

John Zorn - 49 Acts Of Unspeakable Depravity In The Abominable Life And Times Of Gilles de Rais (2016) {Tzadik TZ 8348}


tracklist:
1. Scene 1
2. Scene 2
3. Scene 3
4. Scene 4
5. Scene 5
6. Scene 6
7. Scene 7
8. Scene 8
9. Scene 9
10. Scene 10

X Lossless Decoder version 20161007 (149.3)

XLD extraction logfile from 2016-11-04 16:51:55 -0400

John Zorn / 49 Acts of Unspeakable Depravity

Used drive : Apple SuperDrive (revision 2.00)
Media type : Pressed CD

Ripper mode : XLD Secure Ripper
Disable audio cache : OK for the drive with a cache less than 1375KiB
Make use of C2 pointers : NO
Read offset correction : 6
Max retry count : 20
Gap status : Analyzed, Appended (except HTOA)

TOC of the extracted CD
Track | Start | Length | Start sector | End sector
––––––––––––––––––––––––––––-
1 | 00:00:00 | 03:17:62 | 0 | 14836
2 | 03:17:62 | 04:16:72 | 14837 | 34108
3 | 07:34:59 | 03:24:51 | 34109 | 49459
4 | 10:59:35 | 03:35:69 | 49460 | 65653
5 | 14:35:29 | 03:01:58 | 65654 | 79286
6 | 17:37:12 | 03:24:34 | 79287 | 94620
7 | 21:01:46 | 02:52:44 | 94621 | 107564
8 | 23:54:15 | 05:30:13 | 107565 | 132327
9 | 29:24:28 | 07:35:11 | 132328 | 166463
10 | 36:59:39 | 05:00:09 | 166464 | 188972

AccurateRip Summary
Disc not found in AccurateRip DB.

All Tracks
Album gain : -7.01 dB
Peak : 1.000000
Statistics
Read error : 0
Jitter error (maybe fixed) : 0
Retry sector count : 0
Damaged sector count : 0

Track 01
Filename : /Users/Daniel/Downloads/John Zorn - Gilles de Rais/John Zorn - 49 Acts of Unspeakable Depravity (Unknown Year) [FLAC]/01 Scene 1.flac
/Users/Daniel/Downloads/John Zorn - Gilles de Rais/John Zorn - 49 Acts of Unspeakable Depravity (Unknown Year) [MP3 320]/01 Scene 1.mp3
/Users/Daniel/Downloads/John Zorn - Gilles de Rais/John Zorn - 49 Acts of Unspeakable Depravity (Unknown Year) [MP3 V0]/01 Scene 1.mp3
Pre-gap length : 00:02:00

Track gain : -5.34 dB
Peak : 0.999969
CRC32 hash (test run) : 818D0631
CRC32 hash : 818D0631
CRC32 hash (skip zero) : AB9DD40B
AccurateRip v1 signature : BD4FE71C
AccurateRip v2 signature : 3C650B07
->Track not present in AccurateRip database.
Statistics
Read error : 0
Jitter error (maybe fixed) : 0
Retry sector count : 0
Damaged sector count : 0

Track 02
Filename : /Users/Daniel/Downloads/John Zorn - Gilles de Rais/John Zorn - 49 Acts of Unspeakable Depravity (Unknown Year) [FLAC]/02 Scene 2.flac
/Users/Daniel/Downloads/John Zorn - Gilles de Rais/John Zorn - 49 Acts of Unspeakable Depravity (Unknown Year) [MP3 320]/02 Scene 2.mp3
/Users/Daniel/Downloads/John Zorn - Gilles de Rais/John Zorn - 49 Acts of Unspeakable Depravity (Unknown Year) [MP3 V0]/02 Scene 2.mp3

Track gain : -5.10 dB
Peak : 1.000000
CRC32 hash (test run) : FFFF7D9D
CRC32 hash : FFFF7D9D
CRC32 hash (skip zero) : 74503410
AccurateRip v1 signature : 28530DE1
AccurateRip v2 signature : 996F92B1
->Track not present in AccurateRip database.
Statistics
Read error : 0
Jitter error (maybe fixed) : 0
Retry sector count : 0
Damaged sector count : 0

Track 03
Filename : /Users/Daniel/Downloads/John Zorn - Gilles de Rais/John Zorn - 49 Acts of Unspeakable Depravity (Unknown Year) [FLAC]/03 Scene 3.flac
/Users/Daniel/Downloads/John Zorn - Gilles de Rais/John Zorn - 49 Acts of Unspeakable Depravity (Unknown Year) [MP3 320]/03 Scene 3.mp3
/Users/Daniel/Downloads/John Zorn - Gilles de Rais/John Zorn - 49 Acts of Unspeakable Depravity (Unknown Year) [MP3 V0]/03 Scene 3.mp3

Track gain : -6.38 dB
Peak : 0.994751
CRC32 hash (test run) : 8A50E6DD
CRC32 hash : 8A50E6DD
CRC32 hash (skip zero) : DAF1C7F7
AccurateRip v1 signature : 36098E92
AccurateRip v2 signature : 13DBC3DD
->Track not present in AccurateRip database.
Statistics
Read error : 0
Jitter error (maybe fixed) : 0
Retry sector count : 0
Damaged sector count : 0

Track 04
Filename : /Users/Daniel/Downloads/John Zorn - Gilles de Rais/John Zorn - 49 Acts of Unspeakable Depravity (Unknown Year) [FLAC]/04 Scene 4.flac
/Users/Daniel/Downloads/John Zorn - Gilles de Rais/John Zorn - 49 Acts of Unspeakable Depravity (Unknown Year) [MP3 320]/04 Scene 4.mp3
/Users/Daniel/Downloads/John Zorn - Gilles de Rais/John Zorn - 49 Acts of Unspeakable Depravity (Unknown Year) [MP3 V0]/04 Scene 4.mp3

Track gain : -7.40 dB
Peak : 0.999969
CRC32 hash (test run) : 32469D88
CRC32 hash : 32469D88
CRC32 hash (skip zero) : 23037FB7
AccurateRip v1 signature : BF74B402
AccurateRip v2 signature : DE5D7349
->Track not present in AccurateRip database.
Statistics
Read error : 0
Jitter error (maybe fixed) : 0
Retry sector count : 0
Damaged sector count : 0

Track 05
Filename : /Users/Daniel/Downloads/John Zorn - Gilles de Rais/John Zorn - 49 Acts of Unspeakable Depravity (Unknown Year) [FLAC]/05 Scene 5.flac
/Users/Daniel/Downloads/John Zorn - Gilles de Rais/John Zorn - 49 Acts of Unspeakable Depravity (Unknown Year) [MP3 320]/05 Scene 5.mp3
/Users/Daniel/Downloads/John Zorn - Gilles de Rais/John Zorn - 49 Acts of Unspeakable Depravity (Unknown Year) [MP3 V0]/05 Scene 5.mp3

Track gain : -6.64 dB
Peak : 0.992828
CRC32 hash (test run) : ABF0C6D9
CRC32 hash : ABF0C6D9
CRC32 hash (skip zero) : CE20D950
AccurateRip v1 signature : 480F6364
AccurateRip v2 signature : CFE37AE2
->Track not present in AccurateRip database.
Statistics
Read error : 0
Jitter error (maybe fixed) : 0
Retry sector count : 0
Damaged sector count : 0

Track 06
Filename : /Users/Daniel/Downloads/John Zorn - Gilles de Rais/John Zorn - 49 Acts of Unspeakable Depravity (Unknown Year) [FLAC]/06 Scene 6.flac
/Users/Daniel/Downloads/John Zorn - Gilles de Rais/John Zorn - 49 Acts of Unspeakable Depravity (Unknown Year) [MP3 320]/06 Scene 6.mp3
/Users/Daniel/Downloads/John Zorn - Gilles de Rais/John Zorn - 49 Acts of Unspeakable Depravity (Unknown Year) [MP3 V0]/06 Scene 6.mp3

Track gain : -8.20 dB
Peak : 0.994904
CRC32 hash (test run) : A27B6DBF
CRC32 hash : A27B6DBF
CRC32 hash (skip zero) : 11207FDA
AccurateRip v1 signature : 3792492E
AccurateRip v2 signature : 05419583
->Track not present in AccurateRip database.
Statistics
Read error : 0
Jitter error (maybe fixed) : 0
Retry sector count : 0
Damaged sector count : 0

Track 07
Filename : /Users/Daniel/Downloads/John Zorn - Gilles de Rais/John Zorn - 49 Acts of Unspeakable Depravity (Unknown Year) [FLAC]/07 Scene 7.flac
/Users/Daniel/Downloads/John Zorn - Gilles de Rais/John Zorn - 49 Acts of Unspeakable Depravity (Unknown Year) [MP3 320]/07 Scene 7.mp3
/Users/Daniel/Downloads/John Zorn - Gilles de Rais/John Zorn - 49 Acts of Unspeakable Depravity (Unknown Year) [MP3 V0]/07 Scene 7.mp3

Track gain : -8.13 dB
Peak : 1.000000
CRC32 hash (test run) : B696353D
CRC32 hash : B696353D
CRC32 hash (skip zero) : 2CF2010A
AccurateRip v1 signature : 6DD949F6
AccurateRip v2 signature : C5CDA595
->Track not present in AccurateRip database.
Statistics
Read error : 0
Jitter error (maybe fixed) : 0
Retry sector count : 0
Damaged sector count : 0

Track 08
Filename : /Users/Daniel/Downloads/John Zorn - Gilles de Rais/John Zorn - 49 Acts of Unspeakable Depravity (Unknown Year) [FLAC]/08 Scene 8.flac
/Users/Daniel/Downloads/John Zorn - Gilles de Rais/John Zorn - 49 Acts of Unspeakable Depravity (Unknown Year) [MP3 320]/08 Scene 8.mp3
/Users/Daniel/Downloads/John Zorn - Gilles de Rais/John Zorn - 49 Acts of Unspeakable Depravity (Unknown Year) [MP3 V0]/08 Scene 8.mp3

Track gain : -3.94 dB
Peak : 0.977203
CRC32 hash (test run) : 9F695495
CRC32 hash : 9F695495
CRC32 hash (skip zero) : B325A391
AccurateRip v1 signature : E20F07B6
AccurateRip v2 signature : 8CC48C01
->Track not present in AccurateRip database.
Statistics
Read error : 0
Jitter error (maybe fixed) : 0
Retry sector count : 0
Damaged sector count : 0

Track 09
Filename : /Users/Daniel/Downloads/John Zorn - Gilles de Rais/John Zorn - 49 Acts of Unspeakable Depravity (Unknown Year) [FLAC]/09 Scene 9.flac
/Users/Daniel/Downloads/John Zorn - Gilles de Rais/John Zorn - 49 Acts of Unspeakable Depravity (Unknown Year) [MP3 320]/09 Scene 9.mp3
/Users/Daniel/Downloads/John Zorn - Gilles de Rais/John Zorn - 49 Acts of Unspeakable Depravity (Unknown Year) [MP3 V0]/09 Scene 9.mp3

Track gain : -6.21 dB
Peak : 1.000000
CRC32 hash (test run) : B3F74E13
CRC32 hash : B3F74E13
CRC32 hash (skip zero) : 32D2D9CE
AccurateRip v1 signature : 84C37711
AccurateRip v2 signature : CC8913E1
->Track not present in AccurateRip database.
Statistics
Read error : 0
Jitter error (maybe fixed) : 0
Retry sector count : 0
Damaged sector count : 0

Track 10
Filename : /Users/Daniel/Downloads/John Zorn - Gilles de Rais/John Zorn - 49 Acts of Unspeakable Depravity (Unknown Year) [FLAC]/10 Scene 10.flac
/Users/Daniel/Downloads/John Zorn - Gilles de Rais/John Zorn - 49 Acts of Unspeakable Depravity (Unknown Year) [MP3 320]/10 Scene 10.mp3
/Users/Daniel/Downloads/John Zorn - Gilles de Rais/John Zorn - 49 Acts of Unspeakable Depravity (Unknown Year) [MP3 V0]/10 Scene 10.mp3

Track gain : -5.49 dB
Peak : 0.988647
CRC32 hash (test run) : 2B0A6BA7
CRC32 hash : 2B0A6BA7
CRC32 hash (skip zero) : E43B528C
AccurateRip v1 signature : 28A69FA7
AccurateRip v2 signature : AC2AB12B
->Track not present in AccurateRip database.
Statistics
Read error : 0
Jitter error (maybe fixed) : 0
Retry sector count : 0
Damaged sector count : 0

No errors occurred

End of status report

––-BEGIN XLD SIGNATURE––-
ShV2nckZnKKtVfOW7uH4db4mZ7Nde.1dE7sfwWqL_BIdA205AZPZ6YhgElL6lsz69unc1WE65AJHFXXx.CLTl_C08KLK6VeK6eGo8x0
––-END XLD SIGNATURE––-


John Zorn - 49 Acts Of Unspeakable Depravity In The Abominable Life And Times Of Gilles de Rais (2016) {Tzadik TZ 8348}

John Zorn - 49 Acts Of Unspeakable Depravity In The Abominable Life And Times Of Gilles de Rais (2016) {Tzadik TZ 8348}


All thanks goes to the original releaser!

More Tzadik…

NEXT -> More Tzadik on the way…