Subcategories
Tags
Language
Tags

Johnny Smith - The Complete Roost Johnny Smith Small Group Sessions (1952-64) {8CD Box Set Mosaic MD8-216 rel 2002}

Posted By: ruskaval
Johnny Smith - The Complete Roost Johnny Smith Small Group Sessions (1952-64) {8CD Box Set Mosaic MD8-216 rel 2002}

Johnny Smith - The Complete Roost Johnny Smith Small Group Sessions (1952-64) {8CD Box Set Mosaic MD8-216 rel 2002}
EAC rip (secure mode) | FLAC (tracks)+CUE+LOG -> 2.55 Gb | MP3 @320 -> 1.29 Gb
Full Artwork @ 600 dpi (jpg) -> 67 Mb | 5% repair rar | 24-bit remaster
© 1952-64, 2002 Roost / Mosaic Records / EMI | MD8-216
Jazz / Cool / Guitar

Johnny Smith is an exquisite jazz guitarist known mostly to fellow musicians and serious jazz fans. This beautifully packaged and expertly annotated eight-CD limited-edition boxed set from Mosaic includes his complete small-group recordings for Roost, most of which have languished out of print for decades. Smith's unique voicings on his instrument set him apart from other players, yet he maintains a lush, crystal-clear tone no matter the tempo or setting.

Smith draws from a wide range of sources within the 22 featured sessions, ranging from show tunes and standards ("My Funny Valentine," "Yesterdays," "'I'll Remember April," and "Body and Soul") to jazz compositions by Duke Ellington, George Shearing, John Lewis, and Bud Powell, along with a number of his superb originals, which have been unjustly overlooked. The best-known material comes from the three 1952 sessions which made up Moonlight in Vermont, featuring Smith with either Stan Getz or Zoot Sims, and a meeting with some of New York's busiest session musicians (Hank Jones, George Duvivier, and Ed Shaughnessey). Especially rewarding is the first of two solo efforts by Smith, which draws from the vast Jimmy Van Heusen songbook. The guitarist is never disappointing, even on the few dates which fall outside of jazz. Pick up this valuable boxed set right away before you have to resort to paying an exorbitant price through an auction.
Johnny Smith - The Complete Roost Johnny Smith Small Group Sessions (1952-64) {8CD Box Set Mosaic MD8-216 rel 2002}

The world of jazz in the late '40s, '50s, and early '60s was graced with one of the most talented guitar virtuosos of all time: Johnny Smith. Unless you were a budding young jazz guitarist or a lover of guitar at that time, you probably don't own or haven't heard most of the incredible recordings that this great artist produced. Mosaic Records' release of The Complete Roost Johnny Smith Small Group Sessions is exactly that.

This 8-CD box set release contains 178 tracks that cover 15 original LPs and 4 ten-inch sessions in a beautiful digital format, paying due homage to the guitar virtuoso in celebration of his 80th birthday. This set fills a missing piece in the recorded history and legacy of jazz guitar. A large part of Smith's life-work is covered in this volume - and, of course, some of the greatest jazz guitar performances ever heard.

The musicians appearing on the recordings are for the most part Mousey Alexander (drums), George Roumanis (bass), and Bob Pancoast on piano. Hank Jones, George Duvivier, Eddie Safranski, and Don Lamond are also featured, along with Stan Getz, Zoot Sims, and Paul Quinichette. Johnny Rae (vibes and percussion), another great musician, also appears on some of the cuts.
Johnny Smith - The Complete Roost Johnny Smith Small Group Sessions (1952-64) {8CD Box Set Mosaic MD8-216 rel 2002}

Discs 1 and 2 cover some excellent recordings which offer a relaxed format and brilliant harmonic, lyrical, thematic, and humorous improvisation, fluently executed by Smith on tunes such as "Where Or When," "Dancing on the Ceiling," "Easy to Love," and "Have you Met Miss Jones." Smith's stunning technique and harmonic knowledge never got in the way of his playing, which retained a feeling of simplicity in the midst of complexity: a quality that characterizes genius. The dynamic combination of jazz great saxophonist Stan Getz with Smith produced a unique sound exemplified in their classic hit, "Moonlight in Vermont." The guitar giant always remains interesting and creative, as in the great standard "How About You," during which Smith modulates to a different key in the midst of his solo break, embarking upon a swinging solo that only he could produce. The first and second CDs showcase his beautiful closed voice and different chordal solos - particularly on ballads like "What's New," "Sophisticated Lady," and "Autumn in New York." Johnny Smith's clean technique and beautiful single line solos can be heard in "I'll Remember April," "Blues for Birdland," and the burning tempo tunes "Jaguar," "Cherokee," "S'Wonderful," and a host of other great standards on these two discs. His own composition, "Walk Don't Run" (later a hit record) gives the listener an idea of what the composer's initial idea for the song might have been.

Discs 3 and 4 feature more of the great jazz and pop standards in a quartet format, with the late Johnny Rae on vibes replacing piano on half of disc three. This group represented one of the best jazz guitar quartets of all time. Johnny Rae's cool and swinging interpretation of Milt Jackson's "Bags Groove" and Thelonious Monk's "Round Midnight" show the talent of this great jazz musician who was also a wonderful drummer and percussionist. Smith's solo on "Bags Groove" is one cool jazz 12 bar blues solo, pretty much summing up his single line solo style. Rae appears on nine of the ten tracks that were on the original LP, with Smith playing "Black is the Color of my True Love's Hair" as a solo piece. Disc 4 contains more of the classic quartet songs like "Body and Soul," "East of the Sun," and "Zing Went the Strings of my Heart," definitely completing the four-disc group.

Discs 5 and 6 are a rare addition of many great classics that time and room did not allow for in the first four discs. And luckily so, for they include many Rogers and Hammerstein favorites, like "You are Beautiful" and "People Will Say We're in Love." A large portion of these two CDs highlight Smith's seeming ease in pulling off a guitar trio session, which is a more difficult task, as the guitar is more exposed. Taking advantage, however, of the extra space in that setting, Smith shines brilliantly once again. Tunes such as Like "Someone in Love" and "A Foggy Day" give a good idea of what Johnny's conception of the guitar in a trio setting.
Johnny Smith - The Complete Roost Johnny Smith Small Group Sessions (1952-64) {8CD Box Set Mosaic MD8-216 rel 2002}

Last but not least, we have disc 7 and 8, which give us an even broader view of the versatility of the guitarist. In addition to the final collection of quartet sessions that include a number of tunes featuring Hank Jones on piano - notably "Embraceable You," "Misty," and "Gypsy in my Soul" - there is more. We are treated to the special recordings of Johnny Smith playing solo guitar - a treat indeed! This recording, called "The Man with the Blue Guitar," was recorded at the Johnny Smith Guitar Center in Colorado Springs in early 1962. He performs his own solo arrangements and adaptations of composers such as Ravel and Scrabin.

The only thing that's missing in this set is the LP that Johnny did with jazz vocalist Ruth Price. This, in my opinion, was a jazz classic ranking with the noted Barney Kessel - Julie London collaboration. Ruth Price Sings with the Johnny Smith Quartet has priceless versions of "A Sleeping Bee," "Back in Your Own Backyard," and a lot of other good tunes. Oh well, lets consider ourselves lucky. Maybe next time.
Johnny Smith - The Complete Roost Johnny Smith Small Group Sessions (1952-64) {8CD Box Set Mosaic MD8-216 rel 2002}


Personnel & tracklist:
DISC ONE

01. Where Or When (A) 2:24 (R. Rodgers-L. Hart)
02. Tabu (A) 2:39 Stillman-Russell-Lecuona)
03. Moonlight In Vermont (A) 3:13 (K. Suessdorf-J. Blackburn)
04. Jaguar (A) 2:31 (Johnny Smith)
05. Jaguar (alternate version) (B) 2:27 (Johnny Smith)
06. (I Don't Stand A) Ghost Of A Chance With You (B) 3:08 (Crosby-Washington-Young)
07. Vilia (B) 2:40 (Franz Lehar)
08. My Funny Valentine (B) 2:37 (R. Rodgers-L. Hart)
09. Sometimes I'm Happy (C) 2:17 (V. Youmans-I. Caesar)
10. Stars Fell On Alabama (C) 3:02 (M. Parish-F. Perkins)
11. Nice Work If You Can Get It (C) 2:23 (G. Gershwin-I. Gershwin)
12. Tenderly (C) 3:24 (Lawrence-Plante-Gross)
13. Yesterdays (E) 2:50 (J. Kern-O. Harbach)
14. Cavu (E) 2:12 (Johnny Smith)
15. I'll Be Around (E) 2:44 (Alec Wilder)
16. Cherokee (E) 2:47 (Ray Noble)
17. Ramona (D) 2:20 (L. W. Gilbert-M. Wayne)
18. The Terry Theme From Limelight (D) 3:13 (Charlie Chaplin)
19. Lullaby Of Birdland (F) 3:03 (George Shearing)
20. My One And Only Love (F) 2:28 (G. Wood-R. Mellin)
21. Stranger in Paradise (H) 2:36 (R. Wright-G. Forrest)
22. Our Love Is Here To Stay (H) 2:16 (G. Gershwin-I. Gershwin)
23. 'S Wonderful (H) 2:23 (G. Gershwin-I. Gershwin)
24. In A Sentimental Mood (H) 2:31 (Duke Ellington)

DISC TWO
01. What’s New (G) 3:04 (B.Haggart-J. Burke)
02. I’ll Remember April (G) 2:46 (Raye-DePaul-Johnson)
03. Sophisticated Lady (G) 3:01 (D. Ellington-M. Parish)
04. Easy To Love (G) 3:14 (Cole Porter)
05. Autumn In New York (H) 2:42 (Vernon Duke)
06. Walk, Don’t Run! (H) 2:46 (Johnny Smith)
07. Lover Man (H) 2:25 (Davis-Ramirez-Sherman)
08. Someone To Watch Over Me (H) 2:14 (G. Gershwin-I. Gershwin)
09. How About You? (H) 2:43 (R. Freed-B. Lane)
10. Dancing On The Ceiling (I) 2:56 (R. Rodgers-L. Hart)
11. Blues For Birdland (I) 2:37 (Johnny Smith)
12. Have You Met Miss Jones? (I) 2:31 (R. Rodgers-L. Hart)
13. But Beautiful (J) 2:49 (J. Burke-J. Van Heusen)
14. Swinging On A Star (J) 2:35 (J. Burke-J. Van Heusen)
15. I Could Have Told You (J) 2:49 (C. Sigman-J. Van Heusen)
16. It Could Happen To You (J) 2:09 (J. Burke-J. Van Heusen)
17. Oh You Crazy Moon (J) 2:32 (J. Burke-J. Van Heusen)
18. I Thought About You (J) 2:10 (J. Burke-J. Van Heusen)
19. Deep In A Dream (J) 2:49 (E. De Lange-J. Van Heusen)
20. So Help Me (J) 2:49 (E. De Lange-J. Van Heusen)
21. Nancy (With The Laughing Face) (J) 3:17 (P. Silvers-J. Van Heusen)
22. Polka Dots And Moonbeams (J) 2:42 (J. Burke-J. Van Heusen)
23. Darn That Dream (J) 3:27 (E. De Lange-J. Van Heusen)
24. Imagination (J) 2:34 (J. Burke-J. Van Heusen)

Johnny Smith - The Complete Roost Johnny Smith Small Group Sessions (1952-64) {8CD Box Set Mosaic MD8-216 rel 2002}


DISC THREE
01. Django (K) 5:02 (John Lewis)
02. Wait Till You See Her (K) 2:15 (R. Rodgers-L. Hart)
03. 0500 Blues (K) 3:45 (Johnny Smith)
04. More Bass (K) 2:28 (George Roumanis)
05. Un Poco Loco (K) 4:25 (Bud Powell)
06. Easy Living (K) 3:16 (R. Rainger-L. Robin)
07. Old Girl (K) 3:52 (George Roumanis)
08. Little Girl Blue (K) 2:47 (R. Rodgers-L. Hart)
09. Tired Blood (K) 4:16 (Johnny Smith)
10. Spring Is Here (K) 2:44 (R. Rodgers-L. Hart)
11. It Never Entered My Mind (L) 2:31 (R. Rodgers-L. Hart)
12. Samba (L) 2:49 (Johnny Smith)
13. Black Is The Color (Of My True Love's Hair) (L) 2:04 (Adapted by Johnny Smith)
14. Pawn Ticket (L) 7:07 (Ray Bryant)
15. 'S Wonderful (L) 4:59 (G. Gershwin-I. Gershwin)
16. You’d Be So Nice To Come Home To (L) 2:08 (Cole Porter)
17. Blue Lights (L) 4:11 (Basheer Qusim)
18. Montage (L) 4:59 (Johnny. Smith)
19. Bags' Groove (L) 3:18 (Milt Jackson)
20. ‘Round Midnight (L) 3:42 (Monk-Hanighen-Williams)

DISC FOUR
01. Hello, Young Lovers (M) 4:34 (R. Rodgers-O. Hammerstein)
02. Love For Sale (M) 3:54 (Cole Porter)
03. The Maid With The Flaxen Hair (M) 2:00 (Claude Debussy, adapted by Johnny Smith)
04. Love Letters (M) 2:12 (E. Heyman-V. Young)
05. Tickle Toe (M) 2:47 (Lester Young)
06. Goodbye (M) 2:18 (Gordon Jenkins)
07. Body And Soul (M) 3:20 (Green-Heyman-Eyton-Sour)
08. Lover (M) 3:22 (R. Rodgers-L. Hart)
09. The Boy Next Door (M) 2:35 (H. Martin-R. Blane)
10. Potter’s Luck (M) 3:37 (Horace Silver)
11. Autumn Nocturne (M) 2:07 (J. Myron-K. Gannon)
12. Band Aid (M) 3:03 (Russ Freeman)
13. Angel Eyes (N) 4:11 (M. Dennis-E. Brent)
14. Deep Night (N) 4:00 (R.Vallee-C. Henderson)
15. These Foolish Things (N) 3:30 (Strachey-Marvell-Link)
16. East Of The Sun (N) 3:09 (Brooks Bowman)
17. There’s A Small Hotel (N) 4:12 (R. Rodgers-L. Hart)
18. Laura (N) 2:31 (D. Raksin-J. Mercer)
19. Tea For Two (N) 4:39 (V. Youmans-I. Caesar)
20. You Go To My Head (N) 4:30 (J.F. Coots-H. Gillespie)
21. I’m Gettin’ Sentimental Over You (N) 5:08 (N. Washington-G. Bassman)
22. Zing Went The Strings Of My Heart (N) 5:53 (James F. Hanley)

Johnny Smith - The Complete Roost Johnny Smith Small Group Sessions (1952-64) {8CD Box Set Mosaic MD8-216 rel 2002}


DISC FIVE
01. Swingin' Shepherd Blues (O) 2:33 (Moe Koffman)
02. Lullaby Of Birdland (O) 2:05 (George Shearing)
03. You Are Beautiful (P) 3:53 (R. Rodgers-O. Hammerstein)
04. I Enjoy Being A Girl (P) 3:47 (R. Rodgers-O. Hammerstein)
05. Sunday (P) 2:32 (R. Rodgers-O. Hammerstein)
06. A Hundred Million Miracles (P) 2:36 (R. Rodgers-O. Hammerstein)
07. Grant Avenue (P) 2:27 (R. Rodgers-O. Hammerstein)
08. Love Look Away (P) 3:31 (R. Rodgers-O. Hammerstein)
09. Like A God (P) 4:03 (R. Rodgers-O. Hammerstein)
10. Finale (P) 7:13 (R. Rodgers-O. Hammerstein)
11. When I Fall In Love (Q) 2:45 (Albert Selden)
12. It Might As Well Be Spring (Q) 2:47 (R. Rodgers-O. Hammerstein)
13. I Didn’t Know What Time It Was (Q) 2:20 (R. Rodgers-L. Hart)
14. Black Is The Color (Of My True Love's Hair) (Q) 2:30 (Adapted by Johnny Smith)
15. Like Someone In Love (Q) 2:35 (J. Burke-J. Van Heusen)
16. You Don’t Know What Love Is (Q) 2:42 (D. Raye-G. DePaul)
17. Isn’t It Romantic (Q) 2:52 (R. Rodgers-L. Hart)
18. I Remember The Corn Fields (Q) 2:05 (M. Mayne-H. Ralton)
19. A Foggy Day (Q) 2:59 (G. Gershwin-I. Gershwin)
20. Scarlet Ribbons (Q) 2:42 (E. Danzig-J. Segal)
21. People Will Say We’re In Love (Q) 2:53 (R. Rodgers-O. Hammerstein)
22. The Nearness Of You (Q) 2:32 (H. Carmichael-N. Washington)

DISC SIX
01. Moonlight In Vermont (R) 2:33 (K. Suessdorf-J. Blackburn)
02. My Funny Valentine (R) 3:20 (R. Rodgers-L. Hart)
03. Little Girl Blue (R) 2:50 (R. Rodgers-L. Hart)
04. My One And Only Love (R) 2:43 (G. Wood-R. Mellin)
05. Jimmy Van Heusen Medley (R) 4:05
-Darn That Dream (E. De Lange-J. Van Heusen)
-Polka Dots and Moonbeams (E. De Lange-J. Van Heusen)
06. Satin Doll (R) 2:54 (D. Ellington-B. Strayhorn)
07. Blues Backstage (R) 3:55 (Frank Foster)
08. Everything Happens To Me (R) 3:21 (T. Adair-M. Dennis)
09. Pavane (R) 1:30 (Maurice Ravel)
10. Willow Weep For Me (R) 6:04 (Ann Ronnell)
11. Vilia (R) 3:42 (Franz Lehar)
12. Fools Rush In (R) 2:36 (R. Bloom-J. Mercer)
13. I Remember Clifford (R) 4:05 (Benny Golson)
14. The Lady Is A Tramp (R) 2:46 (R. Rodgers-L. Hart)
15. There Will Never Be Another You (R) 3:07 (H. Warren-M. Gordon)
16. Autumn Leaves (R) 4:02 (Mercer-Prevert-Kozma)
17. Mood Indigo (R) 2:50 (D. Ellington-B. Bigard)
18. Sentimental Journey (R) 3:18 (Brown-Homer-Green)
19. Three Little Words (R) 2:16 (H. Ruby-B. Kalmer)
20. My Romance (R) 2:28 (R. Rodgers-L. Hart)
21. Sometimes I’m Happy (R) 3:43 (V. Youmans-I. Caesar)
22. I’ll Take Romance (R) 3:03 (B. Oakland-O. Hammerstein)
23. Song For Jimmy Atkins (R) 3:39 (Johnny Smith)

Johnny Smith - The Complete Roost Johnny Smith Small Group Sessions (1952-64) {8CD Box Set Mosaic MD8-216 rel 2002}


DISC SEVEN
01. I Got It Bad (And That Ain't Good) (S) 2:39 (D. Ellington-P. F. Webster)
02. Let's Fall In Love (S) 2:17 (T. Koehler-H. Arlen)
03. I Can't Get Started (S) 4:56 (V. Duke-I. Gershwin)
04. Some Of These Days (S) 2:26 (Shelton Brooks)
05. You Took Advantage Of Me (S) 2:08 (R. Rodgers-L. Hart)
06. Over The Rainbow (S) 2:26 (E. Y. Harburg-H, Arlen)
07. Out Of Nowhere (S) 3:34 (E. Heyman-J. Green)
08. Prelude To A Kiss (S) 3:30 (Ellington-Mills-Gordon)
09. Un Poco Loco (S) 3:30 (Bud Powell)
10. Hippo, The Sentimental Hippy (S) 2:58 (G. Roumanis-J. Messner) .
11. It's You Or No One (S) 2:56 (S. Cahn-J. Styne)
12. Come Rain or Come Shine (T) 4:42 (J. Mercer-H. Arlen)
13. Gypsy In My Soul (T) 3:17 (C. Boland-M. Jaffe)
14. Embraceable You (T) 4:51 (G. Gershwin-I Gershwin)
15. Misty (T) 5:26 (E. Garner-J. Burke)
16, As Long As There’s Music (T) 4:02 (S. Cahn-J. Styne)
17. ‘Round Midnight (T) 4:26 (Monk-Williams-Hanighen)
18. This Can’t Be Love (T) 3:18 (R. Rodgers-L. Hart)
19. Blues Chorale (T) 3:54 (John La Porta)
20. Prelude (T) 1:24 (Alexandre Sciabin, adapted by Johnny Smith)

DISC EIGHT
01. My Romance (U) 2:11 (R. Rodgers-L. Hart)
02. Little Girl Blue (U) 2:32 (R. Rodgers-L. Hart)
03. Pavane (U) 1:32 (Maurice Ravel)
04. Prelude (U) 1:30 (Alexandre Scraibin, adapted by Johnny Smith)
05. Black Is The Color (Of My True Love's Hair) (U) 2:44 (Adapted by Johnny Smith)
06. Wait Till You See Her (U) 2:04 (R. Rodgers-L. Hart)
07. The Maid With The Flaxen Hair (U) 2:56 (Claude Debussy, adapted by Johnny Smith)
08. Shenandoah (U) 2:27 (Adapted by Johnny Smith)
09. Green Leaves Of Summer (U) 2:49 (D. Tiomkin-P. F. Webster)
10. My Funny Valentine (U) 3:13 (R. Rodgers-L. Hart)
11. Dancing In The Dark (U) 2:37 (H. Dietz-A. Schwartz)
12. Old Folks (U) 2:32 (W. Robison-D. Hill)
13. I Loves You Porgy (U) 2:27 (G. Gershwin-I. Gershwin)
14. Soon (V) 2:21 (G. Gershwin-I. Gershwin)
15. There’ll Be Other Times (V) 4:32 (Marian McPartland)
16. Satin’s Doll (V) 5:04 (Johnny Smith)
17. I’m Old Fashioned (V) 1:54 (J. Kern-J. Mercer)
18. I Remember You (V) 2:47 (J. Mercer-V. Schertzinger)
19. Fitz (V) 4:28 (Gene Roland)
20. Li'l Darlin’ (V) 3:55 (Neal Hefti)
21. Time After Time (V) 3:30 (J. Styne-S. Cahn)
22. You Are Too Beautiful (V) 3:47 (R. Rodgers-L. Hart)
23. Sweet and Lovely (V) 3:29 (Arnheim-Tobins-Lemare)

Johnny Smith - The Complete Roost Johnny Smith Small Group Sessions (1952-64) {8CD Box Set Mosaic MD8-216 rel 2002}


(A) Stan Getz (ts), Johnny Smith (g), Sanford Gold (p), Eddie Safranski (b), Don Lamond (d).
NYC, March 11, 1952

(B) Zoot Sims (ts), Johnny Smith (g), Sanford Gold (p), Eddie Safranski (b), Don Lamond (d).
NYC, April 1952

(C) Stan Getz (ts), Johnny Smith (g), Sanford Gold (p), Bob Carter (b), Morey Feld (d).
NYC, November 1952

(D) Johnny Smith (g), Joe Mooney (org), Eddie Safranski (b), Don Lamond (d)
NYC, June 5, 1953

(E) Paul Quinichette (ts), Johnny Smith (g), Sanford Gold (p), Arnold Fishkin (b), Don Lamond (d).
NYC, August, 1953

(F) Johnny Smith (g).
NYC, late 1953 or early 1954

(G) Johnny Smith (g), Perry Lopez (rhythm g), Arnold Fishkin (b), Don Lamond (d).
NYC, May 9, 1954

(H) Johnny Smith (g), Perry Lopez (rhythm g), Arnold Fishkin (b), Don Lamond (d).
NYC, September 10, 1954

(I) Johnny Smith (g), Bob Pancoast (p), George Roumanis (b), Jerry Segal (d)
NYC, 1955

(J) personnel same as (I)
NYC, possibly September 25, 1955

(K) Johnny Smith (g), Bob Pancoast (p), George Roumanis (b), Mousey Alexander (d).
NYC, possibly October 22, 1955

(L) Johnny Smith (g), Johnny Rae (vbs, bongos –1), George Roumanis (b), Johnny Lee (d)
Bell Sound, NYC, October 24, 1956

(M) Johnny Smith (g), Bob Pancoast (p), Nobby Totah (b), Jerry Segal (d).
NYC, March 18, 1957

(N) Johnny Smith (g), Bob Pancoast (p), George Roumanis (b), Mousey Alexander (d).
NYC, September 1957

(O) Johnny Smith (g), Bob Pancoast (p), George Roumanis (b), Mousey Alexander (d).
NYC, early 1958

(P) Johnny Smith (g), Charles McCracken (cello), George Roumanis (b), Mousey Alexander (d).
Penthouse Sound, NYC, mid 1958

(Q) Johnny Smith (g), George Roumanis (b), Charlie Mastropaolo (d).
Penthouse Sound, NYC, November 19, 1958

(R) Johnny Smith (g), George Roumanis (b), Mousey Alexander (d)

(S) Johnny Smith (g), Bob Pancoast (p), George Roumanis (b), Mousey Alexander (d).
NYC, early 1960

(T) Johnny Smith (g), Hank Jones (p), George Duvivier (b), Ed Shaughnessey (d).
NYC, late 1960 or early 1961

(U) Johnny Smith (g).
Johnny Smith Guitar Center, Colorado Springs, early 1962

(V) Johnny Smith (g), Bob Greene (p), Bill Bastien (b), Derryl Goes (d).
A private home, Manitou Springs, CO circa 1964


Exact Audio Copy V1.0 beta 3 from 29. August 2011

EAC extraction logfile from 27. April 2013, 3:07

Johnny Smith / Complete Roost Small Group (Disc 1)

Used drive : HP DVD Writer 1260r Adapter: 4 ID: 0

Read mode : Secure
Utilize accurate stream : Yes
Defeat audio cache : Yes
Make use of C2 pointers : No

Read offset correction : 48
Overread into Lead-In and Lead-Out : No
Fill up missing offset samples with silence : Yes
Delete leading and trailing silent blocks : No
Null samples used in CRC calculations : Yes
Used interface : Native Win32 interface for Win NT & 2000
Gap handling : Appended to previous track

Used output format : User Defined Encoder
Selected bitrate : 768 kBit/s
Quality : High
Add ID3 tag : No
Command line compressor : C:\Program Files (x86)\Exact Audio Copy\FLAC\FLAC.EXE
Additional command line options : -8 -V -T "ARTIST=%artist%" -T "TITLE=%title%" -T "ALBUM=%albumtitle%" -T "DATE=%year%" -T "TRACKNUMBER=%tracknr%" -T "GENRE=%genre%" -T "COMMENT=%comment%" -T "BAND=%albuminterpret%" -T "ALBUMARTIST=%albuminterpret%" -T "COMPOSER=%composer%" %haslyrics%–tag-from-file=LYRICS="%lyricsfile%"%haslyrics% -T "DISCNUMBER=%cdnumber%" -T "TOTALDISCS=%totalcds%" -T "TOTALTRACKS=%numtracks%" %hascover%–picture="%coverfile%"%hascover% %source% -o %dest%


TOC of the extracted CD

Track | Start | Length | Start sector | End sector
––––––––––––––––––––––––––––-
1 | 0:00.00 | 2:26.22 | 0 | 10971
2 | 2:26.22 | 2:41.24 | 10972 | 23070
3 | 5:07.46 | 3:15.20 | 23071 | 37715
4 | 8:22.66 | 2:33.52 | 37716 | 49242
5 | 10:56.43 | 2:30.36 | 49243 | 60528
6 | 13:27.04 | 3:10.42 | 60529 | 74820
7 | 16:37.46 | 2:42.28 | 74821 | 86998
8 | 19:19.74 | 2:40.26 | 86999 | 99024
9 | 22:00.25 | 2:20.24 | 99025 | 109548
10 | 24:20.49 | 3:05.12 | 109549 | 123435
11 | 27:25.61 | 2:26.05 | 123436 | 134390
12 | 29:51.66 | 3:26.69 | 134391 | 149909
13 | 33:18.60 | 2:52.64 | 149910 | 162873
14 | 36:11.49 | 2:15.02 | 162874 | 173000
15 | 38:26.51 | 2:47.20 | 173001 | 185545
16 | 41:13.71 | 2:49.22 | 185546 | 198242
17 | 44:03.18 | 2:22.59 | 198243 | 208951
18 | 46:26.02 | 3:15.19 | 208952 | 223595
19 | 49:41.21 | 3:05.69 | 223596 | 237539
20 | 52:47.15 | 2:29.64 | 237540 | 248778
21 | 55:17.04 | 2:39.04 | 248779 | 260707
22 | 57:56.08 | 2:18.54 | 260708 | 271111
23 | 60:14.62 | 2:14.57 | 271112 | 281218
24 | 62:29.44 | 2:33.66 | 281219 | 292759


Track 1

Filename E:\torrents\Johnny Smith\Disc 1\01 Where or When.wav

Pre-gap length 0:00:02.00

Peak level 98.1 %
Extraction speed 2.2 X
Track quality 100.0 %
Test CRC FEFE685B
Copy CRC FEFE685B
Accurately ripped (confidence 6) [DD1AEDF4] (AR v1)
Copy OK

Track 2

Filename E:\torrents\Johnny Smith\Disc 1\02 Tabu.wav

Peak level 99.8 %
Extraction speed 2.0 X
Track quality 99.9 %
Test CRC 0ADB8A5E
Copy CRC 0ADB8A5E
Accurately ripped (confidence 6) [756DEF79] (AR v1)
Copy OK

Track 3

Filename E:\torrents\Johnny Smith\Disc 1\03 Moonlight In Vermont.wav

Peak level 89.6 %
Extraction speed 2.6 X
Track quality 100.0 %
Test CRC C839C5CB
Copy CRC C839C5CB
Accurately ripped (confidence 6) [E71F5F23] (AR v1)
Copy OK

Track 4

Filename E:\torrents\Johnny Smith\Disc 1\04 Jaguar.wav

Peak level 97.4 %
Extraction speed 2.2 X
Track quality 99.9 %
Test CRC 46793C0E
Copy CRC 46793C0E
Accurately ripped (confidence 6) [E0C2EB1F] (AR v1)
Copy OK

Track 5

Filename E:\torrents\Johnny Smith\Disc 1\05 Jaguar (Alt.).wav

Peak level 96.7 %
Extraction speed 2.8 X
Track quality 100.0 %
Test CRC 2207FB2C
Copy CRC 2207FB2C
Accurately ripped (confidence 6) [DBE27A91] (AR v1)
Copy OK

Track 6

Filename E:\torrents\Johnny Smith\Disc 1\06 (I Don't Stand A) Ghost Of A Chance With You.wav

Peak level 97.4 %
Extraction speed 2.6 X
Track quality 99.9 %
Test CRC F14A18C4
Copy CRC F14A18C4
Accurately ripped (confidence 6) [C9303FD4] (AR v1)
Copy OK

Track 7

Filename E:\torrents\Johnny Smith\Disc 1\07 Vilia.wav

Peak level 98.7 %
Extraction speed 3.1 X
Track quality 100.0 %
Test CRC 5E04AA0A
Copy CRC 5E04AA0A
Accurately ripped (confidence 6) [28BDD091] (AR v1)
Copy OK

Track 8

Filename E:\torrents\Johnny Smith\Disc 1\08 My Funny Valentine.wav

Peak level 97.5 %
Extraction speed 2.7 X
Track quality 99.9 %
Test CRC 606A3E2B
Copy CRC 606A3E2B
Accurately ripped (confidence 6) [38416951] (AR v1)
Copy OK

Track 9

Filename E:\torrents\Johnny Smith\Disc 1\09 Sometimes I'm Happy.wav

Peak level 99.0 %
Extraction speed 3.2 X
Track quality 100.0 %
Test CRC EA925A1F
Copy CRC EA925A1F
Accurately ripped (confidence 6) [708052E0] (AR v1)
Copy OK

Track 10

Filename E:\torrents\Johnny Smith\Disc 1\10 Stars Fell On Alabama.wav

Peak level 100.0 %
Extraction speed 3.5 X
Track quality 100.0 %
Test CRC E5FA4F52
Copy CRC E5FA4F52
Accurately ripped (confidence 6) [C3A12ED8] (AR v1)
Copy OK

Track 11

Filename E:\torrents\Johnny Smith\Disc 1\11 Nice Work If You Can Get It.wav

Peak level 95.5 %
Extraction speed 2.9 X
Track quality 99.9 %
Test CRC 4889EE3F
Copy CRC 4889EE3F
Accurately ripped (confidence 6) [61FFAC94] (AR v1)
Copy OK

Track 12

Filename E:\torrents\Johnny Smith\Disc 1\12 Tenderly.wav

Peak level 99.8 %
Extraction speed 3.8 X
Track quality 100.0 %
Test CRC 64BEC6D1
Copy CRC 64BEC6D1
Accurately ripped (confidence 6) [DC58F4D2] (AR v1)
Copy OK

Track 13

Filename E:\torrents\Johnny Smith\Disc 1\13 Yesterdays.wav

Peak level 99.5 %
Extraction speed 3.8 X
Track quality 100.0 %
Test CRC 03191B1A
Copy CRC 03191B1A
Accurately ripped (confidence 6) [78D9D52D] (AR v1)
Copy OK

Track 14

Filename E:\torrents\Johnny Smith\Disc 1\14 Cavu.wav

Peak level 91.6 %
Extraction speed 3.7 X
Track quality 100.0 %
Test CRC D91BD301
Copy CRC D91BD301
Accurately ripped (confidence 6) [A931A171] (AR v1)
Copy OK

Track 15

Filename E:\torrents\Johnny Smith\Disc 1\15 I'll Be Around.wav

Peak level 88.7 %
Extraction speed 4.0 X
Track quality 100.0 %
Test CRC 509C2633
Copy CRC 509C2633
Accurately ripped (confidence 6) [4F9806CD] (AR v1)
Copy OK

Track 16

Filename E:\torrents\Johnny Smith\Disc 1\16 Cherokee.wav

Peak level 97.7 %
Extraction speed 3.5 X
Track quality 99.9 %
Test CRC 33C24000
Copy CRC 33C24000
Accurately ripped (confidence 6) [0147034B] (AR v1)
Copy OK

Track 17

Filename E:\torrents\Johnny Smith\Disc 1\17 Ramona.wav

Peak level 99.9 %
Extraction speed 4.0 X
Track quality 100.0 %
Test CRC BF25F820
Copy CRC BF25F820
Accurately ripped (confidence 6) [73955278] (AR v1)
Copy OK

Track 18

Filename E:\torrents\Johnny Smith\Disc 1\18 The Terry Theme From Limelight.wav

Peak level 96.0 %
Extraction speed 4.4 X
Track quality 100.0 %
Test CRC B929E052
Copy CRC B929E052
Accurately ripped (confidence 6) [2AACD20F] (AR v1)
Copy OK

Track 19

Filename E:\torrents\Johnny Smith\Disc 1\19 Lullaby of Birdland.wav

Peak level 95.6 %
Extraction speed 3.8 X
Track quality 99.9 %
Test CRC BC67C0B4
Copy CRC BC67C0B4
Accurately ripped (confidence 6) [1EEA367E] (AR v1)
Copy OK

Track 20

Filename E:\torrents\Johnny Smith\Disc 1\20 My One And Only Love.wav

Peak level 83.1 %
Extraction speed 4.4 X
Track quality 100.0 %
Test CRC A4B55D0D
Copy CRC A4B55D0D
Accurately ripped (confidence 6) [276CC9D5] (AR v1)
Copy OK

Track 21

Filename E:\torrents\Johnny Smith\Disc 1\21 Stranger in Paradise.wav

Peak level 90.2 %
Extraction speed 3.8 X
Track quality 99.9 %
Test CRC 87A2B2DC
Copy CRC 87A2B2DC
Accurately ripped (confidence 6) [F5B7AE6E] (AR v1)
Copy OK

Track 22

Filename E:\torrents\Johnny Smith\Disc 1\22 Our Love Is Here To Stay.wav

Peak level 92.9 %
Extraction speed 4.5 X
Track quality 100.0 %
Test CRC 3F8D25DE
Copy CRC 3F8D25DE
Accurately ripped (confidence 6) [2C0260B0] (AR v1)
Copy OK

Track 23

Filename E:\torrents\Johnny Smith\Disc 1\23 'S Wonderful.wav

Peak level 96.2 %
Extraction speed 3.7 X
Track quality 99.9 %
Test CRC F1A74ECB
Copy CRC F1A74ECB
Accurately ripped (confidence 6) [90790341] (AR v1)
Copy OK

Track 24

Filename E:\torrents\Johnny Smith\Disc 1\24 In A Sentimental Mood.wav

Peak level 91.5 %
Extraction speed 4.7 X
Track quality 100.0 %
Test CRC CEECE163
Copy CRC CEECE163
Accurately ripped (confidence 6) [5CBCF5B6] (AR v1)
Copy OK


All tracks accurately ripped

No errors occurred

End of status report

==== Log checksum 356F2B81C5E8F455999056C4BD1AA9E54993B5831041F794BCD1289B965F53D3 ====

Exact Audio Copy V1.0 beta 3 from 29. August 2011

EAC extraction logfile from 27. April 2013, 3:55

Johnny Smith / The Complete Roost Johnny Smith Small Group Sessions (Disc 2)

Used drive : HP DVD Writer 1260r Adapter: 4 ID: 0

Read mode : Secure
Utilize accurate stream : Yes
Defeat audio cache : Yes
Make use of C2 pointers : No

Read offset correction : 48
Overread into Lead-In and Lead-Out : No
Fill up missing offset samples with silence : Yes
Delete leading and trailing silent blocks : No
Null samples used in CRC calculations : Yes
Used interface : Native Win32 interface for Win NT & 2000
Gap handling : Appended to previous track

Used output format : User Defined Encoder
Selected bitrate : 768 kBit/s
Quality : High
Add ID3 tag : No
Command line compressor : C:\Program Files (x86)\Exact Audio Copy\FLAC\FLAC.EXE
Additional command line options : -8 -V -T "ARTIST=%artist%" -T "TITLE=%title%" -T "ALBUM=%albumtitle%" -T "DATE=%year%" -T "TRACKNUMBER=%tracknr%" -T "GENRE=%genre%" -T "COMMENT=%comment%" -T "BAND=%albuminterpret%" -T "ALBUMARTIST=%albuminterpret%" -T "COMPOSER=%composer%" %haslyrics%–tag-from-file=LYRICS="%lyricsfile%"%haslyrics% -T "DISCNUMBER=%cdnumber%" -T "TOTALDISCS=%totalcds%" -T "TOTALTRACKS=%numtracks%" %hascover%–picture="%coverfile%"%hascover% %source% -o %dest%


TOC of the extracted CD

Track | Start | Length | Start sector | End sector
––––––––––––––––––––––––––––-
1 | 0:00.00 | 3:06.55 | 0 | 14004
2 | 3:06.55 | 2:48.08 | 14005 | 26612
3 | 5:54.63 | 3:03.69 | 26613 | 40406
4 | 8:58.57 | 3:17.37 | 40407 | 55218
5 | 12:16.19 | 2:44.51 | 55219 | 67569
6 | 15:00.70 | 2:48.67 | 67570 | 80236
7 | 17:49.62 | 2:28.36 | 80237 | 91372
8 | 20:18.23 | 2:16.45 | 91373 | 101617
9 | 22:34.68 | 2:46.61 | 101618 | 114128
10 | 25:21.54 | 2:59.12 | 114129 | 127565
11 | 28:20.66 | 2:40.58 | 127566 | 139623
12 | 31:01.49 | 2:33.50 | 139624 | 151148
13 | 33:35.24 | 2:52.16 | 151149 | 164064
14 | 36:27.40 | 2:37.10 | 164065 | 175849
15 | 39:04.50 | 2:52.15 | 175850 | 188764
16 | 41:56.65 | 2:06.26 | 188765 | 198240
17 | 44:03.16 | 2:35.12 | 198241 | 209877
18 | 46:38.28 | 2:11.58 | 209878 | 219760
19 | 48:50.11 | 2:51.42 | 219761 | 232627
20 | 51:41.53 | 2:51.55 | 232628 | 245507
21 | 54:33.33 | 3:19.68 | 245508 | 260500
22 | 57:53.26 | 2:44.38 | 260501 | 272838
23 | 60:37.64 | 3:30.12 | 272839 | 288600
24 | 64:08.01 | 2:36.50 | 288601 | 300350


Track 1

Filename E:\torrents\Johnny Smith\Disc 2\01 What's New.wav

Pre-gap length 0:00:02.00

Peak level 99.8 %
Extraction speed 2.3 X
Track quality 100.0 %
Test CRC FA628A7A
Copy CRC FA628A7A
Accurately ripped (confidence 5) [F76A5741] (AR v1)
Copy OK

Track 2

Filename E:\torrents\Johnny Smith\Disc 2\02 I'll Remember April.wav

Peak level 99.9 %
Extraction speed 2.4 X
Track quality 100.0 %
Test CRC 2C8FB1BE
Copy CRC 2C8FB1BE
Accurately ripped (confidence 5) [69BBDD78] (AR v1)
Copy OK

Track 3

Filename E:\torrents\Johnny Smith\Disc 2\03 Sophisticated Lady.wav

Peak level 99.7 %
Extraction speed 2.3 X
Track quality 99.9 %
Test CRC 251B1209
Copy CRC 251B1209
Accurately ripped (confidence 5) [1C06FE50] (AR v1)
Copy OK

Track 4

Filename E:\torrents\Johnny Smith\Disc 2\04 Easy To Love.wav

Peak level 100.0 %
Extraction speed 2.9 X
Track quality 100.0 %
Test CRC 20376B63
Copy CRC 20376B63
Accurately ripped (confidence 5) [48E0B97E] (AR v1)
Copy OK

Track 5

Filename E:\torrents\Johnny Smith\Disc 2\05 Autumn In New York.wav

Peak level 89.3 %
Extraction speed 2.5 X
Track quality 99.9 %
Test CRC 7F668252
Copy CRC 7F668252
Accurately ripped (confidence 5) [0038CEE4] (AR v1)
Copy OK

Track 6

Filename E:\torrents\Johnny Smith\Disc 2\06 Walk, Don't Run!.wav

Peak level 99.6 %
Extraction speed 3.0 X
Track quality 100.0 %
Test CRC 440637D3
Copy CRC 440637D3
Accurately ripped (confidence 5) [0310268C] (AR v1)
Copy OK

Track 7

Filename E:\torrents\Johnny Smith\Disc 2\07 Lover Man.wav

Peak level 98.5 %
Extraction speed 3.1 X
Track quality 100.0 %
Test CRC 08BEA3BE
Copy CRC 08BEA3BE
Accurately ripped (confidence 5) [38FDF652] (AR v1)
Copy OK

Track 8

Filename E:\torrents\Johnny Smith\Disc 2\08 Someone To Watch Over Me.wav

Peak level 99.6 %
Extraction speed 3.2 X
Track quality 100.0 %
Test CRC C2330D94
Copy CRC C2330D94
Accurately ripped (confidence 5) [93E821FA] (AR v1)
Copy OK

Track 9

Filename E:\torrents\Johnny Smith\Disc 2\09 How About You.wav

Peak level 99.9 %
Extraction speed 3.4 X
Track quality 100.0 %
Test CRC D665B896
Copy CRC D665B896
Accurately ripped (confidence 5) [C509F796] (AR v1)
Copy OK

Track 10

Filename E:\torrents\Johnny Smith\Disc 2\10 Dancing On The Ceiling.wav

Peak level 99.7 %
Extraction speed 3.6 X
Track quality 100.0 %
Test CRC 46367E08
Copy CRC 46367E08
Accurately ripped (confidence 5) [40AA9A29] (AR v1)
Copy OK

Track 11

Filename E:\torrents\Johnny Smith\Disc 2\11 Blues For Birdland.wav

Peak level 100.0 %
Extraction speed 3.6 X
Track quality 100.0 %
Test CRC F1863196
Copy CRC F1863196
Accurately ripped (confidence 5) [6BFDE5F9] (AR v1)
Copy OK

Track 12

Filename E:\torrents\Johnny Smith\Disc 2\12 Have You Met Miss Jones.wav

Peak level 100.0 %
Extraction speed 3.0 X
Track quality 99.9 %
Test CRC 128C7A93
Copy CRC 128C7A93
Accurately ripped (confidence 5) [6500589C] (AR v1)
Copy OK

Track 13

Filename E:\torrents\Johnny Smith\Disc 2\13 But Beautiful.wav

Peak level 93.6 %
Extraction speed 3.8 X
Track quality 100.0 %
Test CRC FEC48B26
Copy CRC FEC48B26
Accurately ripped (confidence 5) [C62715EA] (AR v1)
Copy OK

Track 14

Filename E:\torrents\Johnny Smith\Disc 2\14 Swinging On A Star.wav

Peak level 95.9 %
Extraction speed 3.9 X
Track quality 100.0 %
Test CRC D1176633
Copy CRC D1176633
Accurately ripped (confidence 5) [931C988C] (AR v1)
Copy OK

Track 15

Filename E:\torrents\Johnny Smith\Disc 2\15 I Could Have Told You.wav

Peak level 95.9 %
Extraction speed 4.0 X
Track quality 100.0 %
Test CRC 516624A4
Copy CRC 516624A4
Accurately ripped (confidence 5) [9BC7B84D] (AR v1)
Copy OK

Track 16

Filename E:\torrents\Johnny Smith\Disc 2\16 It Could Happen To You.wav

Peak level 98.9 %
Extraction speed 3.9 X
Track quality 100.0 %
Test CRC 6431BBB5
Copy CRC 6431BBB5
Accurately ripped (confidence 4) [92F72D36] (AR v1)
Copy OK

Track 17

Filename E:\torrents\Johnny Smith\Disc 2\17 Oh You Crazy Moon.wav

Peak level 92.7 %
Extraction speed 4.2 X
Track quality 100.0 %
Test CRC B69DF619
Copy CRC B69DF619
Accurately ripped (confidence 4) [80A235A1] (AR v1)
Copy OK

Track 18

Filename E:\torrents\Johnny Smith\Disc 2\18 I Thought About You.wav

Peak level 99.7 %
Extraction speed 3.3 X
Track quality 99.9 %
Test CRC B502EB44
Copy CRC B502EB44
Accurately ripped (confidence 4) [F69066A6] (AR v1)
Copy OK

Track 19

Filename E:\torrents\Johnny Smith\Disc 2\19 Deep In A Dream.wav

Peak level 97.9 %
Extraction speed 4.4 X
Track quality 100.0 %
Test CRC 168494C2
Copy CRC 168494C2
Accurately ripped (confidence 4) [FB6A28A8] (AR v1)
Copy OK

Track 20

Filename E:\torrents\Johnny Smith\Disc 2\20 So Help Me.wav

Peak level 98.6 %
Extraction speed 4.5 X
Track quality 100.0 %
Test CRC 0DFCC0C0
Copy CRC 0DFCC0C0
Accurately ripped (confidence 4) [54541AC0] (AR v1)
Copy OK

Track 21

Filename E:\torrents\Johnny Smith\Disc 2\21 Nancy (With The Laughing Face).wav

Peak level 99.8 %
Extraction speed 4.7 X
Track quality 100.0 %
Test CRC D2D83E05
Copy CRC D2D83E05
Accurately ripped (confidence 4) [3CF50367] (AR v1)
Copy OK

Track 22

Filename E:\torrents\Johnny Smith\Disc 2\22 Polka Dot And Moonbeams.wav

Peak level 95.3 %
Extraction speed 4.7 X
Track quality 100.0 %
Test CRC 17622DFE
Copy CRC 17622DFE
Accurately ripped (confidence 4) [93061CF8] (AR v1)
Copy OK

Track 23

Filename E:\torrents\Johnny Smith\Disc 2\23 Darn That Dream.wav

Peak level 88.7 %
Extraction speed 4.3 X
Track quality 99.9 %
Test CRC DD5BF732
Copy CRC DD5BF732
Accurately ripped (confidence 4) [795D13BA] (AR v1)
Copy OK

Track 24

Filename E:\torrents\Johnny Smith\Disc 2\24 Imagination.wav

Peak level 94.8 %
Extraction speed 4.8 X
Track quality 100.0 %
Test CRC DDF40A73
Copy CRC DDF40A73
Accurately ripped (confidence 4) [3597B4EE] (AR v1)
Copy OK


All tracks accurately ripped

No errors occurred

End of status report

==== Log checksum 6AD4377289B8690147426431F8BB717667457C039595EDE87464D9933FF385A7 ====

Exact Audio Copy V1.0 beta 3 from 29. August 2011

EAC extraction logfile from 27. April 2013, 4:41

Johnny Smith / The Complete Roost Johnny Smith Small Group Sessions - Disc 3

Used drive : HP DVD Writer 1260r Adapter: 4 ID: 0

Read mode : Secure
Utilize accurate stream : Yes
Defeat audio cache : Yes
Make use of C2 pointers : No

Read offset correction : 48
Overread into Lead-In and Lead-Out : No
Fill up missing offset samples with silence : Yes
Delete leading and trailing silent blocks : No
Null samples used in CRC calculations : Yes
Used interface : Native Win32 interface for Win NT & 2000
Gap handling : Appended to previous track

Used output format : User Defined Encoder
Selected bitrate : 768 kBit/s
Quality : High
Add ID3 tag : No
Command line compressor : C:\Program Files (x86)\Exact Audio Copy\FLAC\FLAC.EXE
Additional command line options : -8 -V -T "ARTIST=%artist%" -T "TITLE=%title%" -T "ALBUM=%albumtitle%" -T "DATE=%year%" -T "TRACKNUMBER=%tracknr%" -T "GENRE=%genre%" -T "COMMENT=%comment%" -T "BAND=%albuminterpret%" -T "ALBUMARTIST=%albuminterpret%" -T "COMPOSER=%composer%" %haslyrics%–tag-from-file=LYRICS="%lyricsfile%"%haslyrics% -T "DISCNUMBER=%cdnumber%" -T "TOTALDISCS=%totalcds%" -T "TOTALTRACKS=%numtracks%" %hascover%–picture="%coverfile%"%hascover% %source% -o %dest%


TOC of the extracted CD

Track | Start | Length | Start sector | End sector
––––––––––––––––––––––––––––-
1 | 0:00.00 | 5:04.59 | 0 | 22858
2 | 5:04.59 | 2:17.18 | 22859 | 33151
3 | 7:22.02 | 3:48.13 | 33152 | 50264
4 | 11:10.15 | 2:31.03 | 50265 | 61592
5 | 13:41.18 | 4:27.45 | 61593 | 81662
6 | 18:08.63 | 3:19.10 | 81663 | 96597
7 | 21:27.73 | 3:54.73 | 96598 | 114220
8 | 25:22.71 | 2:50.14 | 114221 | 126984
9 | 28:13.10 | 4:19.63 | 126985 | 146472
10 | 32:32.73 | 2:46.64 | 146473 | 158986
11 | 35:19.62 | 2:34.11 | 158987 | 170547
12 | 37:53.73 | 2:52.08 | 170548 | 183455
13 | 40:46.06 | 2:06.66 | 183456 | 192971
14 | 42:52.72 | 7:08.72 | 192972 | 225143
15 | 50:01.69 | 5:02.00 | 225144 | 247793
16 | 55:03.69 | 2:10.36 | 247794 | 257579
17 | 57:14.30 | 4:13.60 | 257580 | 276614
18 | 61:28.15 | 5:02.01 | 276615 | 299265
19 | 66:30.16 | 3:20.65 | 299266 | 314330
20 | 69:51.06 | 3:47.41 | 314331 | 331396


Track 1

Filename E:\torrents\Johnny Smith\Disc 3\01 Django.wav

Pre-gap length 0:00:02.00

Peak level 100.0 %
Extraction speed 2.4 X
Track quality 99.9 %
Test CRC 2593A4FE
Copy CRC 2593A4FE
Accurately ripped (confidence 4) [A8756388] (AR v1)
Copy OK

Track 2

Filename E:\torrents\Johnny Smith\Disc 3\02 Wait Til You See Her.wav

Peak level 94.7 %
Extraction speed 2.5 X
Track quality 100.0 %
Test CRC FADA0162
Copy CRC FADA0162
Accurately ripped (confidence 4) [BB71E6A4] (AR v1)
Copy OK

Track 3

Filename E:\torrents\Johnny Smith\Disc 3\03 0500 Blues.wav

Peak level 97.1 %
Extraction speed 2.9 X
Track quality 100.0 %
Test CRC 43BE3EE0
Copy CRC 43BE3EE0
Accurately ripped (confidence 4) [5AC97B2E] (AR v1)
Copy OK

Track 4

Filename E:\torrents\Johnny Smith\Disc 3\04 More Bass.wav

Peak level 91.9 %
Extraction speed 2.4 X
Track quality 99.9 %
Test CRC D055365A
Copy CRC D055365A
Accurately ripped (confidence 4) [DF921087] (AR v1)
Copy OK

Track 5

Filename E:\torrents\Johnny Smith\Disc 3\05 Un Poco Loco.wav

Peak level 95.5 %
Extraction speed 3.0 X
Track quality 99.9 %
Test CRC 6CBB19F3
Copy CRC 6CBB19F3
Accurately ripped (confidence 4) [8A35F7E5] (AR v1)
Copy OK

Track 6

Filename E:\torrents\Johnny Smith\Disc 3\06 Easy Living.wav

Peak level 99.1 %
Extraction speed 3.3 X
Track quality 100.0 %
Test CRC 09F75059
Copy CRC 09F75059
Accurately ripped (confidence 4) [709A857E] (AR v1)
Copy OK

Track 7

Filename E:\torrents\Johnny Smith\Disc 3\07 Old Girl.wav

Peak level 100.0 %
Extraction speed 3.6 X
Track quality 100.0 %
Test CRC 5DCC8A46
Copy CRC 5DCC8A46
Accurately ripped (confidence 4) [5FBAADA6] (AR v1)
Copy OK

Track 8

Filename E:\torrents\Johnny Smith\Disc 3\08 Little Girl Blue.wav

Peak level 87.8 %
Extraction speed 3.5 X
Track quality 100.0 %
Test CRC FA474968
Copy CRC FA474968
Accurately ripped (confidence 4) [520E11EB] (AR v1)
Copy OK

Track 9

Filename E:\torrents\Johnny Smith\Disc 3\09 Tired Blood.wav

Peak level 92.8 %
Extraction speed 3.9 X
Track quality 100.0 %
Test CRC 02709850
Copy CRC 02709850
Accurately ripped (confidence 4) [46E6DC45] (AR v1)
Copy OK

Track 10

Filename E:\torrents\Johnny Smith\Disc 3\10 Spring Is Here.wav

Peak level 90.2 %
Extraction speed 3.8 X
Track quality 100.0 %
Test CRC 0F0D5A35
Copy CRC 0F0D5A35
Accurately ripped (confidence 4) [70BB1FC7] (AR v1)
Copy OK

Track 11

Filename E:\torrents\Johnny Smith\Disc 3\11 It Never Entered My Mind.wav

Peak level 94.8 %
Extraction speed 3.9 X
Track quality 100.0 %
Test CRC D5AFD496
Copy CRC D5AFD496
Accurately ripped (confidence 4) [11B510B5] (AR v1)
Copy OK

Track 12

Filename E:\torrents\Johnny Smith\Disc 3\12 Samba.wav

Peak level 86.2 %
Extraction speed 4.1 X
Track quality 100.0 %
Test CRC F56348FD
Copy CRC F56348FD
Accurately ripped (confidence 4) [4F8BD619] (AR v1)
Copy OK

Track 13

Filename E:\torrents\Johnny Smith\Disc 3\13 Black Is The Color (Of My True Love's Hair).wav

Peak level 85.9 %
Extraction speed 3.9 X
Track quality 100.0 %
Test CRC 596F44CE
Copy CRC 596F44CE
Accurately ripped (confidence 4) [31251AC7] (AR v1)
Copy OK

Track 14

Filename E:\torrents\Johnny Smith\Disc 3\14 Pawn Ticket.wav

Peak level 98.3 %
Extraction speed 4.5 X
Track quality 99.9 %
Test CRC 70C21533
Copy CRC 70C21533
Accurately ripped (confidence 4) [3D0DDC10] (AR v1)
Copy OK

Track 15

Filename E:\torrents\Johnny Smith\Disc 3\15 'S Wonderful.wav

Peak level 99.2 %
Extraction speed 4.9 X
Track quality 100.0 %
Test CRC 9A5D0743
Copy CRC 9A5D0743
Accurately ripped (confidence 4) [00A0EDB1] (AR v1)
Copy OK

Track 16

Filename E:\torrents\Johnny Smith\Disc 3\16 You'd Be So Nice To Come Home To.wav

Peak level 93.5 %
Extraction speed 3.5 X
Track quality 99.9 %
Test CRC AFB744C6
Copy CRC AFB744C6
Accurately ripped (confidence 4) [71A5E724] (AR v1)
Copy OK

Track 17

Filename E:\torrents\Johnny Smith\Disc 3\17 Blue Lights.wav

Peak level 100.0 %
Extraction speed 5.0 X
Track quality 100.0 %
Test CRC DDE7D269
Copy CRC DDE7D269
Accurately ripped (confidence 4) [DE1F15BC] (AR v1)
Copy OK

Track 18

Filename E:\torrents\Johnny Smith\Disc 3\18 Montage.wav

Peak level 99.9 %
Extraction speed 5.2 X
Track quality 100.0 %
Test CRC 25D54436
Copy CRC 25D54436
Accurately ripped (confidence 4) [8A450DDE] (AR v1)
Copy OK

Track 19

Filename E:\torrents\Johnny Smith\Disc 3\19 Bags' Groove.wav

Peak level 100.0 %
Extraction speed 4.4 X
Track quality 99.9 %
Test CRC 697DBD63
Copy CRC 697DBD63
Accurately ripped (confidence 4) [008D7D15] (AR v1)
Copy OK

Track 20

Filename E:\torrents\Johnny Smith\Disc 3\20 'Round Midnight.wav

Peak level 77.7 %
Extraction speed 5.4 X
Track quality 100.0 %
Test CRC 2ED4790F
Copy CRC 2ED4790F
Accurately ripped (confidence 3) [19969DE7] (AR v1)
Copy OK


All tracks accurately ripped

No errors occurred

End of status report

==== Log checksum 96F3256561073B2ABDFF822C272D6CD8E49749E43BAE4D51012BF4027B11FE77 ====

Exact Audio Copy V1.0 beta 3 from 29. August 2011

EAC extraction logfile from 27. April 2013, 5:58

Johnny Smith / The Complete Roost Johnny Smith Small Group Sessions - Disc 4

Used drive : HP DVD Writer 1260r Adapter: 4 ID: 0

Read mode : Secure
Utilize accurate stream : Yes
Defeat audio cache : Yes
Make use of C2 pointers : No

Read offset correction : 48
Overread into Lead-In and Lead-Out : No
Fill up missing offset samples with silence : Yes
Delete leading and trailing silent blocks : No
Null samples used in CRC calculations : Yes
Used interface : Native Win32 interface for Win NT & 2000
Gap handling : Appended to previous track

Used output format : User Defined Encoder
Selected bitrate : 768 kBit/s
Quality : High
Add ID3 tag : No
Command line compressor : C:\Program Files (x86)\Exact Audio Copy\FLAC\FLAC.EXE
Additional command line options : -8 -V -T "ARTIST=%artist%" -T "TITLE=%title%" -T "ALBUM=%albumtitle%" -T "DATE=%year%" -T "TRACKNUMBER=%tracknr%" -T "GENRE=%genre%" -T "COMMENT=%comment%" -T "BAND=%albuminterpret%" -T "ALBUMARTIST=%albuminterpret%" -T "COMPOSER=%composer%" %haslyrics%–tag-from-file=LYRICS="%lyricsfile%"%haslyrics% -T "DISCNUMBER=%cdnumber%" -T "TOTALDISCS=%totalcds%" -T "TOTALTRACKS=%numtracks%" %hascover%–picture="%coverfile%"%hascover% %source% -o %dest%


TOC of the extracted CD

Track | Start | Length | Start sector | End sector
––––––––––––––––––––––––––––-
1 | 0:00.00 | 4:36.25 | 0 | 20724
2 | 4:36.25 | 3:56.73 | 20725 | 38497
3 | 8:33.23 | 2:02.70 | 38498 | 47717
4 | 10:36.18 | 2:16.00 | 47718 | 57917
5 | 12:52.18 | 2:50.09 | 57918 | 70676
6 | 15:42.27 | 2:21.22 | 70677 | 81273
7 | 18:03.49 | 3:23.08 | 81274 | 96506
8 | 21:26.57 | 3:25.13 | 96507 | 111894
9 | 24:51.70 | 2:37.68 | 111895 | 123737
10 | 27:29.63 | 3:39.37 | 123738 | 140199
11 | 31:09.25 | 2:10.20 | 140200 | 149969
12 | 33:19.45 | 3:05.23 | 149970 | 163867
13 | 36:24.68 | 4:13.46 | 163868 | 182888
14 | 40:38.39 | 4:02.52 | 182889 | 201090
15 | 44:41.16 | 3:32.74 | 201091 | 217064
16 | 48:14.15 | 3:11.71 | 217065 | 231460
17 | 51:26.11 | 4:14.56 | 231461 | 250566
18 | 55:40.67 | 2:34.01 | 250567 | 262117
19 | 58:14.68 | 4:41.61 | 262118 | 283253
20 | 62:56.54 | 4:33.60 | 283254 | 303788
21 | 67:30.39 | 5:10.60 | 303789 | 327098
22 | 72:41.24 | 5:57.23 | 327099 | 353896


Track 1

Filename E:\torrents\Johnny Smith\Disc 4\01 Hello, Young Lovers.wav

Pre-gap length 0:00:02.00

Peak level 99.8 %
Extraction speed 2.6 X
Track quality 100.0 %
Test CRC 461A7326
Copy CRC 461A7326
Accurately ripped (confidence 4) [18E566DC] (AR v1)
Copy OK

Track 2

Filename E:\torrents\Johnny Smith\Disc 4\02 Love For Sale.wav

Peak level 100.0 %
Extraction speed 2.8 X
Track quality 100.0 %
Test CRC 97F85647
Copy CRC 97F85647
Accurately ripped (confidence 4) [BCE962B7] (AR v1)
Copy OK

Track 3

Filename E:\torrents\Johnny Smith\Disc 4\03 The Maid With The Flaxen Hair.wav

Peak level 76.1 %
Extraction speed 2.7 X
Track quality 100.0 %
Test CRC 7F3289B9
Copy CRC 7F3289B9
Accurately ripped (confidence 4) [240846ED] (AR v1)
Copy OK

Track 4

Filename E:\torrents\Johnny Smith\Disc 4\04 Love Letters.wav

Peak level 97.0 %
Extraction speed 2.8 X
Track quality 100.0 %
Test CRC 6CAD349B
Copy CRC 6CAD349B
Accurately ripped (confidence 4) [61915AE6] (AR v1)
Copy OK

Track 5

Filename E:\torrents\Johnny Smith\Disc 4\05 Tickle Toe.wav

Peak level 100.0 %
Extraction speed 3.1 X
Track quality 100.0 %
Test CRC 93985523
Copy CRC 93985523
Accurately ripped (confidence 4) [632F9D12] (AR v1)
Copy OK

Track 6

Filename E:\torrents\Johnny Smith\Disc 4\06 Goodbye.wav

Peak level 93.7 %
Extraction speed 3.0 X
Track quality 100.0 %
Test CRC FFBD04C3
Copy CRC FFBD04C3
Accurately ripped (confidence 4) [4ED1CEE5] (AR v1)
Copy OK

Track 7

Filename E:\torrents\Johnny Smith\Disc 4\07 Body And Soul.wav

Peak level 93.5 %
Extraction speed 3.4 X
Track quality 100.0 %
Test CRC 06E94A96
Copy CRC 06E94A96
Accurately ripped (confidence 4) [A75111AF] (AR v1)
Copy OK

Track 8

Filename E:\torrents\Johnny Smith\Disc 4\08 Lover.wav

Peak level 100.0 %
Extraction speed 3.1 X
Track quality 99.9 %
Test CRC 5417C915
Copy CRC 5417C915
Accurately ripped (confidence 4) [B88E23EE] (AR v1)
Copy OK

Track 9

Filename E:\torrents\Johnny Smith\Disc 4\09 The Boy Next Door.wav

Peak level 79.9 %
Extraction speed 3.5 X
Track quality 100.0 %
Test CRC 80ECE7B1
Copy CRC 80ECE7B1
Accurately ripped (confidence 4) [7FFD51BA] (AR v1)
Copy OK

Track 10

Filename E:\torrents\Johnny Smith\Disc 4\10 Potter's Luck.wav

Peak level 92.5 %
Extraction speed 3.9 X
Track quality 100.0 %
Test CRC 9F4CB6FE
Copy CRC 9F4CB6FE
Accurately ripped (confidence 4) [7BABDFB8] (AR v1)
Copy OK

Track 11

Filename E:\torrents\Johnny Smith\Disc 4\11 Autumn Nocturne.wav

Peak level 85.4 %
Extraction speed 3.6 X
Track quality 100.0 %
Test CRC 12CF3E71
Copy CRC 12CF3E71
Accurately ripped (confidence 4) [38885C6C] (AR v1)
Copy OK

Track 12

Filename E:\torrents\Johnny Smith\Disc 4\12 Band Aid.wav

Peak level 99.9 %
Extraction speed 4.0 X
Track quality 100.0 %
Test CRC F8C83CB4
Copy CRC F8C83CB4
Accurately ripped (confidence 4) [26B00C65] (AR v1)
Copy OK

Track 13

Filename E:\torrents\Johnny Smith\Disc 4\13 Angel Eyes.wav

Peak level 97.6 %
Extraction speed 3.8 X
Track quality 99.9 %
Test CRC 5160BCC5
Copy CRC 5160BCC5
Accurately ripped (confidence 4) [B690C80E] (AR v1)
Copy OK

Track 14

Filename E:\torrents\Johnny Smith\Disc 4\14 Deep Night.wav

Peak level 100.0 %
Extraction speed 3.9 X
Track quality 99.9 %
Test CRC 50937024
Copy CRC 50937024
Accurately ripped (confidence 4) [1506505B] (AR v1)
Copy OK

Track 15

Filename E:\torrents\Johnny Smith\Disc 4\15 These Foolish Things.wav

Peak level 92.3 %
Extraction speed 4.4 X
Track quality 100.0 %
Test CRC 60AAB8B8
Copy CRC 60AAB8B8
Accurately ripped (confidence 4) [CF71BEC0] (AR v1)
Copy OK

Track 16

Filename E:\torrents\Johnny Smith\Disc 4\16 East Of The Sun.wav

Peak level 99.9 %
Extraction speed 4.5 X
Track quality 100.0 %
Test CRC D3D28789
Copy CRC D3D28789
Accurately ripped (confidence 4) [11AB0EC8] (AR v1)
Copy OK

Track 17

Filename E:\torrents\Johnny Smith\Disc 4\17 There's A Small Hotel.wav

Peak level 100.0 %
Extraction speed 4.9 X
Track quality 100.0 %
Test CRC 0D2863DC
Copy CRC 0D2863DC
Accurately ripped (confidence 4) [88846DD4] (AR v1)
Copy OK

Track 18

Filename E:\torrents\Johnny Smith\Disc 4\18 Laura.wav

Peak level 91.9 %
Extraction speed 3.8 X
Track quality 99.9 %
Test CRC 3EEBDC67
Copy CRC 3EEBDC67
Accurately ripped (confidence 4) [F1CB7FDE] (AR v1)
Copy OK

Track 19

Filename E:\torrents\Johnny Smith\Disc 4\19 Tea For Two.wav

Peak level 96.0 %
Extraction speed 5.1 X
Track quality 100.0 %
Test CRC F722B875
Copy CRC F722B875
Accurately ripped (confidence 4) [889372E6] (AR v1)
Copy OK

Track 20

Filename E:\torrents\Johnny Smith\Disc 4\20 You Go To My Head.wav

Peak level 95.8 %
Extraction speed 5.2 X
Track quality 100.0 %
Test CRC 5A7A17B8
Copy CRC 5A7A17B8
Accurately ripped (confidence 4) [61D49A89] (AR v1)
Copy OK

Track 21

Filename E:\torrents\Johnny Smith\Disc 4\21 I'm Gettin' Sentimental Over You.wav

Peak level 100.0 %
Extraction speed 5.5 X
Track quality 100.0 %
Test CRC 5707587B
Copy CRC 5707587B
Accurately ripped (confidence 4) [774F6AF2] (AR v1)
Copy OK

Track 22

Filename E:\torrents\Johnny Smith\Disc 4\22 Zing Went The Strings Of My Heart (James F. Hanley).wav

Peak level 97.5 %
Extraction speed 5.8 X
Track quality 100.0 %
Test CRC 386CA3F0
Copy CRC 386CA3F0
Accurately ripped (confidence 3) [B3288127] (AR v1)
Copy OK


All tracks accurately ripped

No errors occurred

End of status report

==== Log checksum F14293DB58F18E11AF46E0C655D59920183AC33357B1662F7322A45E9F5AC152 ====

Exact Audio Copy V1.0 beta 3 from 29. August 2011

EAC extraction logfile from 27. April 2013, 6:45

Johnny Smith / The Complete Roost Johnny Smith Small Group Sessions - Disc 5

Used drive : HP DVD Writer 1260r Adapter: 4 ID: 0

Read mode : Secure
Utilize accurate stream : Yes
Defeat audio cache : Yes
Make use of C2 pointers : No

Read offset correction : 48
Overread into Lead-In and Lead-Out : No
Fill up missing offset samples with silence : Yes
Delete leading and trailing silent blocks : No
Null samples used in CRC calculations : Yes
Used interface : Native Win32 interface for Win NT & 2000
Gap handling : Appended to previous track

Used output format : User Defined Encoder
Selected bitrate : 768 kBit/s
Quality : High
Add ID3 tag : No
Command line compressor : C:\Program Files (x86)\Exact Audio Copy\FLAC\FLAC.EXE
Additional command line options : -8 -V -T "ARTIST=%artist%" -T "TITLE=%title%" -T "ALBUM=%albumtitle%" -T "DATE=%year%" -T "TRACKNUMBER=%tracknr%" -T "GENRE=%genre%" -T "COMMENT=%comment%" -T "BAND=%albuminterpret%" -T "ALBUMARTIST=%albuminterpret%" -T "COMPOSER=%composer%" %haslyrics%–tag-from-file=LYRICS="%lyricsfile%"%haslyrics% -T "DISCNUMBER=%cdnumber%" -T "TOTALDISCS=%totalcds%" -T "TOTALTRACKS=%numtracks%" %hascover%–picture="%coverfile%"%hascover% %source% -o %dest%


TOC of the extracted CD

Track | Start | Length | Start sector | End sector
––––––––––––––––––––––––––––-
1 | 0:00.00 | 2:35.55 | 0 | 11679
2 | 2:35.55 | 2:07.39 | 11680 | 21243
3 | 4:43.19 | 3:55.27 | 21244 | 38895
4 | 8:38.46 | 3:50.06 | 38896 | 56151
5 | 12:28.52 | 2:34.61 | 56152 | 67762
6 | 15:03.38 | 2:39.17 | 67763 | 79704
7 | 17:42.55 | 2:29.71 | 79705 | 90950
8 | 20:12.51 | 3:34.05 | 90951 | 107005
9 | 23:46.56 | 4:05.74 | 107006 | 125454
10 | 27:52.55 | 7:15.72 | 125455 | 158151
11 | 35:08.52 | 2:47.68 | 158152 | 170744
12 | 37:56.45 | 2:49.60 | 170745 | 183479
13 | 40:46.30 | 2:22.04 | 183480 | 194133
14 | 43:08.34 | 2:32.71 | 194134 | 205604
15 | 45:41.30 | 2:36.63 | 205605 | 217367
16 | 48:18.18 | 2:44.45 | 217368 | 229712
17 | 51:02.63 | 2:54.73 | 229713 | 242835
18 | 53:57.61 | 2:08.08 | 242836 | 252443
19 | 56:05.69 | 3:02.03 | 252444 | 266096
20 | 59:07.72 | 2:44.55 | 266097 | 278451
21 | 61:52.52 | 2:55.66 | 278452 | 291642
22 | 64:48.43 | 2:37.28 | 291643 | 303445


Track 1

Filename E:\torrents\Johnny Smith\Disc 5\01 Swingin' Shepherd Blues.wav

Pre-gap length 0:00:02.00

Peak level 94.1 %
Extraction speed 2.2 X
Track quality 100.0 %
Test CRC 9C18787A
Copy CRC 9C18787A
Accurately ripped (confidence 4) [4486F75B] (AR v1)
Copy OK

Track 2

Filename E:\torrents\Johnny Smith\Disc 5\02 Lullaby Of Birdland.wav

Peak level 96.7 %
Extraction speed 2.2 X
Track quality 100.0 %
Test CRC 37085A0E
Copy CRC 37085A0E
Accurately ripped (confidence 4) [38FA2D0C] (AR v1)
Copy OK

Track 3

Filename E:\torrents\Johnny Smith\Disc 5\03 You Are Beautiful.wav

Peak level 91.4 %
Extraction speed 2.4 X
Track quality 99.9 %
Test CRC 76731946
Copy CRC 76731946
Accurately ripped (confidence 4) [2575FC5E] (AR v1)
Copy OK

Track 4

Filename E:\torrents\Johnny Smith\Disc 5\04 I Enjoy Being A Girl.wav

Peak level 96.6 %
Extraction speed 2.6 X
Track quality 99.9 %
Test CRC E26AD92D
Copy CRC E26AD92D
Accurately ripped (confidence 4) [F92D2EEB] (AR v1)
Copy OK

Track 5

Filename E:\torrents\Johnny Smith\Disc 5\05 Sunday.wav

Peak level 91.5 %
Extraction speed 2.9 X
Track quality 100.0 %
Test CRC 310FF5A9
Copy CRC 310FF5A9
Accurately ripped (confidence 4) [DDDD9282] (AR v1)
Copy OK

Track 6

Filename E:\torrents\Johnny Smith\Disc 5\06 A Hundred Million Miracles.wav

Peak level 94.6 %
Extraction speed 3.0 X
Track quality 100.0 %
Test CRC D45068FB
Copy CRC D45068FB
Accurately ripped (confidence 4) [29927EBF] (AR v1)
Copy OK

Track 7

Filename E:\torrents\Johnny Smith\Disc 5\07 Grant Avenue.wav

Peak level 92.9 %
Extraction speed 3.1 X
Track quality 100.0 %
Test CRC 991FFFF9
Copy CRC 991FFFF9
Accurately ripped (confidence 4) [19701E6C] (AR v1)
Copy OK

Track 8

Filename E:\torrents\Johnny Smith\Disc 5\08 Love Look Away.wav

Peak level 96.0 %
Extraction speed 3.4 X
Track quality 100.0 %
Test CRC 71455225
Copy CRC 71455225
Accurately ripped (confidence 4) [5901EB46] (AR v1)
Copy OK

Track 9

Filename E:\torrents\Johnny Smith\Disc 5\09 Like A God.wav

Peak level 95.4 %
Extraction speed 3.3 X
Track quality 99.9 %
Test CRC 296B21F8
Copy CRC 296B21F8
Accurately ripped (confidence 4) [BDD9C5DD] (AR v1)
Copy OK

Track 10

Filename E:\torrents\Johnny Smith\Disc 5\10 Finale.wav

Peak level 99.1 %
Extraction speed 4.2 X
Track quality 100.0 %
Test CRC D4C66BE2
Copy CRC D4C66BE2
Accurately ripped (confidence 4) [D40C1054] (AR v1)
Copy OK

Track 11

Filename E:\torrents\Johnny Smith\Disc 5\11 When I Fall In Love.wav

Peak level 94.5 %
Extraction speed 3.9 X
Track quality 100.0 %
Test CRC 45D09155
Copy CRC 45D09155
Accurately ripped (confidence 4) [A08618A7] (AR v1)
Copy OK

Track 12

Filename E:\torrents\Johnny Smith\Disc 5\12 It Might As Well Be Spring.wav

Peak level 93.2 %
Extraction speed 4.0 X
Track quality 100.0 %
Test CRC 1EF07358
Copy CRC 1EF07358
Accurately ripped (confidence 4) [AAD0326A] (AR v1)
Copy OK

Track 13

Filename E:\torrents\Johnny Smith\Disc 5\13 I Didn't Know What Time It Was.wav

Peak level 90.4 %
Extraction speed 3.3 X
Track quality 99.9 %
Test CRC B41D9038
Copy CRC B41D9038
Accurately ripped (confidence 4) [11874944] (AR v1)
Copy OK

Track 14

Filename E:\torrents\Johnny Smith\Disc 5\14 Black Is The Color (Of My True Love's Hair).wav

Peak level 83.1 %
Extraction speed 4.1 X
Track quality 100.0 %
Test CRC A7876B21
Copy CRC A7876B21
Accurately ripped (confidence 4) [CD8C44EC] (AR v1)
Copy OK

Track 15

Filename E:\torrents\Johnny Smith\Disc 5\15 Like Someone In Love.wav

Peak level 100.0 %
Extraction speed 3.9 X
Track quality 100.0 %
Test CRC ECB07BA1
Copy CRC ECB07BA1
Accurately ripped (confidence 4) [D74A9B69] (AR v1)
Copy OK

Track 16

Filename E:\torrents\Johnny Smith\Disc 5\16 You Don't Know What Love Is.wav

Peak level 88.4 %
Extraction speed 4.3 X
Track quality 100.0 %
Test CRC 301DF269
Copy CRC 301DF269
Accurately ripped (confidence 4) [5C626D7F] (AR v1)
Copy OK

Track 17

Filename E:\torrents\Johnny Smith\Disc 5\17 Isn't It Romantic.wav

Peak level 93.2 %
Extraction speed 3.8 X
Track quality 99.9 %
Test CRC 04AB8CB3
Copy CRC 04AB8CB3
Accurately ripped (confidence 4) [F4271965] (AR v1)
Copy OK

Track 18

Filename E:\torrents\Johnny Smith\Disc 5\18 I Remember The Corn Fields.wav

Peak level 81.4 %
Extraction speed 3.5 X
Track quality 99.9 %
Test CRC 6BFE7BDF
Copy CRC 6BFE7BDF
Accurately ripped (confidence 4) [D27733A0] (AR v1)
Copy OK

Track 19

Filename E:\torrents\Johnny Smith\Disc 5\19 A Foggy Day.wav

Peak level 93.4 %
Extraction speed 4.7 X
Track quality 100.0 %
Test CRC 19C9A8C3
Copy CRC 19C9A8C3
Accurately ripped (confidence 4) [9087D250] (AR v1)
Copy OK

Track 20

Filename E:\torrents\Johnny Smith\Disc 5\20 Scarlet Ribbons.wav

Peak level 89.6 %
Extraction speed 4.7 X
Track quality 100.0 %
Test CRC B3F6C11C
Copy CRC B3F6C11C
Accurately ripped (confidence 4) [DBA995E5] (AR v1)
Copy OK

Track 21

Filename E:\torrents\Johnny Smith\Disc 5\21 People Will Say We're In Love.wav

Peak level 97.5 %
Extraction speed 4.8 X
Track quality 100.0 %
Test CRC 985D67E9
Copy CRC 985D67E9
Accurately ripped (confidence 4) [D392464A] (AR v1)
Copy OK

Track 22

Filename E:\torrents\Johnny Smith\Disc 5\22 The Nearness Of You.wav

Peak level 99.6 %
Extraction speed 4.1 X
Track quality 99.9 %
Test CRC FD038689
Copy CRC FD038689
Accurately ripped (confidence 4) [FF37B30C] (AR v1)
Copy OK


All tracks accurately ripped

No errors occurred

End of status report

==== Log checksum 5C14CDD9429E7995E855D9189C2993E8CAC9711A78D4AE25A91838DEB42FDC13 ====

Exact Audio Copy V1.0 beta 3 from 29. August 2011

EAC extraction logfile from 27. April 2013, 9:06

Johnny Smith / The Complete Roost Johnny Smith Small Group Sessions - Disc 6

Used drive : HP DVD Writer 1260r Adapter: 4 ID: 0

Read mode : Secure
Utilize accurate stream : Yes
Defeat audio cache : Yes
Make use of C2 pointers : No

Read offset correction : 48
Overread into Lead-In and Lead-Out : No
Fill up missing offset samples with silence : Yes
Delete leading and trailing silent blocks : No
Null samples used in CRC calculations : Yes
Used interface : Native Win32 interface for Win NT & 2000
Gap handling : Appended to previous track

Used output format : User Defined Encoder
Selected bitrate : 768 kBit/s
Quality : High
Add ID3 tag : No
Command line compressor : C:\Program Files (x86)\Exact Audio Copy\FLAC\FLAC.EXE
Additional command line options : -8 -V -T "ARTIST=%artist%" -T "TITLE=%title%" -T "ALBUM=%albumtitle%" -T "DATE=%year%" -T "TRACKNUMBER=%tracknr%" -T "GENRE=%genre%" -T "COMMENT=%comment%" -T "BAND=%albuminterpret%" -T "ALBUMARTIST=%albuminterpret%" -T "COMPOSER=%composer%" %haslyrics%–tag-from-file=LYRICS="%lyricsfile%"%haslyrics% -T "DISCNUMBER=%cdnumber%" -T "TOTALDISCS=%totalcds%" -T "TOTALTRACKS=%numtracks%" %hascover%–picture="%coverfile%"%hascover% %source% -o %dest%


TOC of the extracted CD

Track | Start | Length | Start sector | End sector
––––––––––––––––––––––––––––-
1 | 0:00.00 | 2:35.38 | 0 | 11662
2 | 2:35.38 | 3:22.71 | 11663 | 26883
3 | 5:58.34 | 2:53.07 | 26884 | 39865
4 | 8:51.41 | 2:46.00 | 39866 | 52315
5 | 11:37.41 | 4:07.69 | 52316 | 70909
6 | 15:45.35 | 2:57.00 | 70910 | 84184
7 | 18:42.35 | 3:57.13 | 84185 | 101972
8 | 22:39.48 | 3:23.71 | 101973 | 117268
9 | 26:03.44 | 1:32.11 | 117269 | 124179
10 | 27:35.55 | 6:06.41 | 124180 | 151670
11 | 33:42.21 | 3:44.28 | 151671 | 168498
12 | 37:26.49 | 2:38.50 | 168499 | 180398
13 | 40:05.24 | 4:08.67 | 180399 | 199065
14 | 44:14.16 | 2:48.61 | 199066 | 211726
15 | 47:03.02 | 3:10.00 | 211727 | 225976
16 | 50:13.02 | 4:04.68 | 225977 | 244344
17 | 54:17.70 | 2:53.23 | 244345 | 257342
18 | 57:11.18 | 3:20.74 | 257343 | 272416
19 | 60:32.17 | 2:18.19 | 272417 | 282785
20 | 62:50.36 | 2:31.01 | 282786 | 294111
21 | 65:21.37 | 3:45.67 | 294112 | 311053
22 | 69:07.29 | 3:05.65 | 311054 | 324993
23 | 72:13.19 | 3:45.07 | 324994 | 341875


Track 1

Filename E:\torrents\Johnny Smith\Disc 6\01 Moonlight In Vermont.wav

Pre-gap length 0:00:02.00

Peak level 90.0 %
Extraction speed 2.3 X
Track quality 100.0 %
Test CRC 85167270
Copy CRC 85167270
Accurately ripped (confidence 3) [74E5CBBA] (AR v1)
Copy OK

Track 2

Filename E:\torrents\Johnny Smith\Disc 6\02 My Funny Valentine.wav

Peak level 91.7 %
Extraction speed 2.6 X
Track quality 100.0 %
Test CRC BDC5B24F
Copy CRC BDC5B24F
Accurately ripped (confidence 4) [777F8C6F] (AR v1)
Copy OK

Track 3

Filename E:\torrents\Johnny Smith\Disc 6\03 Little Girl Blue.wav

Peak level 86.3 %
Extraction speed 2.7 X
Track quality 100.0 %
Test CRC CFED394E
Copy CRC CFED394E
Accurately ripped (confidence 4) [529D8A98] (AR v1)
Copy OK

Track 4

Filename E:\torrents\Johnny Smith\Disc 6\04 My One And Only Love.wav

Peak level 98.2 %
Extraction speed 2.4 X
Track quality 99.9 %
Test CRC 87701092
Copy CRC 87701092
Accurately ripped (confidence 4) [11CCB8D5] (AR v1)
Copy OK

Track 5

Filename E:\torrents\Johnny Smith\Disc 6\05 Jimmy Van Heusen Melody… Darn That Dream & Polka Dots And Moonbeams.wav

Peak level 98.2 %
Extraction speed 3.2 X
Track quality 100.0 %
Test CRC 78152FEF
Copy CRC 78152FEF
Accurately ripped (confidence 4) [4E26C09D] (AR v1)
Copy OK

Track 6

Filename E:\torrents\Johnny Smith\Disc 6\06 Satin Doll.wav

Peak level 97.9 %
Extraction speed 3.2 X
Track quality 100.0 %
Test CRC 167D0718
Copy CRC 167D0718
Accurately ripped (confidence 4) [6EF714C2] (AR v1)
Copy OK

Track 7

Filename E:\torrents\Johnny Smith\Disc 6\07 Blues Backstage.wav

Peak level 97.5 %
Extraction speed 3.5 X
Track quality 100.0 %
Test CRC 30A7885F
Copy CRC 30A7885F
Accurately ripped (confidence 4) [73B669EF] (AR v1)
Copy OK

Track 8

Filename E:\torrents\Johnny Smith\Disc 6\08 Everything Happens To Me.wav

Peak level 89.4 %
Extraction speed 3.6 X
Track quality 100.0 %
Test CRC DFA8D565
Copy CRC DFA8D565
Accurately ripped (confidence 4) [00B23229] (AR v1)
Copy OK

Track 9

Filename E:\torrents\Johnny Smith\Disc 6\09 Pavane.wav

Peak level 52.8 %
Extraction speed 3.1 X
Track quality 100.0 %
Test CRC 716AA6B8
Copy CRC 716AA6B8
Accurately ripped (confidence 4) [2499C6AD] (AR v1)
Copy OK

Track 10

Filename E:\torrents\Johnny Smith\Disc 6\10 Willow Weep For Me.wav

Peak level 85.3 %
Extraction speed 4.1 X
Track quality 100.0 %
Test CRC 64635926
Copy CRC 64635926
Accurately ripped (confidence 4) [66EDF9D6] (AR v1)
Copy OK

Track 11

Filename E:\torrents\Johnny Smith\Disc 6\11 Vilia.wav

Peak level 99.7 %
Extraction speed 4.1 X
Track quality 100.0 %
Test CRC F99D43E3
Copy CRC F99D43E3
Accurately ripped (confidence 4) [5C86E5DC] (AR v1)
Copy OK

Track 12

Filename E:\torrents\Johnny Smith\Disc 6\12 Fools Rush In.wav

Peak level 99.8 %
Extraction speed 3.4 X
Track quality 99.9 %
Test CRC 1D1D20C0
Copy CRC 1D1D20C0
Accurately ripped (confidence 4) [038F6D6C] (AR v1)
Copy OK

Track 13

Filename E:\torrents\Johnny Smith\Disc 6\13 I Remember Clifford.wav

Peak level 99.5 %
Extraction speed 4.4 X
Track quality 100.0 %
Test CRC FEA63AEE
Copy CRC FEA63AEE
Accurately ripped (confidence 4) [26816B72] (AR v1)
Copy OK

Track 14

Filename E:\torrents\Johnny Smith\Disc 6\14 The Lady Is A Tramp.wav

Peak level 99.6 %
Extraction speed 4.3 X
Track quality 100.0 %
Test CRC 3DA394B7
Copy CRC 3DA394B7
Accurately ripped (confidence 4) [B1F116CB] (AR v1)
Copy OK

Track 15

Filename E:\torrents\Johnny Smith\Disc 6\15 There Will Never Be Another You.wav

Peak level 95.7 %
Extraction speed 4.5 X
Track quality 100.0 %
Test CRC 8DFFFF4E
Copy CRC 8DFFFF4E
Accurately ripped (confidence 4) [973AC8AC] (AR v1)
Copy OK

Track 16

Filename E:\torrents\Johnny Smith\Disc 6\16 Autumn Leaves.wav

Peak level 95.5 %
Extraction speed 4.8 X
Track quality 100.0 %
Test CRC 7A73A5FC
Copy CRC 7A73A5FC
Accurately ripped (confidence 4) [AED5CFF9] (AR v1)
Copy OK

Track 17

Filename E:\torrents\Johnny Smith\Disc 6\17 Mood Indigo.wav

Peak level 92.1 %
Extraction speed 3.9 X
Track quality 99.9 %
Test CRC DD0BDAA5
Copy CRC DD0BDAA5
Accurately ripped (confidence 4) [DC934E95] (AR v1)
Copy OK

Track 18

Filename E:\torrents\Johnny Smith\Disc 6\18 Sentimental Journey.wav

Peak level 97.1 %
Extraction speed 4.8 X
Track quality 100.0 %
Test CRC 6A008EB2
Copy CRC 6A008EB2
Accurately ripped (confidence 4) [ED8CA3E5] (AR v1)
Copy OK

Track 19

Filename E:\torrents\Johnny Smith\Disc 6\19 Three Little Words.wav

Peak level 95.4 %
Extraction speed 4.6 X
Track quality 100.0 %
Test CRC 700195E1
Copy CRC 700195E1
Accurately ripped (confidence 4) [7491F75D] (AR v1)
Copy OK

Track 20

Filename E:\torrents\Johnny Smith\Disc 6\20 My Romance.wav

Peak level 99.9 %
Extraction speed 4.7 X
Track quality 100.0 %
Test CRC 96091EBA
Copy CRC 96091EBA
Accurately ripped (confidence 4) [6AAA5CC9] (AR v1)
Copy OK

Track 21

Filename E:\torrents\Johnny Smith\Disc 6\21 Sometimes I'm Happy.wav

Peak level 100.0 %
Extraction speed 5.2 X
Track quality 100.0 %
Test CRC 3EA08C44
Copy CRC 3EA08C44
Accurately ripped (confidence 4) [7DB50DBE] (AR v1)
Copy OK

Track 22

Filename E:\torrents\Johnny Smith\Disc 6\22 I'll Take Romance.wav

Peak level 99.4 %
Extraction speed 5.1 X
Track quality 100.0 %
Test CRC FBF4C1F8
Copy CRC FBF4C1F8
Accurately ripped (confidence 4) [583BCFAF] (AR v1)
Copy OK

Track 23

Filename E:\torrents\Johnny Smith\Disc 6\23 Song For Jimmy Atkins.wav

Peak level 99.9 %
Extraction speed 4.7 X
Track quality 99.9 %
Test CRC 7695A273
Copy CRC 7695A273
Accurately ripped (confidence 4) [FB02A710] (AR v1)
Copy OK


All tracks accurately ripped

No errors occurred

End of status report

==== Log checksum 4F3AE371350FDED9DA6FB673CA04FD946C1A95A2F9538E347EBDE7BBDD37971E ====

Exact Audio Copy V1.0 beta 3 from 29. August 2011

EAC extraction logfile from 27. April 2013, 9:50

Johnny Smith / The Complete Roost Johnny Smith Small Group Sessions - Disc 7

Used drive : HP DVD Writer 1260r Adapter: 4 ID: 0

Read mode : Secure
Utilize accurate stream : Yes
Defeat audio cache : Yes
Make use of C2 pointers : No

Read offset correction : 48
Overread into Lead-In and Lead-Out : No
Fill up missing offset samples with silence : Yes
Delete leading and trailing silent blocks : No
Null samples used in CRC calculations : Yes
Used interface : Native Win32 interface for Win NT & 2000
Gap handling : Appended to previous track

Used output format : User Defined Encoder
Selected bitrate : 768 kBit/s
Quality : High
Add ID3 tag : No
Command line compressor : C:\Program Files (x86)\Exact Audio Copy\FLAC\FLAC.EXE
Additional command line options : -8 -V -T "ARTIST=%artist%" -T "TITLE=%title%" -T "ALBUM=%albumtitle%" -T "DATE=%year%" -T "TRACKNUMBER=%tracknr%" -T "GENRE=%genre%" -T "COMMENT=%comment%" -T "BAND=%albuminterpret%" -T "ALBUMARTIST=%albuminterpret%" -T "COMPOSER=%composer%" %haslyrics%–tag-from-file=LYRICS="%lyricsfile%"%haslyrics% -T "DISCNUMBER=%cdnumber%" -T "TOTALDISCS=%totalcds%" -T "TOTALTRACKS=%numtracks%" %hascover%–picture="%coverfile%"%hascover% %source% -o %dest%


TOC of the extracted CD

Track | Start | Length | Start sector | End sector
––––––––––––––––––––––––––––-
1 | 0:00.00 | 2:42.40 | 0 | 12189
2 | 2:42.40 | 2:20.37 | 12190 | 22726
3 | 5:03.02 | 4:58.37 | 22727 | 45113
4 | 10:01.39 | 2:28.46 | 45114 | 56259
5 | 12:30.10 | 2:11.60 | 56260 | 66144
6 | 14:41.70 | 2:29.52 | 66145 | 77371
7 | 17:11.47 | 3:37.08 | 77372 | 93654
8 | 20:48.55 | 3:33.21 | 93655 | 109650
9 | 24:22.01 | 3:32.59 | 109651 | 125609
10 | 27:54.60 | 3:01.10 | 125610 | 139194
11 | 30:55.70 | 2:59.35 | 139195 | 152654
12 | 33:55.30 | 4:45.12 | 152655 | 174041
13 | 38:40.42 | 3:20.10 | 174042 | 189051
14 | 42:00.52 | 4:54.35 | 189052 | 211136
15 | 46:55.12 | 5:28.55 | 211137 | 235791
16 | 52:23.67 | 4:04.63 | 235792 | 254154
17 | 56:28.55 | 4:28.39 | 254155 | 274293
18 | 60:57.19 | 3:20.17 | 274294 | 289310
19 | 64:17.36 | 3:56.60 | 289311 | 307070
20 | 68:14.21 | 1:28.62 | 307071 | 313732


Track 1

Filename E:\torrents\Johnny Smith\Disc 7\01 I Got It Bad (And That Ain't Good).wav

Pre-gap length 0:00:02.00

Peak level 92.2 %
Extraction speed 2.2 X
Track quality 100.0 %
Test CRC D36A3C56
Copy CRC D36A3C56
Accurately ripped (confidence 4) [B26BE3BC] (AR v1)
Copy OK

Track 2

Filename E:\torrents\Johnny Smith\Disc 7\02 Let's Fall In Love.wav

Peak level 98.3 %
Extraction speed 2.3 X
Track quality 100.0 %
Test CRC F75CF83B
Copy CRC F75CF83B
Accurately ripped (confidence 4) [1444EFFC] (AR v1)
Copy OK

Track 3

Filename E:\torrents\Johnny Smith\Disc 7\03 I Can't Get Started.wav

Peak level 93.5 %
Extraction speed 2.4 X
Track quality 99.9 %
Test CRC 01846773
Copy CRC 01846773
Accurately ripped (confidence 4) [BAB2D82D] (AR v1)
Copy OK

Track 4

Filename E:\torrents\Johnny Smith\Disc 7\04 Some Of These Days.wav

Peak level 99.8 %
Extraction speed 2.7 X
Track quality 100.0 %
Test CRC 41EBD61A
Copy CRC 41EBD61A
Accurately ripped (confidence 4) [BD9CB97E] (AR v1)
Copy OK

Track 5

Filename E:\torrents\Johnny Smith\Disc 7\05 You Took Advantage Of Me.wav

Peak level 100.0 %
Extraction speed 2.3 X
Track quality 99.9 %
Test CRC F06F5807
Copy CRC F06F5807
Accurately ripped (confidence 4) [95678400] (AR v1)
Copy OK

Track 6

Filename E:\torrents\Johnny Smith\Disc 7\06 Over The Rainbow.wav

Peak level 83.8 %
Extraction speed 2.5 X
Track quality 99.9 %
Test CRC 679AD0A7
Copy CRC 679AD0A7
Accurately ripped (confidence 4) [629D84D3] (AR v1)
Copy OK

Track 7

Filename E:\torrents\Johnny Smith\Disc 7\07 Out Of Nowhere.wav

Peak level 94.9 %
Extraction speed 2.9 X
Track quality 99.9 %
Test CRC 7652CBF0
Copy CRC 7652CBF0
Accurately ripped (confidence 4) [14288A0A] (AR v1)
Copy OK

Track 8

Filename E:\torrents\Johnny Smith\Disc 7\08 Prelude To A Kiss.wav

Peak level 82.6 %
Extraction speed 3.5 X
Track quality 100.0 %
Test CRC D461504B
Copy CRC D461504B
Accurately ripped (confidence 4) [D005A196] (AR v1)
Copy OK

Track 9

Filename E:\torrents\Johnny Smith\Disc 7\09 Un Poco Loco.wav

Peak level 95.9 %
Extraction speed 3.2 X
Track quality 99.9 %
Test CRC 9F23C55E
Copy CRC 9F23C55E
Accurately ripped (confidence 4) [E720FBA1] (AR v1)
Copy OK

Track 10

Filename E:\torrents\Johnny Smith\Disc 7\10 Hippo, The Sentimental Hippy.wav

Peak level 99.9 %
Extraction speed 3.6 X
Track quality 100.0 %
Test CRC 3C7F9348
Copy CRC 3C7F9348
Accurately ripped (confidence 4) [A302E91B] (AR v1)
Copy OK

Track 11

Filename E:\torrents\Johnny Smith\Disc 7\11 It's You Or No One.wav

Peak level 100.0 %
Extraction speed 3.8 X
Track quality 100.0 %
Test CRC 333D85E6
Copy CRC 333D85E6
Accurately ripped (confidence 4) [0A1FD7DE] (AR v1)
Copy OK

Track 12

Filename E:\torrents\Johnny Smith\Disc 7\12 Come Rain Or Come Shine.wav

Peak level 97.0 %
Extraction speed 3.8 X
Track quality 99.9 %
Test CRC 522DB176
Copy CRC 522DB176
Accurately ripped (confidence 4) [5650390C] (AR v1)
Copy OK

Track 13

Filename E:\torrents\Johnny Smith\Disc 7\13 Gypsy In My Soul.wav

Peak level 97.9 %
Extraction speed 4.1 X
Track quality 100.0 %
Test CRC 39A0987A
Copy CRC 39A0987A
Accurately ripped (confidence 4) [79BFC826] (AR v1)
Copy OK

Track 14

Filename E:\torrents\Johnny Smith\Disc 7\14 Embraceable You.wav

Peak level 99.7 %
Extraction speed 4.1 X
Track quality 99.9 %
Test CRC 5A9FD0FF
Copy CRC 5A9FD0FF
Accurately ripped (confidence 4) [DCB3B10E] (AR v1)
Copy OK

Track 15

Filename E:\torrents\Johnny Smith\Disc 7\15 Misty.wav

Peak level 85.5 %
Extraction speed 4.8 X
Track quality 100.0 %
Test CRC A983FBAC
Copy CRC A983FBAC
Accurately ripped (confidence 4) [AC381166] (AR v1)
Copy OK

Track 16

Filename E:\torrents\Johnny Smith\Disc 7\16 As Long As There's Music.wav

Peak level 99.8 %
Extraction speed 4.9 X
Track quality 100.0 %
Test CRC 2AB5440A
Copy CRC 2AB5440A
Accurately ripped (confidence 4) [972A4CA0] (AR v1)
Copy OK

Track 17

Filename E:\torrents\Johnny Smith\Disc 7\17 'Round Midnight.wav

Peak level 98.1 %
Extraction speed 5.0 X
Track quality 100.0 %
Test CRC 4E173703
Copy CRC 4E173703
Accurately ripped (confidence 4) [99451406] (AR v1)
Copy OK

Track 18

Filename E:\torrents\Johnny Smith\Disc 7\18 This Can't Be Love.wav

Peak level 97.1 %
Extraction speed 4.8 X
Track quality 100.0 %
Test CRC 7BF13B19
Copy CRC 7BF13B19
Accurately ripped (confidence 4) [46C4AE38] (AR v1)
Copy OK

Track 19

Filename E:\torrents\Johnny Smith\Disc 7\19 Blues Chorale.wav

Peak level 99.7 %
Extraction speed 5.2 X
Track quality 100.0 %
Test CRC 69F558A2
Copy CRC 69F558A2
Accurately ripped (confidence 4) [C3E0008D] (AR v1)
Copy OK

Track 20

Filename E:\torrents\Johnny Smith\Disc 7\20 Prelude.wav

Peak level 77.5 %
Extraction speed 4.3 X
Track quality 100.0 %
Test CRC F4CBAE3C
Copy CRC F4CBAE3C
Accurately ripped (confidence 4) [8476DD13] (AR v1)
Copy OK


All tracks accurately ripped

No errors occurred

End of status report

==== Log checksum DB1B706A9059A85BA90BA00220F85E5B76A3445D11E68E43790CA0FDC2DC8378 ====

Exact Audio Copy V1.0 beta 3 from 29. August 2011

EAC extraction logfile from 27. April 2013, 18:32

Johnny Smith / The Complete Roost Johnny Smith Small Group Sessions - Disc 8

Used drive : HP DVD Writer 1260r Adapter: 4 ID: 0

Read mode : Secure
Utilize accurate stream : Yes
Defeat audio cache : Yes
Make use of C2 pointers : No

Read offset correction : 48
Overread into Lead-In and Lead-Out : No
Fill up missing offset samples with silence : Yes
Delete leading and trailing silent blocks : No
Null samples used in CRC calculations : Yes
Used interface : Native Win32 interface for Win NT & 2000
Gap handling : Appended to previous track

Used output format : User Defined Encoder
Selected bitrate : 768 kBit/s
Quality : High
Add ID3 tag : No
Command line compressor : C:\Program Files (x86)\Exact Audio Copy\FLAC\FLAC.EXE
Additional command line options : -8 -V -T "ARTIST=%artist%" -T "TITLE=%title%" -T "ALBUM=%albumtitle%" -T "DATE=%year%" -T "TRACKNUMBER=%tracknr%" -T "GENRE=%genre%" -T "COMMENT=%comment%" -T "BAND=%albuminterpret%" -T "ALBUMARTIST=%albuminterpret%" -T "COMPOSER=%composer%" %haslyrics%–tag-from-file=LYRICS="%lyricsfile%"%haslyrics% -T "DISCNUMBER=%cdnumber%" -T "TOTALDISCS=%totalcds%" -T "TOTALTRACKS=%numtracks%" %hascover%–picture="%coverfile%"%hascover% %source% -o %dest%


TOC of the extracted CD

Track | Start | Length | Start sector | End sector
––––––––––––––––––––––––––––-
1 | 0:00.00 | 2:13.34 | 0 | 10008
2 | 2:13.34 | 2:34.62 | 10009 | 21620
3 | 4:48.21 | 1:34.67 | 21621 | 28737
4 | 6:23.13 | 1:32.40 | 28738 | 35677
5 | 7:55.53 | 2:46.42 | 35678 | 48169
6 | 10:42.20 | 2:06.55 | 48170 | 57674
7 | 12:49.00 | 2:58.55 | 57675 | 71079
8 | 15:47.55 | 2:29.59 | 71080 | 82313
9 | 18:17.39 | 2:52.44 | 82314 | 95257
10 | 21:10.08 | 3:16.47 | 95258 | 110004
11 | 24:26.55 | 2:39.26 | 110005 | 121955
12 | 27:06.06 | 2:34.60 | 121956 | 133565
13 | 29:40.66 | 2:29.69 | 133566 | 144809
14 | 32:10.60 | 2:23.62 | 144810 | 155596
15 | 34:34.47 | 4:34.71 | 155597 | 176217
16 | 39:09.43 | 5:06.72 | 176218 | 199239
17 | 44:16.40 | 1:56.70 | 199240 | 208009
18 | 46:13.35 | 2:49.68 | 208010 | 220752
19 | 49:03.28 | 4:30.55 | 220753 | 241057
20 | 53:34.08 | 3:57.63 | 241058 | 258895
21 | 57:31.71 | 3:32.63 | 258896 | 274858
22 | 61:04.59 | 3:50.08 | 274859 | 292116
23 | 64:54.67 | 3:36.04 | 292117 | 308320


Track 1

Filename E:\torrents\Johnny Smith\Disc 8\01 My Romance.wav

Pre-gap length 0:00:02.00

Peak level 66.8 %
Extraction speed 1.7 X
Track quality 99.9 %
Test CRC 4C1BAE63
Copy CRC 4C1BAE63
Accurately ripped (confidence 4) [0DC041E8] (AR v1)
Copy OK

Track 2

Filename E:\torrents\Johnny Smith\Disc 8\02 Little Girl Blue.wav

Peak level 79.2 %
Extraction speed 2.3 X
Track quality 100.0 %
Test CRC 91F46244
Copy CRC 91F46244
Accurately ripped (confidence 4) [5F0209A3] (AR v1)
Copy OK

Track 3

Filename E:\torrents\Johnny Smith\Disc 8\03 Pavane.wav

Peak level 57.2 %
Extraction speed 2.1 X
Track quality 100.0 %
Test CRC 19973417
Copy CRC 19973417
Accurately ripped (confidence 4) [670A4CA3] (AR v1)
Copy OK

Track 4

Filename E:\torrents\Johnny Smith\Disc 8\04 Prelude.wav

Peak level 57.0 %
Extraction speed 2.2 X
Track quality 100.0 %
Test CRC 34F29C5D
Copy CRC 34F29C5D
Accurately ripped (confidence 4) [769815AF] (AR v1)
Copy OK

Track 5

Filename E:\torrents\Johnny Smith\Disc 8\05 Black Is The Color (Of My True Love's Hair).wav

Peak level 79.6 %
Extraction speed 2.7 X
Track quality 100.0 %
Test CRC 0C24BE31
Copy CRC 0C24BE31
Accurately ripped (confidence 4) [10FCAA97] (AR v1)
Copy OK

Track 6

Filename E:\torrents\Johnny Smith\Disc 8\06 Wait Till You See Her.wav

Peak level 80.9 %
Extraction speed 2.6 X
Track quality 100.0 %
Test CRC 23B2BD99
Copy CRC 23B2BD99
Accurately ripped (confidence 4) [CC3F20D3] (AR v1)
Copy OK

Track 7

Filename E:\torrents\Johnny Smith\Disc 8\07 The Maiden With The Flaxen Hair.wav

Peak level 70.0 %
Extraction speed 3.0 X
Track quality 100.0 %
Test CRC 1C8F2A15
Copy CRC 1C8F2A15
Accurately ripped (confidence 4) [F1F4A150] (AR v1)
Copy OK

Track 8

Filename E:\torrents\Johnny Smith\Disc 8\08 Shenandoah.wav

Peak level 85.0 %
Extraction speed 3.1 X
Track quality 100.0 %
Test CRC A9F79829
Copy CRC A9F79829
Accurately ripped (confidence 4) [61BCE0A2] (AR v1)
Copy OK

Track 9

Filename E:\torrents\Johnny Smith\Disc 8\09 Green Leaves Of Summer.wav

Peak level 81.3 %
Extraction speed 3.2 X
Track quality 100.0 %
Test CRC FD31364A
Copy CRC FD31364A
Accurately ripped (confidence 4) [107A5616] (AR v1)
Copy OK

Track 10

Filename E:\torrents\Johnny Smith\Disc 8\10 My Funny Valentine.wav

Peak level 92.1 %
Extraction speed 3.5 X
Track quality 100.0 %
Test CRC 9920E48F
Copy CRC 9920E48F
Accurately ripped (confidence 4) [9407619E] (AR v1)
Copy OK

Track 11

Filename E:\torrents\Johnny Smith\Disc 8\11 Dancing In The Dark.wav

Peak level 86.5 %
Extraction speed 2.9 X
Track quality 99.9 %
Test CRC 6743CBB9
Copy CRC 6743CBB9
Accurately ripped (confidence 4) [2A1C6477] (AR v1)
Copy OK

Track 12

Filename E:\torrents\Johnny Smith\Disc 8\12 Old Folks.wav

Peak level 60.3 %
Extraction speed 3.6 X
Track quality 100.0 %
Test CRC C5550D71
Copy CRC C5550D71
Accurately ripped (confidence 4) [DC39F860] (AR v1)
Copy OK

Track 13

Filename E:\torrents\Johnny Smith\Disc 8\13 I Loves You, Porgy.wav

Peak level 73.2 %
Extraction speed 3.6 X
Track quality 100.0 %
Test CRC 0DE1FD7D
Copy CRC 0DE1FD7D
Accurately ripped (confidence 4) [0A507EA9] (AR v1)
Copy OK

Track 14

Filename E:\torrents\Johnny Smith\Disc 8\14 Soon.wav

Peak level 96.3 %
Extraction speed 3.7 X
Track quality 100.0 %
Test CRC 115148C1
Copy CRC 115148C1
Accurately ripped (confidence 4) [7A4D47D6] (AR v1)
Copy OK

Track 15

Filename E:\torrents\Johnny Smith\Disc 8\15 There'll Be Other Times.wav

Peak level 87.6 %
Extraction speed 4.2 X
Track quality 100.0 %
Test CRC 2839D6CB
Copy CRC 2839D6CB
Accurately ripped (confidence 4) [6F168FAC] (AR v1)
Copy OK

Track 16

Filename E:\torrents\Johnny Smith\Disc 8\16 Satin's Doll.wav

Peak level 97.6 %
Extraction speed 4.4 X
Track quality 100.0 %
Test CRC 689C5A40
Copy CRC 689C5A40
Accurately ripped (confidence 4) [4A087311] (AR v1)
Copy OK

Track 17

Filename E:\torrents\Johnny Smith\Disc 8\17 I'm Old Fashioned.wav

Peak level 88.9 %
Extraction speed 3.9 X
Track quality 100.0 %
Test CRC 1E33851F
Copy CRC 1E33851F
Accurately ripped (confidence 4) [525115E8] (AR v1)
Copy OK

Track 18

Filename E:\torrents\Johnny Smith\Disc 8\18 I Remember You.wav

Peak level 99.6 %
Extraction speed 4.2 X
Track quality 100.0 %
Test CRC F2C72AA3
Copy CRC F2C72AA3
Accurately ripped (confidence 4) [7DFEF0FC] (AR v1)
Copy OK

Track 19

Filename E:\torrents\Johnny Smith\Disc 8\19 Fitz.wav

Peak level 98.5 %
Extraction speed 4.8 X
Track quality 100.0 %
Test CRC 4A22710B
Copy CRC 4A22710B
Accurately ripped (confidence 4) [973E9D2F] (AR v1)
Copy OK

Track 20

Filename E:\torrents\Johnny Smith\Disc 8\20 Li'l Darlin'.wav

Peak level 93.8 %
Extraction speed 4.8 X
Track quality 100.0 %
Test CRC 2E825D7C
Copy CRC 2E825D7C
Accurately ripped (confidence 4) [180C5721] (AR v1)
Copy OK

Track 21

Filename E:\torrents\Johnny Smith\Disc 8\21 Time After Time.wav

Peak level 94.5 %
Extraction speed 4.3 X
Track quality 99.9 %
Test CRC E46687E2
Copy CRC E46687E2
Accurately ripped (confidence 4) [8CE7ED10] (AR v1)
Copy OK

Track 22

Filename E:\torrents\Johnny Smith\Disc 8\22 You Are Too Beautiful.wav

Peak level 85.5 %
Extraction speed 5.0 X
Track quality 100.0 %
Test CRC A49239ED
Copy CRC A49239ED
Accurately ripped (confidence 4) [BF9DBD94] (AR v1)
Copy OK

Track 23

Filename E:\torrents\Johnny Smith\Disc 8\23 Sweet And Lovely (Arnheim-Tobins-Lemare).wav

Peak level 99.9 %
Extraction speed 5.1 X
Track quality 100.0 %
Test CRC 16094382
Copy CRC 16094382
Accurately ripped (confidence 4) [63A0F93E] (AR v1)
Copy OK


All tracks accurately ripped

No errors occurred

End of status report

==== Log checksum 7A6BCF37EAE6E11D65CD9A7567F5AEE9CB9578303CC068DFFF71A9B948D280F0 ====


Johnny Smith - The Complete Roost Johnny Smith Small Group Sessions (1952-64) {8CD Box Set Mosaic MD8-216 rel 2002}



===