Tags
Language
Tags

Jordi Savall & Hesperion XXI - Le Royaume Oublie - La Tragedie Cathare (2009) {3CD Set Alia Vox AVSA 9873}

Posted By: ruskaval
Jordi Savall & Hesperion XXI - Le Royaume Oublie - La Tragedie Cathare (2009) {3CD Set Alia Vox AVSA 9873}

Jordi Savall & Hesperion XXI - Le Royaume Oublie - La Tragedie Cathare (2009) {3CD Set Alia Vox AVSA 9873}
EAC rip (secure mode) | FLAC (tracks)+CUE+LOG -> 1.10 Gb | MP3 @320 -> 537 Mb
Full Artwork @ 600 dpi (jpg) -> 485 Mb | 5% repair rar
© 2009 Alia Vox | AVSA 9873
Classical / Medieval

Catharism was the name given to a Christian religious sect that appeared in the Languedoc region of what is now southern France and flourished in the 12th and 13th centuries. The Cathars saw matter as intrinsically evil. They denied that Jesus could become incarnate and still be the son of God and thus, the Catholic Church regarded the sect as dangerously heretical. Faced with what they saw as a rapidly spreading cancer, the Church called for a crusade, which was carried out by knights from Northern France and Germany and was known as the Albigensian Crusade. This campaign, and the inquisition that followed it, eradicated the Cathars completely. It also had the effect of weakening the semi- independent southern principalities in the area, ultimately bringing them under direct control of the King of France.
Jordi Savall & Hesperion XXI - Le Royaume Oublie - La Tragedie Cathare (2009) {3CD Set Alia Vox AVSA 9873}

Occitania, once a crossroads of many cultures, was one of the victims of the Albigensian Crusade. Occitania s refined culture culminated in the troubadour tradition, which subsequently spread to Italy, Spain and Greece. Related movements sprang up throughout Europe: the Minnesingers in Germany, trovadorismo in Galicia and Portugal and the trouvères in northern France. On this album, Jordi Savall not only explores the classical period of the troubadour school from around the turn of the 13th century, but also provides us with a comprehensive historical and artistic background of this Golden Age. It is time we remembered this forgotten kingdom where much of what we call Western culture was incubated.
Jordi Savall & Hesperion XXI - Le Royaume Oublie - La Tragedie Cathare (2009) {3CD Set Alia Vox AVSA 9873}

Having been a fan of Jordi Savall and Montserrat Figueras for many years now, I felt sure that this production would be up to their usual excellent standards. It is. The story of the Cathars deserves to be remembered. It is a wonderful and terrible story of what happens when the followers of a particular human philosophy are overrun by a mind-set which sees nothing but evil in viewpoints other than its own. The parallels with latter-day fundamentalism and terrorism are disturbing.

Jordi Savall & Hesperion XXI - Le Royaume Oublie - La Tragedie Cathare (2009) {3CD Set Alia Vox AVSA 9873}


The presentation is sumptuous - three CDs and a hardback book amply illustrated with images from manuscripts of the 12th and 13th centuries, and text written in seven different languages. It is a fitting tribute to the brave and tragic people known as Cathars, and indeed to all people who have fallen foul of prevailing ignorance and narrow mindedness simply because of ideological difference.

Hear the music, read the story - you cannot remain unmoved.
Jordi Savall & Hesperion XXI - Le Royaume Oublie - La Tragedie Cathare (2009) {3CD Set Alia Vox AVSA 9873}


Alia Vox INFO
More INFO


Personnel:
Montserrat Figueras
Pascal Bertin, Marc Mauillon
Lluís Vilamajó, Furio Zanasi
Andrew Lawrence-King

La Capella Reial de Catalunya

Hespèrion XXI
Jordi Savall


tracklist:
CD1

01 - Musique Bulgare
02 - Veri dulcis in tempore
03 - Plainte Instrumentale I
04 - Les Trois Principes, alef, mem, shin
05 - Reis Glorios
06 - Payre sant
07 - En to stavro pares tosa
08 - Fanfare de Croisade
09 - Taksim & Danse arabo andalouse - Mawachah Chamoulo
10 - Plainte Instrumentale II
11 - Pos de chantar
12 - A chantar m'er de so
13 - Epistola ad patrem Bernardum
14 - Mentem meam ledit dolor
15 - Ave generosa
16 - Consolament
17 - Marche funebre
18 - Heu Miser
19 - A per pauc de chantar
20 - Cloches papales et bucher Troyen
21 - Chant de la Sybille Occitaine ''Ell jorn del judizi''

Jordi Savall & Hesperion XXI - Le Royaume Oublie - La Tragedie Cathare (2009) {3CD Set Alia Vox AVSA 9873}


CD2
01 - Fanfare
02 - Ego enim scio…
03 - Quant ay lo mon consirat
04 - Molt era dous e plazens
05 - E l'abas de Cistels. Vers. 4
06 - Nous exhortons…
07 - Cant l'apostolis saub. Vers 5
08 - Fanfares et appels de bataille
09 - Le barnatges de Fransa. Vers 21
10 - Quascus plor e planh
11 - Lavaurs fon tan fortz vila. Vers 68
12 - Cruciferi ex precepto…
13 - Vai, hugonet, ses bistensa
14 - Bel m'es q'ieu chant e coindei
15 - Aissi cum es genser Pascors
16 - L'Epictafi de S. de Montfort. Vers 208
17 - D'un sirventes far

Jordi Savall & Hesperion XXI - Le Royaume Oublie - La Tragedie Cathare (2009) {3CD Set Alia Vox AVSA 9873}


CD3
01 - Fanfare
02 - Clergue si fan pastor
03 - Plainte Instrumentale III
04 - Ad exstirpanda
05 - Un sirventes novel vueill comensar
06 - Beliche
07 - Del tot vey remaner valor
08 - Planctus ''Lavandose le mane''
09 - Pater Noster
10 - Tartarassa ni voutor
11 - Audi pontus, audi tellus
12 - El Rey de Francia
13 - Il n'est pas etonnant…
14 - Marche funebre
15 - No puesc sofrir la dolor
16 - Plainte Instrumentale IV
17 - Audi, benigne
18 - Ballade de la Pucelle
19 - O crudele suplicium. Planctus
20 - Der makam-i Saba usules Cenber
21 - Plainte Instrumentale V
22 - O tres piteulx de tout espoir fontaine
23 - Si ay perdut mon saber

Jordi Savall & Hesperion XXI - Le Royaume Oublie - La Tragedie Cathare (2009) {3CD Set Alia Vox AVSA 9873}


Exact Audio Copy V1.0 beta 1 from 15. November 2010

EAC extraction logfile from 17. September 2012, 18:53

Various Artists / Le Royaume Oublie - La Tragedie Cathare

Used drive : Optiarc DVD RW AD-5280S Adapter: 4 ID: 0

Read mode : Secure
Utilize accurate stream : Yes
Defeat audio cache : Yes
Make use of C2 pointers : No

Read offset correction : 48
Overread into Lead-In and Lead-Out : No
Fill up missing offset samples with silence : Yes
Delete leading and trailing silent blocks : No
Null samples used in CRC calculations : Yes
Used interface : Native Win32 interface for Win NT & 2000
Gap handling : Appended to previous track

Used output format : User Defined Encoder
Selected bitrate : 256 kBit/s
Quality : High
Add ID3 tag : No
Command line compressor : D:\Program Files\FLAC\flac.exe
Additional command line options : -8 -V -T "ARTIST=%a" -T "TITLE=%t" -T "ALBUM=%g" -T "DATE=%y" -T "TRACKNUMBER=%n" -T "TOTALTRACKS=%x" -T "GENRE=%m" -T "ALBUMARTIST=%v" -T "ALBUM ARTIST=%v" -T "COMMENT=EAC Secure Mode, Test & Copy, AccurateRip, FLAC -8" %s


TOC of the extracted CD

Track | Start | Length | Start sector | End sector
––––––––––––––––––––––––––––-
1 | 0:00.00 | 5:11.54 | 0 | 23378
2 | 5:11.54 | 3:57.19 | 23379 | 41172
3 | 9:08.73 | 1:16.45 | 41173 | 46917
4 | 10:25.43 | 6:56.25 | 46918 | 78142
5 | 17:21.68 | 1:12.29 | 78143 | 83571
6 | 18:34.22 | 0:22.67 | 83572 | 85288
7 | 18:57.14 | 3:11.50 | 85289 | 99663
8 | 22:08.64 | 2:11.41 | 99664 | 109529
9 | 24:20.30 | 4:49.02 | 109530 | 131206
10 | 29:09.32 | 1:48.61 | 131207 | 139367
11 | 30:58.18 | 6:05.63 | 139368 | 166805
12 | 37:04.06 | 6:52.44 | 166806 | 197749
13 | 43:56.50 | 2:20.00 | 197750 | 208249
14 | 46:16.50 | 7:01.74 | 208250 | 239898
15 | 53:18.49 | 3:51.49 | 239899 | 257272
16 | 57:10.23 | 0:50.02 | 257273 | 261024
17 | 58:00.25 | 0:55.62 | 261025 | 265211
18 | 58:56.12 | 0:43.11 | 265212 | 268447
19 | 59:39.23 | 3:53.74 | 268448 | 285996
20 | 63:33.22 | 1:00.46 | 285997 | 290542
21 | 64:33.68 | 14:32.05 | 290543 | 355947


Track 1

Filename J:\Le Royaume Oublie - La Tragedie Cathare (Savall, Hesperion XXI, La Capella Reial) (2009) [FLAC] {Alia Vox AVSA9873}\Disc 1of3\01 - Anonymous - Musique Bulgare.wav

Pre-gap length 0:00:02.00

Peak level 58.4 %
Extraction speed 2.7 X
Track quality 100.0 %
Test CRC E3119EA3
Copy CRC E3119EA3
Accurately ripped (confidence 7) [E5AD23EE]
Copy OK

Track 2

Filename J:\Le Royaume Oublie - La Tragedie Cathare (Savall, Hesperion XXI, La Capella Reial) (2009) [FLAC] {Alia Vox AVSA9873}\Disc 1of3\02 - Anonymous - Veri dulcis in tempore.wav

Peak level 59.4 %
Extraction speed 2.9 X
Track quality 100.0 %
Test CRC AA5FB63D
Copy CRC AA5FB63D
Accurately ripped (confidence 7) [DF01BA67]
Copy OK

Track 3

Filename J:\Le Royaume Oublie - La Tragedie Cathare (Savall, Hesperion XXI, La Capella Reial) (2009) [FLAC] {Alia Vox AVSA9873}\Disc 1of3\03 - Anonymous - Plainte Instrumentale I.wav

Peak level 38.8 %
Extraction speed 2.4 X
Track quality 100.0 %
Test CRC 3CEBB687
Copy CRC 3CEBB687
Accurately ripped (confidence 7) [B06763EC]
Copy OK

Track 4

Filename J:\Le Royaume Oublie - La Tragedie Cathare (Savall, Hesperion XXI, La Capella Reial) (2009) [FLAC] {Alia Vox AVSA9873}\Disc 1of3\04 - Anonymous - Les Trois Principes, alef, mem, shin.wav

Peak level 98.0 %
Extraction speed 3.5 X
Track quality 100.0 %
Test CRC 658C66D6
Copy CRC 658C66D6
Accurately ripped (confidence 7) [3C6215A6]
Copy OK

Track 5

Filename J:\Le Royaume Oublie - La Tragedie Cathare (Savall, Hesperion XXI, La Capella Reial) (2009) [FLAC] {Alia Vox AVSA9873}\Disc 1of3\05 - Anonymous - Reis Glorios.wav

Peak level 67.3 %
Extraction speed 1.9 X
Track quality 99.8 %
Test CRC 28E92817
Copy CRC 28E92817
Accurately ripped (confidence 7) [E21817C8]
Copy OK

Track 6

Filename J:\Le Royaume Oublie - La Tragedie Cathare (Savall, Hesperion XXI, La Capella Reial) (2009) [FLAC] {Alia Vox AVSA9873}\Disc 1of3\06 - Gerard Gourian - Payre sant.wav

Peak level 25.5 %
Extraction speed 0.9 X
Track quality 99.5 %
Test CRC 28E4D981
Copy CRC 28E4D981
Accurately ripped (confidence 7) [CBF90CC0]
Copy OK

Track 7

Filename J:\Le Royaume Oublie - La Tragedie Cathare (Savall, Hesperion XXI, La Capella Reial) (2009) [FLAC] {Alia Vox AVSA9873}\Disc 1of3\07 - Anonymous - En to stavro pares tosa.wav

Peak level 49.7 %
Extraction speed 3.5 X
Track quality 100.0 %
Test CRC BBB4E336
Copy CRC BBB4E336
Accurately ripped (confidence 7) [389069DB]
Copy OK

Track 8

Filename J:\Le Royaume Oublie - La Tragedie Cathare (Savall, Hesperion XXI, La Capella Reial) (2009) [FLAC] {Alia Vox AVSA9873}\Disc 1of3\08 - Anonymous - Fanfare de Croisade.wav

Peak level 95.8 %
Extraction speed 3.3 X
Track quality 100.0 %
Test CRC 1AD0860A
Copy CRC 1AD0860A
Accurately ripped (confidence 7) [EFD8EA67]
Copy OK

Track 9

Filename J:\Le Royaume Oublie - La Tragedie Cathare (Savall, Hesperion XXI, La Capella Reial) (2009) [FLAC] {Alia Vox AVSA9873}\Disc 1of3\09 - Anonymous - Taksim & Danse arabo andalouse - Mawachah Chamoulo.wav

Peak level 79.1 %
Extraction speed 4.0 X
Track quality 100.0 %
Test CRC 56A741F8
Copy CRC 56A741F8
Accurately ripped (confidence 7) [87071305]
Copy OK

Track 10

Filename J:\Le Royaume Oublie - La Tragedie Cathare (Savall, Hesperion XXI, La Capella Reial) (2009) [FLAC] {Alia Vox AVSA9873}\Disc 1of3\10 - Anonymous - Plainte Instrumentale II.wav

Peak level 42.8 %
Extraction speed 3.4 X
Track quality 100.0 %
Test CRC 1B4632AA
Copy CRC 1B4632AA
Accurately ripped (confidence 7) [EF989E96]
Copy OK

Track 11

Filename J:\Le Royaume Oublie - La Tragedie Cathare (Savall, Hesperion XXI, La Capella Reial) (2009) [FLAC] {Alia Vox AVSA9873}\Disc 1of3\11 - Guilhem de Peiteu - Pos de chantar.wav

Peak level 80.7 %
Extraction speed 4.4 X
Track quality 100.0 %
Test CRC EDF9DD33
Copy CRC EDF9DD33
Accurately ripped (confidence 7) [023A9473]
Copy OK

Track 12

Filename J:\Le Royaume Oublie - La Tragedie Cathare (Savall, Hesperion XXI, La Capella Reial) (2009) [FLAC] {Alia Vox AVSA9873}\Disc 1of3\12 - Comtesa Beatritz de Dia - A chantar m'er de so.wav

Peak level 96.5 %
Extraction speed 4.7 X
Track quality 100.0 %
Test CRC 017B25CD
Copy CRC 017B25CD
Accurately ripped (confidence 7) [F03E6A53]
Copy OK

Track 13

Filename J:\Le Royaume Oublie - La Tragedie Cathare (Savall, Hesperion XXI, La Capella Reial) (2009) [FLAC] {Alia Vox AVSA9873}\Disc 1of3\13 - Rene Zosso - Epistola ad patrem Bernardum.wav

Peak level 55.7 %
Extraction speed 4.1 X
Track quality 100.0 %
Test CRC 6597857A
Copy CRC 6597857A
Accurately ripped (confidence 7) [875A7540]
Copy OK

Track 14

Filename J:\Le Royaume Oublie - La Tragedie Cathare (Savall, Hesperion XXI, La Capella Reial) (2009) [FLAC] {Alia Vox AVSA9873}\Disc 1of3\14 - Anonymous - Mentem meam ledit dolor.wav

Peak level 94.6 %
Extraction speed 5.1 X
Track quality 100.0 %
Test CRC C3291836
Copy CRC C3291836
Accurately ripped (confidence 7) [61071DED]
Copy OK

Track 15

Filename J:\Le Royaume Oublie - La Tragedie Cathare (Savall, Hesperion XXI, La Capella Reial) (2009) [FLAC] {Alia Vox AVSA9873}\Disc 1of3\15 - Hildegard von Bingen - Ave generosa.wav

Peak level 43.0 %
Extraction speed 4.9 X
Track quality 100.0 %
Test CRC FFDF653E
Copy CRC FFDF653E
Accurately ripped (confidence 7) [00935C4F]
Copy OK

Track 16

Filename J:\Le Royaume Oublie - La Tragedie Cathare (Savall, Hesperion XXI, La Capella Reial) (2009) [FLAC] {Alia Vox AVSA9873}\Disc 1of3\16 - Gerard Gourian, Furio Zanasi - Consolament.wav

Peak level 40.8 %
Extraction speed 3.2 X
Track quality 100.0 %
Test CRC 4CEA752A
Copy CRC 4CEA752A
Accurately ripped (confidence 7) [71F9AFD5]
Copy OK

Track 17

Filename J:\Le Royaume Oublie - La Tragedie Cathare (Savall, Hesperion XXI, La Capella Reial) (2009) [FLAC] {Alia Vox AVSA9873}\Disc 1of3\17 - Anonymous - Marche funebre.wav

Peak level 46.9 %
Extraction speed 3.4 X
Track quality 100.0 %
Test CRC CDFFBDB4
Copy CRC CDFFBDB4
Accurately ripped (confidence 7) [6A91BF8A]
Copy OK

Track 18

Filename J:\Le Royaume Oublie - La Tragedie Cathare (Savall, Hesperion XXI, La Capella Reial) (2009) [FLAC] {Alia Vox AVSA9873}\Disc 1of3\18 - Anonymous - Heu Miser.wav

Peak level 12.6 %
Extraction speed 2.1 X
Track quality 99.7 %
Test CRC 4411CEE3
Copy CRC 4411CEE3
Accurately ripped (confidence 7) [A9CAADBA]
Copy OK

Track 19

Filename J:\Le Royaume Oublie - La Tragedie Cathare (Savall, Hesperion XXI, La Capella Reial) (2009) [FLAC] {Alia Vox AVSA9873}\Disc 1of3\19 - Piere Vidal - A per pauc de chantar.wav

Peak level 79.2 %
Extraction speed 5.1 X
Track quality 100.0 %
Test CRC 922DC1EE
Copy CRC 922DC1EE
Accurately ripped (confidence 7) [3134A4F3]
Copy OK

Track 20

Filename J:\Le Royaume Oublie - La Tragedie Cathare (Savall, Hesperion XXI, La Capella Reial) (2009) [FLAC] {Alia Vox AVSA9873}\Disc 1of3\20 - Anonymous - Cloches papales et bucher Troyen.wav

Peak level 75.7 %
Extraction speed 3.6 X
Track quality 100.0 %
Test CRC 784EC9E6
Copy CRC 784EC9E6
Accurately ripped (confidence 7) [88548D06]
Copy OK

Track 21

Filename J:\Le Royaume Oublie - La Tragedie Cathare (Savall, Hesperion XXI, La Capella Reial) (2009) [FLAC] {Alia Vox AVSA9873}\Disc 1of3\21 - Anonymous - Chant de la Sybille Occitaine ''Ell jorn del judizi''.wav

Peak level 81.0 %
Extraction speed 6.1 X
Track quality 100.0 %
Test CRC A28DF3DB
Copy CRC A28DF3DB
Accurately ripped (confidence 6) [8CA1EA6F]
Copy OK


All tracks accurately ripped

No errors occurred

End of status report

==== Log checksum 92CD3603949796CB9FEFBE8C1F82C1B45390D49AB065AEA5869852AAAA1561DC ====

Exact Audio Copy V1.0 beta 1 from 15. November 2010

EAC extraction logfile from 17. September 2012, 6:35

Various Artists / Le Royaume Oublie - La Tragedie Cathare

Used drive : Optiarc DVD RW AD-5280S Adapter: 4 ID: 0

Read mode : Secure
Utilize accurate stream : Yes
Defeat audio cache : Yes
Make use of C2 pointers : No

Read offset correction : 48
Overread into Lead-In and Lead-Out : No
Fill up missing offset samples with silence : Yes
Delete leading and trailing silent blocks : No
Null samples used in CRC calculations : Yes
Used interface : Native Win32 interface for Win NT & 2000
Gap handling : Appended to previous track

Used output format : User Defined Encoder
Selected bitrate : 256 kBit/s
Quality : High
Add ID3 tag : No
Command line compressor : D:\Program Files\FLAC\flac.exe
Additional command line options : -8 -V -T "ARTIST=%a" -T "TITLE=%t" -T "ALBUM=%g" -T "DATE=%y" -T "TRACKNUMBER=%n" -T "TOTALTRACKS=%x" -T "GENRE=%m" -T "ALBUMARTIST=%v" -T "ALBUM ARTIST=%v" -T "COMMENT=EAC Secure Mode, Test & Copy, AccurateRip, FLAC -8" %s


TOC of the extracted CD

Track | Start | Length | Start sector | End sector
––––––––––––––––––––––––––––-
1 | 0:00.00 | 1:00.52 | 0 | 4551
2 | 1:00.52 | 0:47.49 | 4552 | 8125
3 | 1:48.26 | 5:24.26 | 8126 | 32451
4 | 7:12.52 | 7:55.22 | 32452 | 68098
5 | 15:07.74 | 4:12.18 | 68099 | 87016
6 | 19:20.17 | 3:00.14 | 87017 | 100530
7 | 22:20.31 | 3:52.74 | 100531 | 118004
8 | 26:13.30 | 1:01.40 | 118005 | 122619
9 | 27:14.70 | 4:50.67 | 122620 | 144436
10 | 32:05.62 | 7:32.30 | 144437 | 178366
11 | 39:38.17 | 5:24.52 | 178367 | 202718
12 | 45:02.69 | 1:43.74 | 202719 | 210517
13 | 46:46.68 | 4:54.57 | 210518 | 232624
14 | 51:41.50 | 5:30.65 | 232625 | 257439
15 | 57:12.40 | 5:37.28 | 257440 | 282742
16 | 62:49.68 | 3:25.04 | 282743 | 298121
17 | 66:14.72 | 7:05.47 | 298122 | 330043


Track 1

Filename J:\Le Royaume Oublie - La Tragedie Cathare (Savall, Hesperion XXI, La Capella Reial) (2009) [FLAC] {Alia Vox AVSA9873}\Disc 2of3\01 - Anonymous - Fanfare.wav

Pre-gap length 0:00:02.00

Peak level 24.7 %
Extraction speed 1.8 X
Track quality 100.0 %
Test CRC DA288DFA
Copy CRC DA288DFA
Accurately ripped (confidence 5) [DA19FE77]
Copy OK

Track 2

Filename J:\Le Royaume Oublie - La Tragedie Cathare (Savall, Hesperion XXI, La Capella Reial) (2009) [FLAC] {Alia Vox AVSA9873}\Disc 2of3\02 - Gerard Gourian, Rene Zosso - Ego enim scio….wav

Peak level 39.7 %
Extraction speed 1.6 X
Track quality 100.0 %
Test CRC FD14A37E
Copy CRC FD14A37E
Accurately ripped (confidence 5) [CACE3265]
Copy OK

Track 3

Filename J:\Le Royaume Oublie - La Tragedie Cathare (Savall, Hesperion XXI, La Capella Reial) (2009) [FLAC] {Alia Vox AVSA9873}\Disc 2of3\03 - Anonymous - Quant ay lo mon consirat.wav

Peak level 95.7 %
Extraction speed 2.9 X
Track quality 100.0 %
Test CRC 70DB293C
Copy CRC 70DB293C
Accurately ripped (confidence 5) [BAEE5C81]
Copy OK

Track 4

Filename J:\Le Royaume Oublie - La Tragedie Cathare (Savall, Hesperion XXI, La Capella Reial) (2009) [FLAC] {Alia Vox AVSA9873}\Disc 2of3\04 - Giraut de Borneill - Molt era dous e plazens.wav

Peak level 77.7 %
Extraction speed 3.4 X
Track quality 100.0 %
Test CRC B79FE22B
Copy CRC B79FE22B
Accurately ripped (confidence 5) [965D9DC9]
Copy OK

Track 5

Filename J:\Le Royaume Oublie - La Tragedie Cathare (Savall, Hesperion XXI, La Capella Reial) (2009) [FLAC] {Alia Vox AVSA9873}\Disc 2of3\05 - Guilhem de Tudela - E l'abas de Cistels. Vers. 4.wav

Peak level 58.3 %
Extraction speed 3.5 X
Track quality 100.0 %
Test CRC 11EB4C35
Copy CRC 11EB4C35
Accurately ripped (confidence 5) [46DDF32E]
Copy OK

Track 6

Filename J:\Le Royaume Oublie - La Tragedie Cathare (Savall, Hesperion XXI, La Capella Reial) (2009) [FLAC] {Alia Vox AVSA9873}\Disc 2of3\06 - Rene Zosso - Nous exhortons….wav

Peak level 51.7 %
Extraction speed 3.5 X
Track quality 100.0 %
Test CRC 4A398724
Copy CRC 4A398724
Accurately ripped (confidence 5) [53DF8537]
Copy OK

Track 7

Filename J:\Le Royaume Oublie - La Tragedie Cathare (Savall, Hesperion XXI, La Capella Reial) (2009) [FLAC] {Alia Vox AVSA9873}\Disc 2of3\07 - Guilhem de Tudela - Cant l'apostolis saub. Vers 5.wav

Peak level 94.7 %
Extraction speed 3.8 X
Track quality 100.0 %
Test CRC 6F211F57
Copy CRC 6F211F57
Accurately ripped (confidence 5) [BF5461E5]
Copy OK

Track 8

Filename J:\Le Royaume Oublie - La Tragedie Cathare (Savall, Hesperion XXI, La Capella Reial) (2009) [FLAC] {Alia Vox AVSA9873}\Disc 2of3\08 - Anonymous - Fanfares et appels de bataille.wav

Peak level 95.9 %
Extraction speed 2.8 X
Track quality 100.0 %
Test CRC 8F828CCE
Copy CRC 8F828CCE
Accurately ripped (confidence 5) [828AC06E]
Copy OK

Track 9

Filename J:\Le Royaume Oublie - La Tragedie Cathare (Savall, Hesperion XXI, La Capella Reial) (2009) [FLAC] {Alia Vox AVSA9873}\Disc 2of3\09 - Guilhem de Tudela - Le barnatges de Fransa. Vers 21.wav

Peak level 96.6 %
Extraction speed 3.7 X
Track quality 99.9 %
Test CRC 2A2DF995
Copy CRC 2A2DF995
Accurately ripped (confidence 5) [79C0CCCD]
Copy OK

Track 10

Filename J:\Le Royaume Oublie - La Tragedie Cathare (Savall, Hesperion XXI, La Capella Reial) (2009) [FLAC] {Alia Vox AVSA9873}\Disc 2of3\10 - Guilhem Augier Novella, Giraut de Borneill - Quascus plor e planh.wav

Peak level 96.4 %
Extraction speed 4.6 X
Track quality 100.0 %
Test CRC 920EDDF8
Copy CRC 920EDDF8
Accurately ripped (confidence 5) [46D0DB33]
Copy OK

Track 11

Filename J:\Le Royaume Oublie - La Tragedie Cathare (Savall, Hesperion XXI, La Capella Reial) (2009) [FLAC] {Alia Vox AVSA9873}\Disc 2of3\11 - Guilhem de Tudela - Lavaurs fon tan fortz vila. Vers 68.wav

Peak level 75.2 %
Extraction speed 4.7 X
Track quality 100.0 %
Test CRC E31D7CAC
Copy CRC E31D7CAC
Accurately ripped (confidence 5) [C051AF67]
Copy OK

Track 12

Filename J:\Le Royaume Oublie - La Tragedie Cathare (Savall, Hesperion XXI, La Capella Reial) (2009) [FLAC] {Alia Vox AVSA9873}\Disc 2of3\12 - Rene Zosso - Cruciferi ex precepto….wav

Peak level 47.4 %
Extraction speed 4.0 X
Track quality 100.0 %
Test CRC 25A11723
Copy CRC 25A11723
Accurately ripped (confidence 5) [C44BEF15]
Copy OK

Track 13

Filename J:\Le Royaume Oublie - La Tragedie Cathare (Savall, Hesperion XXI, La Capella Reial) (2009) [FLAC] {Alia Vox AVSA9873}\Disc 2of3\13 - Raimon de Miraval - Vai, hugonet, ses bistensa.wav

Peak level 65.5 %
Extraction speed 4.9 X
Track quality 100.0 %
Test CRC 13E0B224
Copy CRC 13E0B224
Accurately ripped (confidence 5) [5288D1E5]
Copy OK

Track 14

Filename J:\Le Royaume Oublie - La Tragedie Cathare (Savall, Hesperion XXI, La Capella Reial) (2009) [FLAC] {Alia Vox AVSA9873}\Disc 2of3\14 - Raimon de Miraval - Bel m'es q'ieu chant e coindei.wav

Peak level 62.3 %
Extraction speed 5.2 X
Track quality 100.0 %
Test CRC 7836B722
Copy CRC 7836B722
Accurately ripped (confidence 5) [6418ADAA]
Copy OK

Track 15

Filename J:\Le Royaume Oublie - La Tragedie Cathare (Savall, Hesperion XXI, La Capella Reial) (2009) [FLAC] {Alia Vox AVSA9873}\Disc 2of3\15 - Raimon de Miraval - Aissi cum es genser Pascors.wav

Peak level 73.4 %
Extraction speed 4.9 X
Track quality 99.9 %
Test CRC CBD4B4D7
Copy CRC CBD4B4D7
Accurately ripped (confidence 5) [0F2BCD96]
Copy OK

Track 16

Filename J:\Le Royaume Oublie - La Tragedie Cathare (Savall, Hesperion XXI, La Capella Reial) (2009) [FLAC] {Alia Vox AVSA9873}\Disc 2of3\16 - Anonymous - L'Epictafi de S. de Montfort. Vers 208.wav

Peak level 97.3 %
Extraction speed 5.2 X
Track quality 100.0 %
Test CRC 00DD3882
Copy CRC 00DD3882
Accurately ripped (confidence 5) [7760DF0C]
Copy OK

Track 17

Filename J:\Le Royaume Oublie - La Tragedie Cathare (Savall, Hesperion XXI, La Capella Reial) (2009) [FLAC] {Alia Vox AVSA9873}\Disc 2of3\17 - Guilhem Figueira - D'un sirventes far.wav

Peak level 95.6 %
Extraction speed 5.9 X
Track quality 100.0 %
Test CRC F493A93B
Copy CRC F493A93B
Accurately ripped (confidence 5) [436FE5BE]
Copy OK


All tracks accurately ripped

No errors occurred

End of status report

==== Log checksum BD0358A49A4AC418EF3B2379C7AE2D289ABA2FA6D9D755DF440BB9AD6A5BF855 ====

Exact Audio Copy V1.0 beta 1 from 15. November 2010

EAC extraction logfile from 16. September 2012, 21:42

Various Artists / Le Royaume Oublie - La Tragedie Cathare

Used drive : Optiarc DVD RW AD-5280S Adapter: 4 ID: 0

Read mode : Secure
Utilize accurate stream : Yes
Defeat audio cache : Yes
Make use of C2 pointers : No

Read offset correction : 48
Overread into Lead-In and Lead-Out : No
Fill up missing offset samples with silence : Yes
Delete leading and trailing silent blocks : No
Null samples used in CRC calculations : Yes
Used interface : Native Win32 interface for Win NT & 2000
Gap handling : Appended to previous track

Used output format : User Defined Encoder
Selected bitrate : 256 kBit/s
Quality : High
Add ID3 tag : No
Command line compressor : D:\Program Files\FLAC\flac.exe
Additional command line options : -8 -V -T "ARTIST=%a" -T "TITLE=%t" -T "ALBUM=%g" -T "DATE=%y" -T "TRACKNUMBER=%n" -T "TOTALTRACKS=%x" -T "GENRE=%m" -T "ALBUMARTIST=%v" -T "ALBUM ARTIST=%v" -T "COMMENT=EAC Secure Mode, Test & Copy, AccurateRip, FLAC -8" %s


TOC of the extracted CD

Track | Start | Length | Start sector | End sector
––––––––––––––––––––––––––––-
1 | 0:00.00 | 1:20.15 | 0 | 6014
2 | 1:20.15 | 5:40.03 | 6015 | 31517
3 | 7:00.18 | 1:45.21 | 31518 | 39413
4 | 8:45.39 | 3:14.06 | 39414 | 53969
5 | 11:59.45 | 4:56.52 | 53970 | 76221
6 | 16:56.22 | 3:56.58 | 76222 | 93979
7 | 20:53.05 | 6:20.56 | 93980 | 122535
8 | 27:13.61 | 3:13.36 | 122536 | 137046
9 | 30:27.22 | 1:55.45 | 137047 | 145716
10 | 32:22.67 | 4:41.40 | 145717 | 166831
11 | 37:04.32 | 4:03.14 | 166832 | 185070
12 | 41:07.46 | 5:31.03 | 185071 | 209898
13 | 46:38.49 | 0:34.60 | 209899 | 212508
14 | 47:13.34 | 0:51.00 | 212509 | 216333
15 | 48:04.34 | 2:30.57 | 216334 | 227640
16 | 50:35.16 | 1:09.09 | 227641 | 232824
17 | 51:44.25 | 3:42.46 | 232825 | 249520
18 | 55:26.71 | 3:16.53 | 249521 | 264273
19 | 58:43.49 | 4:11.30 | 264274 | 283128
20 | 62:55.04 | 4:05.60 | 283129 | 301563
21 | 67:00.64 | 2:12.13 | 301564 | 311476
22 | 69:13.02 | 4:27.58 | 311477 | 331559
23 | 73:40.60 | 3:24.53 | 331560 | 346912


Track 1

Filename J:\Le Royaume Oublie - La Tragedie Cathare (Savall, Hesperion XXI, La Capella Reial) (2009) [FLAC] {Alia Vox AVSA9873}\Disc 3of3\01 - Anonymous - Fanfare.wav

Pre-gap length 0:00:02.00

Peak level 88.8 %
Extraction speed 1.9 X
Track quality 100.0 %
Test CRC A650AC55
Copy CRC A650AC55
Accurately ripped (confidence 5) [10826496]
Copy OK

Track 2

Filename J:\Le Royaume Oublie - La Tragedie Cathare (Savall, Hesperion XXI, La Capella Reial) (2009) [FLAC] {Alia Vox AVSA9873}\Disc 3of3\02 - Peire Cardenal - Clergue si fan pastor.wav

Peak level 94.6 %
Extraction speed 2.6 X
Track quality 99.9 %
Test CRC BB554F32
Copy CRC BB554F32
Accurately ripped (confidence 5) [983479E6]
Copy OK

Track 3

Filename J:\Le Royaume Oublie - La Tragedie Cathare (Savall, Hesperion XXI, La Capella Reial) (2009) [FLAC] {Alia Vox AVSA9873}\Disc 3of3\03 - Anonymous - Plainte Instrumentale III.wav

Peak level 55.1 %
Extraction speed 2.5 X
Track quality 100.0 %
Test CRC F201D1E1
Copy CRC F201D1E1
Accurately ripped (confidence 5) [79470CF8]
Copy OK

Track 4

Filename J:\Le Royaume Oublie - La Tragedie Cathare (Savall, Hesperion XXI, La Capella Reial) (2009) [FLAC] {Alia Vox AVSA9873}\Disc 3of3\04 - Rene Zosso - Ad exstirpanda.wav

Peak level 93.6 %
Extraction speed 3.0 X
Track quality 100.0 %
Test CRC 17A3C0BE
Copy CRC 17A3C0BE
Accurately ripped (confidence 5) [CCA4662B]
Copy OK

Track 5

Filename J:\Le Royaume Oublie - La Tragedie Cathare (Savall, Hesperion XXI, La Capella Reial) (2009) [FLAC] {Alia Vox AVSA9873}\Disc 3of3\05 - Peire Cardenal - Un sirventes novel vueill comensar.wav

Peak level 71.6 %
Extraction speed 3.4 X
Track quality 100.0 %
Test CRC E118364F
Copy CRC E118364F
Accurately ripped (confidence 5) [6A25FEA4]
Copy OK

Track 6

Filename J:\Le Royaume Oublie - La Tragedie Cathare (Savall, Hesperion XXI, La Capella Reial) (2009) [FLAC] {Alia Vox AVSA9873}\Disc 3of3\06 - Anonymous - Beliche.wav

Peak level 95.4 %
Extraction speed 3.1 X
Track quality 99.9 %
Test CRC 81C35579
Copy CRC 81C35579
Accurately ripped (confidence 5) [B88797A6]
Copy OK

Track 7

Filename J:\Le Royaume Oublie - La Tragedie Cathare (Savall, Hesperion XXI, La Capella Reial) (2009) [FLAC] {Alia Vox AVSA9873}\Disc 3of3\07 - Guilhem Montanhagol - Del tot vey remaner valor.wav

Peak level 92.4 %
Extraction speed 4.0 X
Track quality 100.0 %
Test CRC 3859E201
Copy CRC 3859E201
Accurately ripped (confidence 5) [5CEEF529]
Copy OK

Track 8

Filename J:\Le Royaume Oublie - La Tragedie Cathare (Savall, Hesperion XXI, La Capella Reial) (2009) [FLAC] {Alia Vox AVSA9873}\Disc 3of3\08 - Anonymous - Planctus ''Lavandose le mane''.wav

Peak level 34.7 %
Extraction speed 3.9 X
Track quality 100.0 %
Test CRC 9B16DEB3
Copy CRC 9B16DEB3
Accurately ripped (confidence 5) [29F3B462]
Copy OK

Track 9

Filename J:\Le Royaume Oublie - La Tragedie Cathare (Savall, Hesperion XXI, La Capella Reial) (2009) [FLAC] {Alia Vox AVSA9873}\Disc 3of3\09 - Gerard Gourian, Furio Zanasi - Pater Noster.wav

Peak level 32.0 %
Extraction speed 3.5 X
Track quality 100.0 %
Test CRC 0FFEB55A
Copy CRC 0FFEB55A
Accurately ripped (confidence 5) [D835EF1A]
Copy OK

Track 10

Filename J:\Le Royaume Oublie - La Tragedie Cathare (Savall, Hesperion XXI, La Capella Reial) (2009) [FLAC] {Alia Vox AVSA9873}\Disc 3of3\10 - Peire Cardenal - Tartarassa ni voutor.wav

Peak level 52.3 %
Extraction speed 4.3 X
Track quality 100.0 %
Test CRC A6CB0FB3
Copy CRC A6CB0FB3
Accurately ripped (confidence 5) [90F7C00D]
Copy OK

Track 11

Filename J:\Le Royaume Oublie - La Tragedie Cathare (Savall, Hesperion XXI, La Capella Reial) (2009) [FLAC] {Alia Vox AVSA9873}\Disc 3of3\11 - Anonymous - Audi pontus, audi tellus.wav

Peak level 61.5 %
Extraction speed 4.4 X
Track quality 100.0 %
Test CRC 8BBD54FB
Copy CRC 8BBD54FB
Accurately ripped (confidence 5) [0B478E5D]
Copy OK

Track 12

Filename J:\Le Royaume Oublie - La Tragedie Cathare (Savall, Hesperion XXI, La Capella Reial) (2009) [FLAC] {Alia Vox AVSA9873}\Disc 3of3\12 - Anonymous - El Rey de Francia.wav

Peak level 92.4 %
Extraction speed 4.3 X
Track quality 99.9 %
Test CRC C2BE58FA
Copy CRC C2BE58FA
Accurately ripped (confidence 5) [4AA206F6]
Copy OK

Track 13

Filename J:\Le Royaume Oublie - La Tragedie Cathare (Savall, Hesperion XXI, La Capella Reial) (2009) [FLAC] {Alia Vox AVSA9873}\Disc 3of3\13 - Gerard Gourian - Il n'est pas etonnant….wav

Peak level 47.2 %
Extraction speed 2.6 X
Track quality 100.0 %
Test CRC 90BF1F0E
Copy CRC 90BF1F0E
Accurately ripped (confidence 5) [637FB05E]
Copy OK

Track 14

Filename J:\Le Royaume Oublie - La Tragedie Cathare (Savall, Hesperion XXI, La Capella Reial) (2009) [FLAC] {Alia Vox AVSA9873}\Disc 3of3\14 - Anonymous - Marche funebre.wav

Peak level 88.0 %
Extraction speed 3.0 X
Track quality 100.0 %
Test CRC C6BD329C
Copy CRC C6BD329C
Accurately ripped (confidence 5) [6E526A1A]
Copy OK

Track 15

Filename J:\Le Royaume Oublie - La Tragedie Cathare (Savall, Hesperion XXI, La Capella Reial) (2009) [FLAC] {Alia Vox AVSA9873}\Disc 3of3\15 - Giraut de Borneill - No puesc sofrir la dolor.wav

Peak level 30.4 %
Extraction speed 3.7 X
Track quality 99.9 %
Test CRC B65F8E9C
Copy CRC B65F8E9C
Accurately ripped (confidence 5) [3E57D91D]
Copy OK

Track 16

Filename J:\Le Royaume Oublie - La Tragedie Cathare (Savall, Hesperion XXI, La Capella Reial) (2009) [FLAC] {Alia Vox AVSA9873}\Disc 3of3\16 - Anonymous - Plainte Instrumentale IV.wav

Peak level 82.2 %
Extraction speed 3.6 X
Track quality 100.0 %
Test CRC 51E18716
Copy CRC 51E18716
Accurately ripped (confidence 5) [347C3BE6]
Copy OK

Track 17

Filename J:\Le Royaume Oublie - La Tragedie Cathare (Savall, Hesperion XXI, La Capella Reial) (2009) [FLAC] {Alia Vox AVSA9873}\Disc 3of3\17 - Anonymous, Guillaume Dufay - Audi, benigne.wav

Peak level 56.5 %
Extraction speed 4.9 X
Track quality 100.0 %
Test CRC A3CB8776
Copy CRC A3CB8776
Accurately ripped (confidence 5) [BFC9DC9E]
Copy OK

Track 18

Filename J:\Le Royaume Oublie - La Tragedie Cathare (Savall, Hesperion XXI, La Capella Reial) (2009) [FLAC] {Alia Vox AVSA9873}\Disc 3of3\18 - Jordi Savall - Ballade de la Pucelle.wav

Peak level 65.1 %
Extraction speed 4.8 X
Track quality 100.0 %
Test CRC DC7869CF
Copy CRC DC7869CF
Accurately ripped (confidence 5) [7E53A9C3]
Copy OK

Track 19

Filename J:\Le Royaume Oublie - La Tragedie Cathare (Savall, Hesperion XXI, La Capella Reial) (2009) [FLAC] {Alia Vox AVSA9873}\Disc 3of3\19 - Jordi Savall - O crudele suplicium. Planctus.wav

Peak level 86.1 %
Extraction speed 4.6 X
Track quality 99.9 %
Test CRC 2807A850
Copy CRC 2807A850
Accurately ripped (confidence 5) [1CF0E56F]
Copy OK

Track 20

Filename J:\Le Royaume Oublie - La Tragedie Cathare (Savall, Hesperion XXI, La Capella Reial) (2009) [FLAC] {Alia Vox AVSA9873}\Disc 3of3\20 - Anonymous - Der makam-i Saba usules Cenber.wav

Peak level 85.2 %
Extraction speed 5.3 X
Track quality 100.0 %
Test CRC E03C81DB
Copy CRC E03C81DB
Accurately ripped (confidence 5) [C60E7671]
Copy OK

Track 21

Filename J:\Le Royaume Oublie - La Tragedie Cathare (Savall, Hesperion XXI, La Capella Reial) (2009) [FLAC] {Alia Vox AVSA9873}\Disc 3of3\21 - Anonymous - Plainte Instrumentale V.wav

Peak level 84.3 %
Extraction speed 3.9 X
Track quality 99.9 %
Test CRC BBAB8DF2
Copy CRC BBAB8DF2
Accurately ripped (confidence 5) [C2F44620]
Copy OK

Track 22

Filename J:\Le Royaume Oublie - La Tragedie Cathare (Savall, Hesperion XXI, La Capella Reial) (2009) [FLAC] {Alia Vox AVSA9873}\Disc 3of3\22 - Guillaume Dufay - O tres piteulx de tout espoir fontaine.wav

Peak level 55.2 %
Extraction speed 5.5 X
Track quality 100.0 %
Test CRC B6170096
Copy CRC B6170096
Accurately ripped (confidence 5) [D96CD218]
Copy OK

Track 23

Filename J:\Le Royaume Oublie - La Tragedie Cathare (Savall, Hesperion XXI, La Capella Reial) (2009) [FLAC] {Alia Vox AVSA9873}\Disc 3of3\23 - Ponc d'Ortafa, Jordi Savall - Si ay perdut mon saber.wav

Peak level 53.5 %
Extraction speed 5.4 X
Track quality 100.0 %
Test CRC E6FCA46D
Copy CRC E6FCA46D
Accurately ripped (confidence 5) [6A4C9248]
Copy OK


All tracks accurately ripped

No errors occurred

End of status report

==== Log checksum 8332A314AAEDF866936BB6C1C0B2CEE522C119DDF5A521C205B2E659BF3AC798 ====


Jordi Savall & Hesperion XXI - Le Royaume Oublie - La Tragedie Cathare (2009) {3CD Set Alia Vox AVSA 9873}


see more Jordi Savall…

NEXT -> more Jordi Savall on the way…


===