Tags
Language
Tags
June 2024
Su Mo Tu We Th Fr Sa
26 27 28 29 30 31 1
2 3 4 5 6 7 8
9 10 11 12 13 14 15
16 17 18 19 20 21 22
23 24 25 26 27 28 29
30 1 2 3 4 5 6

J.P.A. Falzone & Morgan Evans-Weiler - Chordioid (2020)

Posted By: delpotro
J.P.A. Falzone & Morgan Evans-Weiler - Chordioid (2020)

J.P.A. Falzone & Morgan Evans-Weiler - Chordioid (2020)
XLD Rip | FLAC (tracks+log+.cue) - 403 Mb | MP3 CBR 320 kbps - 245 Mb | 01:46:47
Classical | Label: Another Timbre

A double CD of music for violin + piano and vibraphone, composed and played by two young American composers and members of the ensemble Ordinary Affects, who have recorded music by the Jürg Frey, Magnus Granberg, Nomi Epstein, Michael Pisaro, Eva Maria Houben and others. The second disc contains an exquisite new work by Morgan Evans-Weiler, while the first presents for the first time the beautiful music of JPA Falzone, who acknowledges a connection with Feldman. “Feldman’s approach to writing asymmetrical patterns has long fascinated me. His work represents a kind of considered haphazardness in defiance of formalised systems.” (JPA Falzone)
Tracklist:
1. Y Tŷ Unnos III – Precession §1 (05:55)
2. Y Tŷ Unnos III – Precession §2 (05:32)
3. Y Tŷ Unnos III – Precession §3 (06:34)
4. Y Tŷ Unnos III – Precession §4 (07:27)
5. Y Tŷ Unnos III – Precession §5 (02:42)
6. Y Tŷ Unnos III – Precession §6 (09:58)
7. Y Tŷ Unnos III – Precession §7 (07:24)
8. Locational Variations I (08:09)
9. Locational Variations II (16:14)
10. Locational Variations III (07:09)
11. Locational Variations IV (07:18)
12. Locational Variations V (16:08)
13. Locational Variations VI (06:11)

X Lossless Decoder version 20191004 (152.0)

XLD extraction logfile from 2020-03-24 16:05:48 +0100

J.P.A. Falzone & Morgan Evans-Weiler / Chordioid

Used drive : PIONEER BD-RW BDR-UD03 (revision 1.11)
Media type : Pressed CD

Ripper mode : XLD Secure Ripper
Disable audio cache : OK for the drive with a cache less than 1375KiB
Make use of C2 pointers : NO
Read offset correction : 667
Max retry count : 20
Gap status : Analyzed, Appended (except HTOA)

TOC of the extracted CD
Track | Start | Length | Start sector | End sector
––––––––––––––––––––––––––––-
1 | 00:00:00 | 05:58:21 | 0 | 26870
2 | 05:58:21 | 05:32:33 | 26871 | 51803
3 | 11:30:54 | 06:34:06 | 51804 | 81359
4 | 18:04:60 | 07:27:13 | 81360 | 114897
5 | 25:31:73 | 02:42:36 | 114898 | 127083
6 | 28:14:34 | 09:58:03 | 127084 | 171936
7 | 38:12:37 | 07:24:03 | 171937 | 205239

AccurateRip Summary
Disc not found in AccurateRip DB.

All Tracks
Album gain : 4.79 dB
Peak : 0.572906
Statistics
Read error : 0
Jitter error (maybe fixed) : 0
Retry sector count : 0
Damaged sector count : 0

Track 01
Filename : /Users/ouv/J.P.A. Falzone & Morgan Evans-Weiler - Chordioid (2020) {} [FLAC]/CD 1/01 Y Tŷ Unnos III – Precession §1 (2019).flac
Pre-gap length : 00:02:00

Track gain : 6.15 dB
Peak : 0.572906
CRC32 hash (test run) : 96CDB7E0
CRC32 hash : 96CDB7E0
CRC32 hash (skip zero) : 79593C93
AccurateRip v1 signature : 985A20CA
AccurateRip v2 signature : 885CFFA2
->Track not present in AccurateRip database.
Statistics
Read error : 0
Jitter error (maybe fixed) : 0
Retry sector count : 0
Damaged sector count : 0

Track 02
Filename : /Users/ouv/J.P.A. Falzone & Morgan Evans-Weiler - Chordioid (2020) {} [FLAC]/CD 1/02 Y Tŷ Unnos III – Precession §2 (2019).flac

Track gain : 7.03 dB
Peak : 0.486237
CRC32 hash (test run) : A00118EE
CRC32 hash : A00118EE
CRC32 hash (skip zero) : 9C32B5EF
AccurateRip v1 signature : 680C403C
AccurateRip v2 signature : A684700F
->Track not present in AccurateRip database.
Statistics
Read error : 0
Jitter error (maybe fixed) : 0
Retry sector count : 0
Damaged sector count : 0

Track 03
Filename : /Users/ouv/J.P.A. Falzone & Morgan Evans-Weiler - Chordioid (2020) {} [FLAC]/CD 1/03 Y Tŷ Unnos III – Precession §3 (2019).flac

Track gain : 5.09 dB
Peak : 0.544495
CRC32 hash (test run) : F62CA054
CRC32 hash : F62CA054
CRC32 hash (skip zero) : 38C0FFD3
AccurateRip v1 signature : BBEE9492
AccurateRip v2 signature : 2DC88865
->Track not present in AccurateRip database.
Statistics
Read error : 0
Jitter error (maybe fixed) : 0
Retry sector count : 0
Damaged sector count : 0

Track 04
Filename : /Users/ouv/J.P.A. Falzone & Morgan Evans-Weiler - Chordioid (2020) {} [FLAC]/CD 1/04 Y Tŷ Unnos III – Precession §4 (2019).flac

Track gain : 6.16 dB
Peak : 0.480408
CRC32 hash (test run) : 9AFBE5B7
CRC32 hash : 9AFBE5B7
CRC32 hash (skip zero) : D0D70827
AccurateRip v1 signature : 183C7B58
AccurateRip v2 signature : 13710EFA
->Track not present in AccurateRip database.
Statistics
Read error : 0
Jitter error (maybe fixed) : 0
Retry sector count : 0
Damaged sector count : 0

Track 05
Filename : /Users/ouv/J.P.A. Falzone & Morgan Evans-Weiler - Chordioid (2020) {} [FLAC]/CD 1/05 Y Tŷ Unnos III – Precession §5 (2019).flac

Track gain : 4.99 dB
Peak : 0.367279
CRC32 hash (test run) : 2A77EC75
CRC32 hash : 2A77EC75
CRC32 hash (skip zero) : 341DBEC2
AccurateRip v1 signature : 0F07F04C
AccurateRip v2 signature : 8D27F66C
->Track not present in AccurateRip database.
Statistics
Read error : 0
Jitter error (maybe fixed) : 0
Retry sector count : 0
Damaged sector count : 0

Track 06
Filename : /Users/ouv/J.P.A. Falzone & Morgan Evans-Weiler - Chordioid (2020) {} [FLAC]/CD 1/06 Y Tŷ Unnos III – Precession §6 (2019).flac

Track gain : 2.37 dB
Peak : 0.553619
CRC32 hash (test run) : E0EDDDB7
CRC32 hash : E0EDDDB7
CRC32 hash (skip zero) : 0D9FA766
AccurateRip v1 signature : D20B39D3
AccurateRip v2 signature : 2642855E
->Track not present in AccurateRip database.
Statistics
Read error : 0
Jitter error (maybe fixed) : 0
Retry sector count : 0
Damaged sector count : 0

Track 07
Filename : /Users/ouv/J.P.A. Falzone & Morgan Evans-Weiler - Chordioid (2020) {} [FLAC]/CD 1/07 Y Tŷ Unnos III – Precession §7 (2019).flac

Track gain : 6.90 dB
Peak : 0.471008
CRC32 hash (test run) : E0F616B7
CRC32 hash : E0F616B7
CRC32 hash (skip zero) : A8FE5C13
AccurateRip v1 signature : 93FA5AAD
AccurateRip v2 signature : A616C359
->Track not present in AccurateRip database.
Statistics
Read error : 0
Jitter error (maybe fixed) : 0
Retry sector count : 0
Damaged sector count : 0

No errors occurred

End of status report

––-BEGIN XLD SIGNATURE––-
UjzUR7oWKqWPm8WSFNz0GrgP2MjiSuO5B.4btUiwMWRa0tUrVL6CUDpaKVc9LAGOlgUtzjqwqR7kbZNu0IzvKa8Hrg068X8ZyFkEDDi
––-END XLD SIGNATURE––-
X Lossless Decoder version 20191004 (152.0)

XLD extraction logfile from 2020-03-24 16:24:27 +0100

J.P.A. Falzone & Morgan Evans-Weiler / Audio CD

Used drive : PIONEER BD-RW BDR-UD03 (revision 1.11)
Media type : Pressed CD

Ripper mode : XLD Secure Ripper
Disable audio cache : OK for the drive with a cache less than 1375KiB
Make use of C2 pointers : NO
Read offset correction : 667
Max retry count : 20
Gap status : Analyzed, Appended (except HTOA)

TOC of the extracted CD
Track | Start | Length | Start sector | End sector
––––––––––––––––––––––––––––-
1 | 00:00:00 | 08:12:00 | 0 | 36899
2 | 08:12:00 | 16:13:52 | 36900 | 109926
3 | 24:25:52 | 07:09:29 | 109927 | 142130
4 | 31:35:06 | 07:17:50 | 142131 | 174955
5 | 38:52:56 | 16:07:68 | 174956 | 247548
6 | 55:00:49 | 06:10:42 | 247549 | 275340

AccurateRip Summary
Disc not found in AccurateRip DB.

All Tracks
Album gain : 6.41 dB
Peak : 0.594452
Statistics
Read error : 0
Jitter error (maybe fixed) : 0
Retry sector count : 0
Damaged sector count : 0

Track 01
Filename : /Users/ouv/J.P.A. Falzone & Morgan Evans-Weiler - Unknown Album (2020) {} [FLAC]/CD 2/01 Locational Variations I (2019).flac
Pre-gap length : 00:02:00

Track gain : 5.89 dB
Peak : 0.594452
CRC32 hash (test run) : A07675C1
CRC32 hash : A07675C1
CRC32 hash (skip zero) : F9B823B3
AccurateRip v1 signature : A420EB28
AccurateRip v2 signature : C5FFCF2C
->Track not present in AccurateRip database.
Statistics
Read error : 0
Jitter error (maybe fixed) : 0
Retry sector count : 0
Damaged sector count : 0

Track 02
Filename : /Users/ouv/J.P.A. Falzone & Morgan Evans-Weiler - Unknown Album (2020) {} [FLAC]/CD 2/02 Locational Variations II (2019).flac

Track gain : 6.52 dB
Peak : 0.570587
CRC32 hash (test run) : 61F9F110
CRC32 hash : 61F9F110
CRC32 hash (skip zero) : CA071B78
AccurateRip v1 signature : D83E6D5C
AccurateRip v2 signature : 22DC77E7
->Track not present in AccurateRip database.
Statistics
Read error : 0
Jitter error (maybe fixed) : 0
Retry sector count : 0
Damaged sector count : 0

Track 03
Filename : /Users/ouv/J.P.A. Falzone & Morgan Evans-Weiler - Unknown Album (2020) {} [FLAC]/CD 2/03 Locational Variations III (2019).flac

Track gain : 5.05 dB
Peak : 0.576965
CRC32 hash (test run) : 4990DC64
CRC32 hash : 4990DC64
CRC32 hash (skip zero) : CDD0B27A
AccurateRip v1 signature : 0406F54D
AccurateRip v2 signature : DF641416
->Track not present in AccurateRip database.
Statistics
Read error : 0
Jitter error (maybe fixed) : 0
Retry sector count : 0
Damaged sector count : 0

Track 04
Filename : /Users/ouv/J.P.A. Falzone & Morgan Evans-Weiler - Unknown Album (2020) {} [FLAC]/CD 2/04 Locational Variations IV (2019).flac

Track gain : 8.48 dB
Peak : 0.553375
CRC32 hash (test run) : 716064A3
CRC32 hash : 716064A3
CRC32 hash (skip zero) : 129FD928
AccurateRip v1 signature : 053A50F6
AccurateRip v2 signature : E7306455
->Track not present in AccurateRip database.
Statistics
Read error : 0
Jitter error (maybe fixed) : 0
Retry sector count : 0
Damaged sector count : 0

Track 05
Filename : /Users/ouv/J.P.A. Falzone & Morgan Evans-Weiler - Unknown Album (2020) {} [FLAC]/CD 2/05 Locational Variations V (2019).flac

Track gain : 5.77 dB
Peak : 0.511383
CRC32 hash (test run) : 47B88FD7
CRC32 hash : 47B88FD7
CRC32 hash (skip zero) : F2B0380F
AccurateRip v1 signature : 96C67DD2
AccurateRip v2 signature : 9235AFF8
->Track not present in AccurateRip database.
Statistics
Read error : 0
Jitter error (maybe fixed) : 0
Retry sector count : 0
Damaged sector count : 0

Track 06
Filename : /Users/ouv/J.P.A. Falzone & Morgan Evans-Weiler - Unknown Album (2020) {} [FLAC]/CD 2/06 Locational Variations VI (2019).flac

Track gain : 10.70 dB
Peak : 0.548553
CRC32 hash (test run) : 55AAA076
CRC32 hash : 55AAA076
CRC32 hash (skip zero) : DA97DC64
AccurateRip v1 signature : 8B0819A9
AccurateRip v2 signature : B7EC85B3
->Track not present in AccurateRip database.
Statistics
Read error : 0
Jitter error (maybe fixed) : 0
Retry sector count : 0
Damaged sector count : 0

No errors occurred

End of status report

––-BEGIN XLD SIGNATURE––-
fRZ7C3gasHSPwYXhoX.zj_n.KlrhnfFkgXKwC1CtAtOu_T_yK8nblijxENYXt8vwZOcIIz4wVxSG8kpdnRWN2FZMvGopknL0Z.zPlVi
––-END XLD SIGNATURE––-

Thanks to the Original ripper !