Tags
Language
Tags

Julian Lage - Squint (2021)

Posted By: Domestos
Julian Lage - Squint (2021)

Julian Lage - Squint (2021)
EAC Rip | FLAC (tracks+.cue, log) ~ 214.05 Mb | 45:36 | Covers
Post-Bop, Contemporary Jazz | Country: USA | Label: Blue Note Records - B003332402

Guitarist Julian Lage has made previous appearances on Blue Note with the Nels Cline 4 on Currents, Constellations, and with Charles Lloyd on 8: Kindred Spirits. Squint marks his leader debut for the label with his working trio of bassist Jorge Roeder and Bad Plus drummer Dave King. This 11-song program contains nine Lage originals and two covers: the Mandel and Mercer standard "Emily" and Billy Hill's immortal "Call of the Canyon."

Lage's trio worked up the material during a winter 2020 residency at the Village Vanguard. In composing, he was inspired by the storied tradition of Blue Note artists wedding popular song to sophisticated improvisation. After being forced into quarantine by the COVID-19 pandemic, Lage revisited the material through the ongoing confusion of its behavioral dictates and the summer's mass social unrest. The trio gathered in a Nashville studio and offered the re-envisioned tunes with a "deeper, darker air of mystery and searching.”

Squint is hardly a downer, though. It's airy, easy, and lyrical with canny interplay among the trio's members. "Boo's Blues" is swinging hard bop rooted in urban blues; a slippery chordal vamp slides atop the swinging drum kit and a walking bassline. Lage's solo is direct, meaty, and forceful as it emerges in a call-and-response with his bandmates. Single "Saint Rose" commences as a shuffling rocker with a jaunty riff; Lage and King state the groove with swagger. Roeder adds a funky undertone before the guitarist solos, extrapolating nuevo flamenco single-string runs from the harmony before bringing it back around to meld jazz with melodic rock. It's followed by a tender, gauzy read of "Emily" steeped in a graceful musical economy that approaches the elegant. "Familiar Flower" commences with Roeder's deep droning bassline atop King's double-timed syncopation on snares, tom-toms, and ride cymbals. Lage moves afield immediately, juxtaposing vamps, chords, and deft single-string leads in a confluence of bluesy melodies that trace the lineage of predecessors John Scofield and Pat Metheny while adding his own. "Day and Age," by contrast, is a slow, relaxed shuffle carrying layers of subtle, multivalent melody as Roeder's bass nearly sings alongside Lage's easy, back-porch guitaristry. "Quiet Like a Fuse" unwinds initially as a spectral, sweet ballad that Roeder and King gently propel, contrasting their elastic rhythmic pulse with Lage's lush, skeletal chromaticism. It gradually picks up steam but never loses its gentility. "Twilight Surfer" marries a bopping country shuffle to rootsy rock and complex tremolo picking with gorgeous fills from the guitarist and bassist. The cover of "Call of the Canyon" is rendered in slightly abstract fashion. It unfolds impressionistically before Roeder signals King and they surround Lage; he slowly and deliberately articulates the melody, extrapolating its nuances and spaces before leading the band into ether, then bringing them back to the physical world. Squint achieves Lage's formal ambition in spades. His trio's ability to meld formal songwriting mechanics with truly inspired collective jazz improvisation – without artifice – is as admirable as it is thoroughly enjoyable. ~ Squint Review by Thom Jurek



Track List:
01. Etude (Lage) - 2:27
02. Boo's Blues (Lage) - 3:25
03. Squint (Lage) - 4:30
04. Saint Rose (Lage) - 4:36
05. Emily (Mandel-Mercer) - 5:29
06. Familiar Flower (Lage) - 3:59
07. Day & Age (Lage) - 3:15
08. Quiet Like a Fuse (Lage) - 6:53
09. Short Form (Lage) - 3:32
10. Twilight Surfer (Lage) - 4:18
11. Call of the Canyon (Hill) - 3:12

Julian Lage - guitar
Jorge Roeder - bass
Dave King - drums

Recorded at Sound Emporium, Nashville, TN on August 15-19, 2020.

Julian Lage - Squint (2021)

Exact Audio Copy V1.3 from 2. September 2016

EAC extraction logfile from 17. November 2021, 19:09

Julian Lage / Squint

Used drive : HP DVD Writer 555s Adapter: 1 ID: 0

Read mode : Secure
Utilize accurate stream : Yes
Defeat audio cache : Yes
Make use of C2 pointers : No

Read offset correction : 6
Overread into Lead-In and Lead-Out : No
Fill up missing offset samples with silence : Yes
Delete leading and trailing silent blocks : No
Null samples used in CRC calculations : Yes
Used interface : Native Win32 interface for Win NT & 2000
Gap handling : Appended to previous track

Used output format : User Defined Encoder
Selected bitrate : 1024 kBit/s
Quality : High
Add ID3 tag : No
Command line compressor : C:\Program Files (x86)\FLAC\flac.exe
Additional command line options : -8 -V -T "ARTIST=%artist%" -T "TITLE=%title%" -T "ALBUM=%albumtitle%" -T "DATE=%year%" -T "TRACKNUMBER=%tracknr%" -T "GENRE=%genre%" -T "PERFORMER=%albuminterpret%" -T "COMPOSER=%composer%" %haslyrics%–tag-from-file=LYRICS="%lyricsfile%"%haslyrics% -T "ALBUMARTIST=%albumartist%" -T "DISCNUMBER=%cdnumber%" -T "TOTALDISCS=%totalcds%" -T "TOTALTRACKS=%numtracks%" -T "COMMENT=%comment%" %source% -o %dest%


TOC of the extracted CD

Track | Start | Length | Start sector | End sector
––––––––––––––––––––––––––––-
1 | 0:00.00 | 2:27.20 | 0 | 11044
2 | 2:27.20 | 3:25.07 | 11045 | 26426
3 | 5:52.27 | 4:29.73 | 26427 | 46674
4 | 10:22.25 | 4:35.58 | 46675 | 67357
5 | 14:58.08 | 5:28.38 | 67358 | 91995
6 | 20:26.46 | 3:59.23 | 91996 | 109943
7 | 24:25.69 | 3:15.37 | 109944 | 124605
8 | 27:41.31 | 6:53.16 | 124606 | 155596
9 | 34:34.47 | 3:31.48 | 155597 | 171469
10 | 38:06.20 | 4:18.15 | 171470 | 190834
11 | 42:24.35 | 3:12.30 | 190835 | 205264


Track 1

Filename D:\EACRIPS\Julian Lage - Squint (2021) [FLAC-16]\01 - Etude.wav

Pre-gap length 0:00:02.00

Peak level 98.3 %
Extraction speed 2.3 X
Track quality 100.0 %
Test CRC 7A8B5ABC
Copy CRC 7A8B5ABC
Accurately ripped (confidence 5) [C1390DCD] (AR v2)
Copy OK

Track 2

Filename D:\EACRIPS\Julian Lage - Squint (2021) [FLAC-16]\02 - Boo’s Blues.wav

Peak level 98.5 %
Extraction speed 2.6 X
Track quality 100.0 %
Test CRC 1E71C88D
Copy CRC 1E71C88D
Accurately ripped (confidence 5) [2273E5D8] (AR v2)
Copy OK

Track 3

Filename D:\EACRIPS\Julian Lage - Squint (2021) [FLAC-16]\03 - Squint.wav

Peak level 98.6 %
Extraction speed 3.0 X
Track quality 100.0 %
Test CRC 93372572
Copy CRC 93372572
Accurately ripped (confidence 5) [0D0E5E69] (AR v2)
Copy OK

Track 4

Filename D:\EACRIPS\Julian Lage - Squint (2021) [FLAC-16]\04 - Saint Rose.wav

Peak level 99.5 %
Extraction speed 3.3 X
Track quality 100.0 %
Test CRC 53FA7A11
Copy CRC 53FA7A11
Accurately ripped (confidence 5) [438AF5BA] (AR v2)
Copy OK

Track 5

Filename D:\EACRIPS\Julian Lage - Squint (2021) [FLAC-16]\05 - Emily.wav

Peak level 98.3 %
Extraction speed 3.7 X
Track quality 100.0 %
Test CRC 5BBDD99A
Copy CRC 5BBDD99A
Accurately ripped (confidence 5) [795F4A03] (AR v2)
Copy OK

Track 6

Filename D:\EACRIPS\Julian Lage - Squint (2021) [FLAC-16]\06 - Familiar Flower.wav

Peak level 98.6 %
Extraction speed 3.8 X
Track quality 100.0 %
Test CRC 7B2621E6
Copy CRC 7B2621E6
Accurately ripped (confidence 5) [8B7F874B] (AR v2)
Copy OK

Track 7

Filename D:\EACRIPS\Julian Lage - Squint (2021) [FLAC-16]\07 - Day & Age.wav

Peak level 98.7 %
Extraction speed 3.8 X
Track quality 100.0 %
Test CRC E6F1C3AB
Copy CRC E6F1C3AB
Accurately ripped (confidence 5) [026D35B8] (AR v2)
Copy OK

Track 8

Filename D:\EACRIPS\Julian Lage - Squint (2021) [FLAC-16]\08 - Quiet Like a Fuse.wav

Peak level 98.4 %
Extraction speed 4.4 X
Track quality 100.0 %
Test CRC A5C9941B
Copy CRC A5C9941B
Accurately ripped (confidence 5) [FBC37EC6] (AR v2)
Copy OK

Track 9

Filename D:\EACRIPS\Julian Lage - Squint (2021) [FLAC-16]\09 - Short Form.wav

Peak level 98.6 %
Extraction speed 4.3 X
Track quality 100.0 %
Test CRC 54AB4B8C
Copy CRC 54AB4B8C
Accurately ripped (confidence 5) [E5F14685] (AR v2)
Copy OK

Track 10

Filename D:\EACRIPS\Julian Lage - Squint (2021) [FLAC-16]\10 - Twilight Surfer.wav

Peak level 100.0 %
Extraction speed 4.6 X
Track quality 100.0 %
Test CRC FDA083D4
Copy CRC FDA083D4
Accurately ripped (confidence 5) [EF63308D] (AR v2)
Copy OK

Track 11

Filename D:\EACRIPS\Julian Lage - Squint (2021) [FLAC-16]\11 - Call of the Canyon.wav

Peak level 98.4 %
Extraction speed 4.6 X
Track quality 100.0 %
Test CRC 563F6DCC
Copy CRC 563F6DCC
Accurately ripped (confidence 5) [FB82B39C] (AR v2)
Copy OK


All tracks accurately ripped

No errors occurred

End of status report

–– CUETools DB Plugin V2.1.6

[CTDB TOCID: xXNm7j3RTuG3ZTQjlJJkQQdqkOk-] found
Submit result: xXNm7j3RTuG3ZTQjlJJkQQdqkOk- has been confirmed
Track | CTDB Status
1 | (46/46) Accurately ripped
2 | (46/46) Accurately ripped
3 | (46/46) Accurately ripped
4 | (46/46) Accurately ripped
5 | (46/46) Accurately ripped
6 | (46/46) Accurately ripped
7 | (46/46) Accurately ripped
8 | (46/46) Accurately ripped
9 | (46/46) Accurately ripped
10 | (46/46) Accurately ripped
11 | (46/46) Accurately ripped


==== Log checksum 8A2181BE147ED1505739E50FDD01286EE2768D8C476D02388FA1021278B3970C ====

All thanks go to the mhulot

More Music in My Blog
Follow My RSS Channel