Subcategories

Julie London - Latin In A Satin Mood (1991, Toshiba EMI # TOCJ-5390)

Posted By: luckburz
Julie London - Latin In A Satin Mood (1991, Toshiba EMI # TOCJ-5390)

Julie London - Latin In A Satin Mood
EAC+LOG+CUE | FLAC: 163 MB | Artwork | 5% Recovery Info
Label/Cat#: Toshiba EMI # TOCJ-5390 | Country/Year: Japan 1991, 1963
Genre: Jazz | Style: Vocal

MD5 [X] CUE [X] LOG [X] INFO TEXT [X] ARTWORK [X]

my rip [ ] not my rip [X]

Julie London - Latin In A Satin Mood (1991, Toshiba EMI # TOCJ-5390)


EAC extraction logfile from 1. August 2006, 19:15 for CD
Julie London / Latin In A Satin Mood

Used drive : HL-DT-STDVD-ROM GDR8162B Adapter: 1 ID: 1
Read mode : Secure with NO C2, accurate stream, disable cache
Read offset correction : 102
Overread into Lead-In and Lead-Out : No

Used output format : Internal WAV Routines
44.100 Hz; 16 Bit; Stereo

Other options :
Fill up missing offset samples with silence : Yes
Delete leading and trailing silent blocks : No
Installed external ASPI interface


Range status and errors
Selected range
Filename C:\Eac\Nuova cartella\CDImage.wav

Peak level 93.2 %
Range quality 100.0 %
CRC C254C4BB
Copy OK

No errors occured

End of status report

AUDIOCHECKER v2.0 beta (build 457) - by Dester - opdester@freemail.hu
~~~~~~~~~~~~~~~~~~~~~~~~~~~~~~~~~~
-=== DO NOT EDIT THIS FILE! ===-

Path: …\1962. Julie London - Latin In A Satin Mood

1 -=- Julie London - Latin In A Satin Mood.flac -=- CDDA (99%)

243416020

foobar2000 1.3 / Dynamic Range Meter 1.1.1
log date: 2014-12-27 04:37:14

––––––––––––––––––––––––––––––––––––––––
Analyzed: Julie London / Latin In A Satin Mood
––––––––––––––––––––––––––––––––––––––––

DR Peak RMS Duration Track
––––––––––––––––––––––––––––––––––––––––
DR13 -1.59 dB -16.70 dB 2:30 01-Frenesi
DR11 -2.04 dB -16.78 dB 2:38 02-Be Mine Tonight (Noche De Ronda)
DR12 -1.93 dB -16.61 dB 2:44 03-Yours (Quierme Mucho)
DR12 -2.97 dB -16.95 dB 2:12 04-Besame Mucho
DR12 -0.61 dB -17.23 dB 2:36 05-Adios
DR13 -1.18 dB -17.12 dB 2:39 06-Sway (Quien Sera)
DR14 -0.96 dB -18.14 dB 2:34 07-Perfidia
DR13 -1.82 dB -17.24 dB 1:59 08-Come Closer To Me (Acercate Mas)
DR13 -1.25 dB -16.85 dB 2:47 09-Amor
DR11 -3.31 dB -17.28 dB 2:27 10-Magic Is The Moonlight (Te Quiero Dijiste)
DR13 -1.17 dB -17.31 dB 2:54 11-You Belong To My Heart (Solamente Una Vez)
DR11 -3.81 dB -17.68 dB 2:41 12-Vaya Con Dios
––––––––––––––––––––––––––––––––––––––––

Number of tracks: 12
Official DR value: DR12

Samplerate: 44100 Hz
Channels: 2
Bits per sample: 16
Bitrate: 747 kbps
Codec: FLAC
================================================================================



CD Info:

Julie London - Latin In A Satin Mood

Label: Toshiba EMI/Liberty
Catalog#: TOCJ-5390
Format: CD, Album, Reissue
Country: Japan
Released: 1991, 1963
Genre: Jazz
Style: Vocal, Latin

Tracklist:

01. Frenesi (2:30)
02. Be Mine Tonight (Noche De Ronda) (2:38)
03. Yours (Quierme Mucho) (2:44)
04. Besame Mucho (2:12)
05. Adios (2:36)
06. Sway (Quien Sera) (2:39)
07. Perfidia (2:34)
08. Come Closer To Me (Acercate Mas) (1:59)
09. Amor (2:47)
10. Magic Is The Moonlight (Te Quiero Dijiste) (2:27)
11. You Belong To My Heart (Solamente Una Vez) (2:54)
12. Vaya Con Dios (2:41)

Personnel:

Julie London - vo
Ernie Freeman - arr, cond

Rec.: 1962.

Review by Nick Dedina

Exotic and Latin albums were big deals in the 1950s and early '60s, and singers as diverse as Dean Martin, Lena Horne, and Peggy Lee were recording with castanets and bongo drums. Peggy Lee was so successful at the style that she cut two albums of light pseudo-Latin jazz in 1960. Like Peggy Lee, Julie London combined a restrained vocal approach with jazz phrasing and a cool attitude with icy sex appeal. But while London had Lee's stripped-down musical approach, she just didn't share her unrelenting rhythmic vocal drive or her innate feeling for exotic rhythms. It doesn't help that London is paired with arranger Ernie Freeman, who was usually better at crafting Nashville and soft rock style charts than Latin jazz arrangements. This isn't a bad album – London sounds casual and confident throughout – but it is a rather bland one, and isn't blandness what these types of exotica albums are supposed to be fighting against? Latin in a Satin Mood ends up sounding exactly like what it was intended to be – an aid to put a little vanilla Latin sparkle in suburban American bedrooms. If you want your London in the Latin style, then try her excellent Getz/Gilberto-style tribute to Cole Porter, All Through the Night. Julie London's affinity for West Coast jazz and her melancholy emotional pull were much better suited to bossa nova than to Caribbean Latin music. ~allmusicguide

Thanks to the original releaser & papa1954!

________________

NITROFLARE

Music Pt. 1 | | Music Pt. 2

________________