Subcategories

Kajagoogoo - White Feathers (1983) {2004 EMI Remaster}

Posted By: ruskaval
Kajagoogoo - White Feathers (1983) {2004 EMI Remaster}

Kajagoogoo - White Feathers (1983) {2004 EMI Remaster}
EAC rip (secure mode) | FLAC (tracks)+CUE+LOG -> 474 Mb | MP3 @320 -> 174 Mb
Full Artwork @ 300 dpi (jpg) -> 20 Mb | 5% repair rar
© 1983, 2004 EMI Records | 7243 4 73962 2 9
Synth Pop / New Romantic / New Wave

White Feathers is the debut album by the British new wave band Kajagoogoo, released on 18th April 1983 and the only album by the band to-date to feature lead vocalist Limahl. It was produced by Nick Rhodes of Duran Duran and Colin Thurston, who was Duran Duran's producer at the time, except for track #5, the self-titled "Kajagoogoo", an instrumental, which was produced by Tim Palmer and the band. This self-titled song was featured in the John Hughes movie Sixteen Candles as the film's opening title song in 1984. The album contains their most successful single "Too Shy", a UK Number One hit in February 1983, as well as two other UK Top Twenty hits; "Ooh to Be Ah" and "Hang on Now".

After the band was featured on the VH1 program Bands Reunited in 2003, renewed interest in Kajagoogoo prompted the band's original label EMI to re-issue "White Feathers" on CD in the UK for the first time in 2004. Originally containing ten tracks, the 2004 version of the album contained eight bonus tracks, including four B-sides plus four remixes - two of which are of "Too Shy".
Kajagoogoo - White Feathers (1983) {2004 EMI Remaster}


Personnel
Limahl - lead vocals
Steve Askew - guitars
Stuart Neale - keyboards, programming, backing vocals
Nick Beggs - bass guitar, Chapman Stick, backing vocals
Jez Strode - drums, percussion

Tracks
1. White Feathers
2. Too Shy
3. Lies and Promises
4. Magician Man
5. Kajagoogoo (Instrumental)
6. Ooh to Be Ah
7. Ergonomics
8. Hang On Now
9. This Car Is Fast
10. Frayo
11. Too Shy (Instrumental Mix) [bonus track]
12. Take Another View [bonus track]
13. Interview Rooms [bonus track]
14. Animal Instincts [bonus track]
15. Introduction [bonus track]
16. Too Shy (Midnight Mix) [bonus track]
17. Ooh to Be Ah (The Construction Mix) [bonus track]
18. Hang On Now (Extended Version) [bonus track]

Exact Audio Copy V1.0 beta 4 from 7. December 2014

EAC extraction logfile from 11. February 2017, 19:20

Kajagoogoo / White Feathers

Used drive : MATSHITADVD-RAM UJ8D2Q Adapter: 1 ID: 0

Read mode : Secure
Utilize accurate stream : Yes
Defeat audio cache : Yes
Make use of C2 pointers : No

Read offset correction : 103
Overread into Lead-In and Lead-Out : No
Fill up missing offset samples with silence : Yes
Delete leading and trailing silent blocks : No
Null samples used in CRC calculations : Yes
Used interface : Native Win32 interface for Win NT & 2000
Gap handling : Appended to previous track

Used output format : User Defined Encoder
Selected bitrate : 896 kBit/s
Quality : High
Add ID3 tag : No
Command line compressor : C:\Program Files (x86)\Exact Audio Copy\Flac\flac.exe
Additional command line options : -8 -V -T "ARTIST=%artist%" -T "TITLE=%title%" -T "ALBUM=%albumtitle%" -T "DATE=%year%" -T "TRACKNUMBER=%tracknr%" -T "TOTALTRACKS=%numtracks%" -T "GENRE=%genre%" -T "ALBUMARTIST=%albumartist%" -T "ALBUM ARTIST=%albumartist%" -T "COMMENT=EAC Secure Mode, Test & Copy, AccurateRip, FLAC -8" %source%


TOC of the extracted CD

Track | Start | Length | Start sector | End sector
––––––––––––––––––––––––––––-
1 | 0:00.00 | 3:31.24 | 0 | 15848
2 | 3:31.24 | 3:46.16 | 15849 | 32814
3 | 7:17.40 | 2:54.06 | 32815 | 45870
4 | 10:11.46 | 3:41.73 | 45871 | 62518
5 | 13:53.44 | 3:12.32 | 62519 | 76950
6 | 17:06.01 | 3:17.39 | 76951 | 91764
7 | 20:23.40 | 3:13.00 | 91765 | 106239
8 | 23:36.40 | 3:28.36 | 106240 | 121875
9 | 27:05.01 | 3:32.67 | 121876 | 137842
10 | 30:37.68 | 4:18.47 | 137843 | 157239
11 | 34:56.40 | 4:02.34 | 157240 | 175423
12 | 38:58.74 | 4:34.15 | 175424 | 195988
13 | 43:33.14 | 3:25.30 | 195989 | 211393
14 | 46:58.44 | 2:41.64 | 211394 | 223532
15 | 49:40.33 | 5:11.54 | 223533 | 246911
16 | 54:52.12 | 5:28.19 | 246912 | 271530
17 | 60:20.31 | 6:38.61 | 271531 | 301441
18 | 66:59.17 | 6:20.35 | 301442 | 329976


Track 1

Filename C:\Users\paul\AppData\Local\VirtualStore\Program Files (x86)\Exact Audio Copy\Flac\01 - White Feathers.wav

Pre-gap length 0:00:02.00

Peak level 97.9 %
Extraction speed 2.4 X
Track quality 100.0 %
Test CRC 56F8D158
Copy CRC 56F8D158
Accurately ripped (confidence 2) [BBB438E4] (AR v2)
Copy OK

Track 2

Filename C:\Users\paul\AppData\Local\VirtualStore\Program Files (x86)\Exact Audio Copy\Flac\02 - Too Shy.wav

Pre-gap length 0:00:02.57

Peak level 97.9 %
Extraction speed 2.6 X
Track quality 100.0 %
Test CRC DD07557D
Copy CRC DD07557D
Accurately ripped (confidence 2) [8B174956] (AR v2)
Copy OK

Track 3

Filename C:\Users\paul\AppData\Local\VirtualStore\Program Files (x86)\Exact Audio Copy\Flac\03 - Lies And Promises.wav

Pre-gap length 0:00:02.36

Peak level 97.9 %
Extraction speed 2.7 X
Track quality 100.0 %
Test CRC 57EBC690
Copy CRC 57EBC690
Accurately ripped (confidence 2) [FB3D5A6C] (AR v2)
Copy OK

Track 4

Filename C:\Users\paul\AppData\Local\VirtualStore\Program Files (x86)\Exact Audio Copy\Flac\04 - Magician Man.wav

Pre-gap length 0:00:02.67

Peak level 97.9 %
Extraction speed 3.0 X
Track quality 100.0 %
Test CRC AC2D5CA2
Copy CRC AC2D5CA2
Accurately ripped (confidence 2) [7C5C96F3] (AR v2)
Copy OK

Track 5

Filename C:\Users\paul\AppData\Local\VirtualStore\Program Files (x86)\Exact Audio Copy\Flac\05 - Kajagoogoo (Instrumental).wav

Pre-gap length 0:00:00.37

Peak level 97.9 %
Extraction speed 3.1 X
Track quality 100.0 %
Test CRC 56491EB6
Copy CRC 56491EB6
Accurately ripped (confidence 2) [00F34BE1] (AR v2)
Copy OK

Track 6

Filename C:\Users\paul\AppData\Local\VirtualStore\Program Files (x86)\Exact Audio Copy\Flac\06 - Ooh To Be Ah.wav

Peak level 97.9 %
Extraction speed 2.3 X
Track quality 99.9 %
Test CRC 54D2716C
Copy CRC 54D2716C
Accurately ripped (confidence 2) [EF215413] (AR v2)
Copy OK

Track 7

Filename C:\Users\paul\AppData\Local\VirtualStore\Program Files (x86)\Exact Audio Copy\Flac\07 - Ergonomics.wav

Pre-gap length 0:00:04.26

Peak level 97.9 %
Extraction speed 3.3 X
Track quality 100.0 %
Test CRC 8A31362B
Copy CRC 8A31362B
Accurately ripped (confidence 2) [9DECBEFF] (AR v2)
Copy OK

Track 8

Filename C:\Users\paul\AppData\Local\VirtualStore\Program Files (x86)\Exact Audio Copy\Flac\08 - Hang On Now.wav

Pre-gap length 0:00:02.03

Peak level 97.9 %
Extraction speed 2.5 X
Track quality 99.9 %
Test CRC A0F53725
Copy CRC A0F53725
Accurately ripped (confidence 2) [8C65D338] (AR v2)
Copy OK

Track 9

Filename C:\Users\paul\AppData\Local\VirtualStore\Program Files (x86)\Exact Audio Copy\Flac\09 - This Car Is Fast.wav

Pre-gap length 0:00:03.55

Peak level 97.9 %
Extraction speed 3.6 X
Track quality 100.0 %
Test CRC FE6A37E3
Copy CRC FE6A37E3
Accurately ripped (confidence 2) [AFACCDE7] (AR v2)
Copy OK

Track 10

Filename C:\Users\paul\AppData\Local\VirtualStore\Program Files (x86)\Exact Audio Copy\Flac\10 - Frayo.wav

Pre-gap length 0:00:00.66

Peak level 97.9 %
Extraction speed 3.0 X
Track quality 99.9 %
Test CRC E4541016
Copy CRC E4541016
Accurately ripped (confidence 2) [103BEBA1] (AR v2)
Copy OK

Track 11

Filename C:\Users\paul\AppData\Local\VirtualStore\Program Files (x86)\Exact Audio Copy\Flac\11 - Too Shy (Instrumental Mix) (Bonus Track).wav

Pre-gap length 0:00:03.60

Peak level 97.9 %
Extraction speed 4.0 X
Track quality 100.0 %
Test CRC A15E164A
Copy CRC A15E164A
Accurately ripped (confidence 2) [F4984BEA] (AR v2)
Copy OK

Track 12

Filename C:\Users\paul\AppData\Local\VirtualStore\Program Files (x86)\Exact Audio Copy\Flac\12 - Take Another View (Bonus Track).wav

Pre-gap length 0:00:00.73

Peak level 97.9 %
Extraction speed 3.2 X
Track quality 99.9 %
Test CRC 8EAD487C
Copy CRC 8EAD487C
Accurately ripped (confidence 2) [1FB7B72C] (AR v2)
Copy OK

Track 13

Filename C:\Users\paul\AppData\Local\VirtualStore\Program Files (x86)\Exact Audio Copy\Flac\13 - Interview Rooms (Bonus Track).wav

Pre-gap length 0:00:00.64

Peak level 97.9 %
Extraction speed 4.2 X
Track quality 100.0 %
Test CRC B81DC884
Copy CRC B81DC884
Accurately ripped (confidence 2) [C8C31227] (AR v2)
Copy OK

Track 14

Filename C:\Users\paul\AppData\Local\VirtualStore\Program Files (x86)\Exact Audio Copy\Flac\14 - Animal Instincts (Bonus Track).wav

Pre-gap length 0:00:01.48

Peak level 97.9 %
Extraction speed 4.1 X
Track quality 100.0 %
Test CRC A702C97F
Copy CRC A702C97F
Accurately ripped (confidence 2) [7604EA4A] (AR v2)
Copy OK

Track 15

Filename C:\Users\paul\AppData\Local\VirtualStore\Program Files (x86)\Exact Audio Copy\Flac\15 - Introduction (Bonus Track).wav

Pre-gap length 0:00:01.50

Peak level 97.9 %
Extraction speed 3.7 X
Track quality 99.9 %
Test CRC D251AC13
Copy CRC D251AC13
Accurately ripped (confidence 2) [C1A795D1] (AR v2)
Copy OK

Track 16

Filename C:\Users\paul\AppData\Local\VirtualStore\Program Files (x86)\Exact Audio Copy\Flac\16 - Too Shy (Midnight Mix) (Bonus Track).wav

Pre-gap length 0:00:01.51

Peak level 97.9 %
Extraction speed 4.7 X
Track quality 100.0 %
Test CRC 3A761AB1
Copy CRC 3A761AB1
Accurately ripped (confidence 2) [3D493D8F] (AR v2)
Copy OK

Track 17

Filename C:\Users\paul\AppData\Local\VirtualStore\Program Files (x86)\Exact Audio Copy\Flac\17 - Ooh To Be Ah (The Construction Mix) (Bonus Track).wav

Pre-gap length 0:00:00.41

Peak level 97.9 %
Extraction speed 5.0 X
Track quality 100.0 %
Test CRC D5E7257D
Copy CRC D5E7257D
Accurately ripped (confidence 2) [B9D9C61A] (AR v2)
Copy OK

Track 18

Filename C:\Users\paul\AppData\Local\VirtualStore\Program Files (x86)\Exact Audio Copy\Flac\18 - Hang On Now (Extended Version) (Bonus Track).wav

Pre-gap length 0:00:00.45

Peak level 97.9 %
Extraction speed 4.3 X
Track quality 99.9 %
Test CRC 2932B525
Copy CRC 2932B525
Accurately ripped (confidence 2) [9394F3F0] (AR v2)
Copy OK


All tracks accurately ripped

No errors occurred

End of status report

–– CUETools DB Plugin V2.1.4

[CTDB TOCID: jTI_flOJ5sz4EkhxVS_GHD0RuL0-] found
Submit result: jTI_flOJ5sz4EkhxVS_GHD0RuL0- has been confirmed
Track | CTDB Status
1 | (19/19) Accurately ripped
2 | (19/19) Accurately ripped
3 | (19/19) Accurately ripped
4 | (19/19) Accurately ripped
5 | (19/19) Accurately ripped
6 | (19/19) Accurately ripped
7 | (19/19) Accurately ripped
8 | (19/19) Accurately ripped
9 | (19/19) Accurately ripped
10 | (18/19) Accurately ripped
11 | (19/19) Accurately ripped
12 | (19/19) Accurately ripped
13 | (14/19) Accurately ripped
14 | (18/19) Accurately ripped
15 | (14/19) Accurately ripped
16 | (19/19) Accurately ripped
17 | (18/19) Accurately ripped
18 | (19/19) Accurately ripped


==== Log checksum 1D4DDC422D07D99576E8E2C3D1038D7E9A9EAAC4626572D2807B4FCA07B3DD97 ====


Kajagoogoo - White Feathers (1983) {2004 EMI Remaster}

Kajagoogoo - White Feathers (1983) {2004 EMI Remaster}



===