Subcategories

Kay Starr - Losers, Weepers (1960) {EMI Japan Cardboard Sleeve TOCJ-9742 rel 2012}

Posted By: ruskaval
Kay Starr - Losers, Weepers (1960) {EMI Japan Cardboard Sleeve TOCJ-9742 rel 2012}

Kay Starr - Losers, Weepers (1960) {EMI Japan Cardboard Sleeve TOCJ-9742 rel 2012}
EAC rip (secure mode) | FLAC (tracks)+CUE+LOG -> 206 Mb | MP3 @320 -> 76 Mb
Full Artwork @ 300 dpi (png) -> 34 Mb | 5% repair rar
© 1960, 2012 Capitol / EMI Music Japan | TOCJ-9742 | 24bit remastering
Jazz / Female Jazz Vocal

Kay Starr was always a very underrated jazz singer. Because she had a few pop hits and gained a major name in the 1950s, Starr is often overlooked in the jazz world, but most of her vintage records are well worth investigating. This particular out-of-print LP from around 1957 (the date is approximate) features her backed by a string section arranged by Van Alexander. Although most of the songs have to deal with love, the emphasis is on ballads and the strings are heavy in spots, Starr gives a jazz feeling to each of her dozen interpretations. As usual, in spots she sounds eerily close to Dinah Washington. Highlights include "You Always Hurt the One You Love," "Don't Take Your Love from Me," "Please Don't Talk About Me When I'm Gone" and "Into Each Rain Some Rain Must Fall." Superior singing.
Kay Starr - Losers, Weepers (1960) {EMI Japan Cardboard Sleeve TOCJ-9742 rel 2012}


Tracks
01 - You Always Hurt The One You Love
02 - I Should Care
03 - I'm A Fool To Care
04 - Don't Take Your Love From Me
05 - When I Lost You
06 - Only Forever
07 - Gonna Get A Guy
08 - Please Don't Talk About Me When I'm Gone
09 - I Miss You So
10 - A Faded Summer Love
11 - When I Woman Loves A Man
12 - Into Each Life Some Rain Must Fall

Exact Audio Copy V1.0 beta 3 from 29. August 2011

EAC extraction logfile from 21. August 2013, 1:02

Kay Starr / Losers, Weepers

Used drive : PLEXTOR CD-R PX-W2410A Adapter: 1 ID: 0

Read mode : Secure
Utilize accurate stream : Yes
Defeat audio cache : Yes
Make use of C2 pointers : No

Read offset correction : 98
Overread into Lead-In and Lead-Out : No
Fill up missing offset samples with silence : Yes
Delete leading and trailing silent blocks : No
Null samples used in CRC calculations : Yes
Used interface : Native Win32 interface for Win NT & 2000
Gap handling : Appended to previous track

Used output format : User Defined Encoder
Selected bitrate : 256 kBit/s
Quality : High
Add ID3 tag : No
Command line compressor : C:\Program Files\Exact Audio Copy\FLAC\FLAC.EXE
Additional command line options : -8 -V -T "ARTIST=%artist%" -T "TITLE=%title%" -T "ALBUM=%albumtitle%" -T "DATE=%year%" -T "TRACKNUMBER=%tracknr%" -T "TOTALTRACKS=%numtracks%" -T "GENRE=%genre%" -T "ALBUMARTIST=%albumartist%" -T "ALBUM ARTIST=%albumartist%" -T "COMMENT=EAC Secure Mode, Test & Copy, AccurateRip, FLAC -8" %source%


TOC of the extracted CD

Track | Start | Length | Start sector | End sector
––––––––––––––––––––––––––––-
1 | 0:00.00 | 2:54.47 | 0 | 13096
2 | 2:54.47 | 2:24.03 | 13097 | 23899
3 | 5:18.50 | 2:44.33 | 23900 | 36232
4 | 8:03.08 | 2:30.71 | 36233 | 47553
5 | 10:34.04 | 2:09.51 | 47554 | 57279
6 | 12:43.55 | 2:47.62 | 57280 | 69866
7 | 15:31.42 | 3:19.69 | 69867 | 84860
8 | 18:51.36 | 2:56.42 | 84861 | 98102
9 | 21:48.03 | 2:34.08 | 98103 | 109660
10 | 24:22.11 | 2:53.19 | 109661 | 122654
11 | 27:15.30 | 3:20.14 | 122655 | 137668
12 | 30:35.44 | 1:54.23 | 137669 | 146241


Track 1

Filename D:\EAC\_.[CD]\Kay Starr - Losers, Weepers (1960) [CD] {2012 EMI JP TOCJ-9742}\01 - You Always Hurt The One You Love.wav

Pre-gap length 0:00:02.00

Peak level 98.8 %
Extraction speed 1.8 X
Track quality 99.9 %
Test CRC F6F5BCE4
Copy CRC F6F5BCE4
Track not present in AccurateRip database
Copy OK

Track 2

Filename D:\EAC\_.[CD]\Kay Starr - Losers, Weepers (1960) [CD] {2012 EMI JP TOCJ-9742}\02 - I Should Care.wav

Pre-gap length 0:00:02.28

Peak level 98.8 %
Extraction speed 1.8 X
Track quality 100.0 %
Test CRC 2E404AB1
Copy CRC 2E404AB1
Track not present in AccurateRip database
Copy OK

Track 3

Filename D:\EAC\_.[CD]\Kay Starr - Losers, Weepers (1960) [CD] {2012 EMI JP TOCJ-9742}\03 - I'm A Fool To Care.wav

Pre-gap length 0:00:02.28

Peak level 98.9 %
Extraction speed 1.8 X
Track quality 100.0 %
Test CRC 7343E1C5
Copy CRC 7343E1C5
Track not present in AccurateRip database
Copy OK

Track 4

Filename D:\EAC\_.[CD]\Kay Starr - Losers, Weepers (1960) [CD] {2012 EMI JP TOCJ-9742}\04 - Don't Take Your Love From Me.wav

Pre-gap length 0:00:02.28

Peak level 98.8 %
Extraction speed 1.8 X
Track quality 100.0 %
Test CRC 78530FCE
Copy CRC 78530FCE
Track not present in AccurateRip database
Copy OK

Track 5

Filename D:\EAC\_.[CD]\Kay Starr - Losers, Weepers (1960) [CD] {2012 EMI JP TOCJ-9742}\05 - When I Lost You.wav

Pre-gap length 0:00:02.28

Peak level 98.8 %
Extraction speed 1.8 X
Track quality 100.0 %
Test CRC C7F1E55C
Copy CRC C7F1E55C
Track not present in AccurateRip database
Copy OK

Track 6

Filename D:\EAC\_.[CD]\Kay Starr - Losers, Weepers (1960) [CD] {2012 EMI JP TOCJ-9742}\06 - Only Forever.wav

Pre-gap length 0:00:02.28

Peak level 98.8 %
Extraction speed 1.8 X
Track quality 100.0 %
Test CRC D6F3BFC2
Copy CRC D6F3BFC2
Track not present in AccurateRip database
Copy OK

Track 7

Filename D:\EAC\_.[CD]\Kay Starr - Losers, Weepers (1960) [CD] {2012 EMI JP TOCJ-9742}\07 - Gonna Get A Guy.wav

Pre-gap length 0:00:02.28

Peak level 98.8 %
Extraction speed 1.8 X
Track quality 100.0 %
Test CRC 6922D569
Copy CRC 6922D569
Track not present in AccurateRip database
Copy OK

Track 8

Filename D:\EAC\_.[CD]\Kay Starr - Losers, Weepers (1960) [CD] {2012 EMI JP TOCJ-9742}\08 - Please Don't Talk About Me When I'm Gone.wav

Pre-gap length 0:00:02.28

Peak level 98.8 %
Extraction speed 1.8 X
Track quality 100.0 %
Test CRC 667FE14D
Copy CRC 667FE14D
Track not present in AccurateRip database
Copy OK

Track 9

Filename D:\EAC\_.[CD]\Kay Starr - Losers, Weepers (1960) [CD] {2012 EMI JP TOCJ-9742}\09 - I Miss You So.wav

Pre-gap length 0:00:02.29

Peak level 98.8 %
Extraction speed 1.8 X
Track quality 100.0 %
Test CRC 2508A1FA
Copy CRC 2508A1FA
Track not present in AccurateRip database
Copy OK

Track 10

Filename D:\EAC\_.[CD]\Kay Starr - Losers, Weepers (1960) [CD] {2012 EMI JP TOCJ-9742}\10 - A Faded Summer Love.wav

Pre-gap length 0:00:02.28

Peak level 96.7 %
Extraction speed 1.8 X
Track quality 99.9 %
Test CRC 3A71832A
Copy CRC 3A71832A
Track not present in AccurateRip database
Copy OK

Track 11

Filename D:\EAC\_.[CD]\Kay Starr - Losers, Weepers (1960) [CD] {2012 EMI JP TOCJ-9742}\11 - When I Woman Loves A Man.wav

Pre-gap length 0:00:02.28

Peak level 98.8 %
Extraction speed 1.8 X
Track quality 99.9 %
Test CRC D0554ECE
Copy CRC D0554ECE
Track not present in AccurateRip database
Copy OK

Track 12

Filename D:\EAC\_.[CD]\Kay Starr - Losers, Weepers (1960) [CD] {2012 EMI JP TOCJ-9742}\12 - Into Each Life Some Rain Must Fall.wav

Pre-gap length 0:00:02.28

Peak level 98.8 %
Extraction speed 1.8 X
Track quality 100.0 %
Test CRC 24CD3684
Copy CRC 24CD3684
Track not present in AccurateRip database
Copy OK


None of the tracks are present in the AccurateRip database

No errors occurred

End of status report

–– CUETools DB Plugin V2.1.3

[CTDB TOCID: Xg.iragr4.RL7.8dVz_KFDRAAJI-] disk not present in database, Submit result: Xg.iragr4.RL7.8dVz_KFDRAAJI- has been uploaded


==== Log checksum 992976B9653C9955745C4BBD39E69D6E37C4192C4ACA12E9D5E0F3F16C41227E ====


Kay Starr - Losers, Weepers (1960) {EMI Japan Cardboard Sleeve TOCJ-9742 rel 2012}

Kay Starr - Losers, Weepers (1960) {EMI Japan Cardboard Sleeve TOCJ-9742 rel 2012}


see more Female Jazz Vocal Series…


===