Tags
Language
Tags

Keith Jarrett - J.S. Bach - Das Wohltemperierte Klavier, Buch I + Buch II (1988, 1991) {4CD Set ECM Records}

Posted By:
Keith Jarrett - J.S. Bach - Das Wohltemperierte Klavier, Buch I + Buch II (1988, 1991) {4CD Set ECM Records}

Keith Jarrett - J.S. Bach - Das Wohltemperierte Klavier, Buch I + Buch II (1988, 1991) {4CD Set ECM Records}
EAC rip (secure mode) | FLAC (tracks)+CUE+LOG -> 1.28 Gb | MP3 @320 -> 599 Mb
Full Artwork @ 300 dpi (jpg) -> 98 Mb | 5% repair rar
© 1988, 1991 ECM Records | ECM New Series 1362~63 / 1433~34
Classical / Piano / Harpsichord

Book One of the Well-Tempered Clavier is performed on the piano while Book Two is performed on the harpsichord. His tempos are very fast, and he has a certain sense of humor that comes through in all his performances, making what might seem academic, warm and accessible. Highly recommended - and check out Jarrett's other classical recordings for other delights just as great.

ECM INFO

Keith Jarrett - J.S. Bach - Das Wohltemperierte Klavier, Buch I + Buch II (1988, 1991) {4CD Set ECM Records}

Keith Jarrett - J.S. Bach - Das Wohltemperierte Klavier, Buch I (1988) [2CD] {ECM Records}
EAC rip (secure mode) | FLAC (tracks)+CUE+LOG -> 356 Mb | MP3 @320 -> 246 Mb
Full Artwork @ 300 dpi (jpg) -> 45 Mb | 5% repair rar
© 1988 ECM Records | ECM New Series 1362~63

I am a professional organist and am well versed in Baroque performance practices and stylistic specificities. As such, I have performed tons of Bach.

Jarrett's version is the best I have ever heard. I have even stolen some aspects of his interpretation and added them to my own. Some have commented that it was muddy, uninspired, contains errors. I disagree on all counts. I am most puzzled by the claim that there are errors. I play much of the WTC myself and I heard no errors.

I am most annoyed by people who over-interpret Bach as if each performer has a right to own him. Why doesn't this attitude exist for other composers as well? I don't understand. Jarrett sticks to what is on the page (with only the most minor contextually justifiable exceptions, unlike most other performers) and for this alone Jarrett deserves praise. This tells us Bach lovers that Jarrett trusts Bach's notes to do the work. I get the feeling from a lot of other performers that they do not trust Bach since they feel the need to do so much interpretataion.

I found Jarrett's version to be clear and penetrating. I enjoyed his tempos all told more than any other version I can think of. And there was just enough romantic emotionalism to remain within the scale of Baroque practice. Bach, throughout his music, displayed the capacity to render a wide variety of emotion. This fact I don't need to belabor to his fans. And Jarret does a fine job varying the styles of each prelude and fugue to reveal this often ignored side of Bach.

A technical note: Someone commented that Jarrett fails to bring out dominant lines. This shows a complete ignorance of Baroque performance practices and Bach's intentions. The dominant keyboard instruments back then were the organ and harpsichord and neither instrument has touch control. So the idea that Bach's lines should be touched is simply wrong. Also, Bach felt that the horizontal melodic component should be exactly equal to the vertical harmonic component in fugal work, which means bringing out voices was to Bach a philosophical anethema. This is one thing that makes Andras Schiff's version one of the worst, and Jarrett's one of the best.

Personnel: Keith Jarrett - piano

tracklist:
CD1

01. Prelude No.1 in C major, BWV846
02. Fugue No.1 in C major, BWV846
03. Prelude No.2 in C minor, BWV847
04. Fugue No.2 in C minor, BWV847
05. Prelude No.3 in C sharp major, BWV848
06. Fugue No.3 in C sharp major, BWV848
07. Prelude No.4 in C sharp minor, BWV849
08. Fugue No.4 in C sharp minor, BWV849
09. Prelude No.5 in D major, BWV850
10. Fugue No.5 in D major, BWV850
11. Prelude No.6 in D minor, BWV851
12. Fugue No.6 in D minor, BWV851
13. Prelude No.7 in E flat major, BWV852
14. Fugue No.7 in E flat major, BWV852
15. Prelude No.8 in E flat minor/D sharp minor
16. Fugue No.8 in E flat minor/D sharp minor
17. Prelude No.9 in E major, BWV854
18. Fugue No.9 in E major, BWV854
19. Prelude No.10 in E minor, BWV855
20. Fugue No.10 in E minor, BWV855
21. Prelude No.11 in F major, BWV856
22. Fugue No.11 in F major, BWV856
23. Prelude No.12 in F minor, BWV857
24. Fugue No.12 in F minor, BWV857

CD2
01. Prelude No.13 in F sharp major, BWV858
02. Fugue No.13 in F sharp major, BWV858
03. Prelude No.14 in F sharp minor, BWV859
04. Fugue No.14 in F sharp minor, BWV859
05. Prelude No.15 in G major, BWV860
06. Fugue No.15 in G major, BWV860
07. Prelude No.16 in G minor, BWV861
08. Fugue No.16 in G minor, BWV861
09. Prelude No.17 in A flat major, BWV862
10. Fugue No.17 in A flat major, BWV862
11. Prelude No.18 in G sharp minor, BWV863
12. Fugue No.18 in G sharp minor, BWV863
13. Prelude No.19 in A major, BWV864
14. Fugue No.19 in A major, BWV864
15. Prelude No.20 in A minor, BWV865
16. Fugue No.20 in A minor, BWV865
17. Prelude No.21 in B flat major, BWV866
18. Fugue No.21 in B flat major, BWV866
19. Prelude No.22 in B flat minor, BWV867
20. Fugue No.22 in B flat minor, BWV867
21. Prelude No.23 in B major, BWV868
22. Fugue No.23 in B major, BWV868
23. Prelude No.24 in B minor, BWV869
24. Fugue No.24 in B minor, BWV869

EAC extraction logfile from 8. September 2006, 18:07 for CD
Bach, Johann Sebastian / Das Wohltemperierte Klavier, Buch I (Disc 1)

Used drive : PLEXTOR CD-R PX-W5224A Adapter: 1 ID: 0
Read mode : Secure with NO C2, accurate stream, disable cache
Read offset correction : 30
Overread into Lead-In and Lead-Out : Yes

Used output format : C:\Program Files\Eac\Encoders\Flac\flac-1.1.2\flac.exe (User Defined Encoder)
128 kBit/s
Additional command line options : -V –best -T "artist=%a" -T "title=%t" -T "album=%g" -T "date=%y" -T "tracknumber=%n" -T "genre=%m" %s

Other options :
Fill up missing offset samples with silence : Yes
Delete leading and trailing silent blocks : No
Installed external ASPI interface


Track 1
Filename C:\My Music\Classical\Bach, Johann Sebastian\Das Wohltemperierte Klavier, Buch I (Disc 1)\01 - I C-dur.wav

Pre-gap length 0:00:02.33

Peak level 39.9 %
Track quality 100.0 %
Test CRC 05B542DD
Copy CRC 05B542DD
Copy OK

Track 2
Filename C:\My Music\Classical\Bach, Johann Sebastian\Das Wohltemperierte Klavier, Buch I (Disc 1)\02 - I C-dur.wav

Pre-gap length 0:00:01.60

Peak level 65.5 %
Track quality 100.0 %
Test CRC 1394AD2F
Copy CRC 1394AD2F
Copy OK

Track 3
Filename C:\My Music\Classical\Bach, Johann Sebastian\Das Wohltemperierte Klavier, Buch I (Disc 1)\03 - II C-moll.wav

Pre-gap length 0:00:02.15

Peak level 67.2 %
Track quality 100.0 %
Test CRC AFE75300
Copy CRC AFE75300
Copy OK

Track 4
Filename C:\My Music\Classical\Bach, Johann Sebastian\Das Wohltemperierte Klavier, Buch I (Disc 1)\04 - II C-moll.wav

Pre-gap length 0:00:02.00

Peak level 75.8 %
Track quality 99.8 %
Test CRC 76406E64
Copy CRC 76406E64
Copy OK

Track 5
Filename C:\My Music\Classical\Bach, Johann Sebastian\Das Wohltemperierte Klavier, Buch I (Disc 1)\05 - III Cis-dur.wav

Pre-gap length 0:00:02.07

Peak level 62.0 %
Track quality 99.8 %
Test CRC 458B940C
Copy CRC 458B940C
Copy OK

Track 6
Filename C:\My Music\Classical\Bach, Johann Sebastian\Das Wohltemperierte Klavier, Buch I (Disc 1)\06 - III Cis-dur.wav

Pre-gap length 0:00:02.25

Peak level 79.2 %
Track quality 100.0 %
Test CRC 43251BA4
Copy CRC 43251BA4
Copy OK

Track 7
Filename C:\My Music\Classical\Bach, Johann Sebastian\Das Wohltemperierte Klavier, Buch I (Disc 1)\07 - IV Cis-moll.wav

Pre-gap length 0:00:02.13

Peak level 60.9 %
Track quality 99.9 %
Test CRC 6D079982
Copy CRC 6D079982
Copy OK

Track 8
Filename C:\My Music\Classical\Bach, Johann Sebastian\Das Wohltemperierte Klavier, Buch I (Disc 1)\08 - IV Cis-moll.wav

Pre-gap length 0:00:02.50

Peak level 76.7 %
Track quality 100.0 %
Test CRC E323ADEE
Copy CRC E323ADEE
Copy OK

Track 9
Filename C:\My Music\Classical\Bach, Johann Sebastian\Das Wohltemperierte Klavier, Buch I (Disc 1)\09 - V D-dur.wav

Pre-gap length 0:00:02.72

Peak level 80.9 %
Track quality 99.8 %
Test CRC B50C1A7C
Copy CRC B50C1A7C
Copy OK

Track 10
Filename C:\My Music\Classical\Bach, Johann Sebastian\Das Wohltemperierte Klavier, Buch I (Disc 1)\10 - V D-dur.wav

Pre-gap length 0:00:02.50

Peak level 78.6 %
Track quality 100.0 %
Test CRC DBB7DA61
Copy CRC DBB7DA61
Copy OK

Track 11
Filename C:\My Music\Classical\Bach, Johann Sebastian\Das Wohltemperierte Klavier, Buch I (Disc 1)\11 - VI D-moll.wav

Pre-gap length 0:00:02.37

Peak level 54.3 %
Track quality 100.0 %
Test CRC 56014006
Copy CRC 56014006
Copy OK

Track 12
Filename C:\My Music\Classical\Bach, Johann Sebastian\Das Wohltemperierte Klavier, Buch I (Disc 1)\12 - VI D-moll.wav

Pre-gap length 0:00:02.50

Peak level 60.6 %
Track quality 100.0 %
Test CRC 7A8C0EAA
Copy CRC 7A8C0EAA
Copy OK

Track 13
Filename C:\My Music\Classical\Bach, Johann Sebastian\Das Wohltemperierte Klavier, Buch I (Disc 1)\13 - VII Es-dur.wav

Pre-gap length 0:00:02.63

Peak level 70.4 %
Track quality 100.0 %
Test CRC BD8393F5
Copy CRC BD8393F5
Copy OK

Track 14
Filename C:\My Music\Classical\Bach, Johann Sebastian\Das Wohltemperierte Klavier, Buch I (Disc 1)\14 - VII Es-dur.wav

Pre-gap length 0:00:02.55

Peak level 86.0 %
Track quality 100.0 %
Test CRC 83C322BB
Copy CRC 83C322BB
Copy OK

Track 15
Filename C:\My Music\Classical\Bach, Johann Sebastian\Das Wohltemperierte Klavier, Buch I (Disc 1)\15 - VIII Dis-moll.wav

Pre-gap length 0:00:02.62

Peak level 70.0 %
Track quality 99.9 %
Test CRC 18393001
Copy CRC 18393001
Copy OK

Track 16
Filename C:\My Music\Classical\Bach, Johann Sebastian\Das Wohltemperierte Klavier, Buch I (Disc 1)\16 - VIII Dis-moll.wav

Pre-gap length 0:00:03.25

Peak level 87.0 %
Track quality 99.9 %
Test CRC 72E9A38E
Copy CRC 72E9A38E
Copy OK

Track 17
Filename C:\My Music\Classical\Bach, Johann Sebastian\Das Wohltemperierte Klavier, Buch I (Disc 1)\17 - IX E-dur.wav

Pre-gap length 0:00:02.12

Peak level 45.7 %
Track quality 99.8 %
Test CRC 992DDA7D
Copy CRC 992DDA7D
Copy OK

Track 18
Filename C:\My Music\Classical\Bach, Johann Sebastian\Das Wohltemperierte Klavier, Buch I (Disc 1)\18 - IX E-dur.wav

Pre-gap length 0:00:01.62

Peak level 79.1 %
Track quality 100.0 %
Test CRC A37B3F17
Copy CRC A37B3F17
Copy OK

Track 19
Filename C:\My Music\Classical\Bach, Johann Sebastian\Das Wohltemperierte Klavier, Buch I (Disc 1)\19 - X E-moll.wav

Pre-gap length 0:00:01.63

Peak level 62.7 %
Track quality 100.0 %
Test CRC 37939A64
Copy CRC 37939A64
Copy OK

Track 20
Filename C:\My Music\Classical\Bach, Johann Sebastian\Das Wohltemperierte Klavier, Buch I (Disc 1)\20 - X E-moll.wav

Pre-gap length 0:00:03.38

Peak level 63.6 %
Track quality 100.0 %
Test CRC 80BD18FE
Copy CRC 80BD18FE
Copy OK

Track 21
Filename C:\My Music\Classical\Bach, Johann Sebastian\Das Wohltemperierte Klavier, Buch I (Disc 1)\21 - XI F-dur.wav

Pre-gap length 0:00:00.38

Peak level 60.1 %
Track quality 100.0 %
Test CRC 4DF96268
Copy CRC 4DF96268
Copy OK

Track 22
Filename C:\My Music\Classical\Bach, Johann Sebastian\Das Wohltemperierte Klavier, Buch I (Disc 1)\22 - XI F-dur.wav

Pre-gap length 0:00:01.63

Peak level 55.8 %
Track quality 99.8 %
Test CRC 1AED94F8
Copy CRC 1AED94F8
Copy OK

Track 23
Filename C:\My Music\Classical\Bach, Johann Sebastian\Das Wohltemperierte Klavier, Buch I (Disc 1)\23 - XII F-moll.wav

Pre-gap length 0:00:01.25

Peak level 44.0 %
Track quality 100.0 %
Test CRC E44914C1
Copy CRC E44914C1
Copy OK

Track 24
Filename C:\My Music\Classical\Bach, Johann Sebastian\Das Wohltemperierte Klavier, Buch I (Disc 1)\24 - XII F-moll.wav

Pre-gap length 0:00:01.63

Peak level 62.2 %
Track quality 100.0 %
Test CRC E5771AB7
Copy CRC E5771AB7
Copy OK

No errors occured


End of status report

EAC extraction logfile from 8. September 2006, 21:07 for CD
Bach, Johann Sebastian / Das Wohltemperierte Klavier, Buch I (Disc 2)

Used drive : PLEXTOR CD-R PX-W5224A Adapter: 1 ID: 0
Read mode : Secure with NO C2, accurate stream, disable cache
Read offset correction : 30
Overread into Lead-In and Lead-Out : Yes

Used output format : C:\Program Files\Eac\Encoders\Flac\flac-1.1.2\flac.exe (User Defined Encoder)
128 kBit/s
Additional command line options : -V –best -T "artist=%a" -T "title=%t" -T "album=%g" -T "date=%y" -T "tracknumber=%n" -T "genre=%m" %s

Other options :
Fill up missing offset samples with silence : Yes
Delete leading and trailing silent blocks : No
Installed external ASPI interface


Track 1
Filename C:\My Music\Classical\Bach, Johann Sebastian\Das Wohltemperierte Klavier, Buch I (Disc 2)\01 - XIII Fis-dur.wav

Pre-gap length 0:00:02.33

Peak level 40.2 %
Track quality 99.8 %
Test CRC 0068C25E
Copy CRC 0068C25E
Copy OK

Track 2
Filename C:\My Music\Classical\Bach, Johann Sebastian\Das Wohltemperierte Klavier, Buch I (Disc 2)\02 - XIII Fis-dur.wav

Pre-gap length 0:00:01.55

Peak level 68.7 %
Track quality 100.0 %
Test CRC 7C68F462
Copy CRC 7C68F462
Copy OK

Track 3
Filename C:\My Music\Classical\Bach, Johann Sebastian\Das Wohltemperierte Klavier, Buch I (Disc 2)\03 - XIV Fis-moll.wav

Pre-gap length 0:00:02.13

Peak level 50.5 %
Track quality 100.0 %
Test CRC A95CE9E4
Copy CRC A95CE9E4
Copy OK

Track 4
Filename C:\My Music\Classical\Bach, Johann Sebastian\Das Wohltemperierte Klavier, Buch I (Disc 2)\04 - XIV Fis-moll.wav

Pre-gap length 0:00:02.25

Peak level 52.4 %
Track quality 100.0 %
Test CRC 476DBA41
Copy CRC 476DBA41
Copy OK

Track 5
Filename C:\My Music\Classical\Bach, Johann Sebastian\Das Wohltemperierte Klavier, Buch I (Disc 2)\05 - XV G-dur.wav

Pre-gap length 0:00:03.12

Peak level 61.5 %
Track quality 100.0 %
Test CRC 8C6C107C
Copy CRC 8C6C107C
Copy OK

Track 6
Filename C:\My Music\Classical\Bach, Johann Sebastian\Das Wohltemperierte Klavier, Buch I (Disc 2)\06 - XV G-dur.wav

Pre-gap length 0:00:02.13

Peak level 61.3 %
Track quality 99.9 %
Test CRC 0DE51C4B
Copy CRC 0DE51C4B
Copy OK

Track 7
Filename C:\My Music\Classical\Bach, Johann Sebastian\Das Wohltemperierte Klavier, Buch I (Disc 2)\07 - XVI G-moll.wav

Pre-gap length 0:00:02.50

Peak level 52.4 %
Track quality 100.0 %
Test CRC D9DF201A
Copy CRC D9DF201A
Copy OK

Track 8
Filename C:\My Music\Classical\Bach, Johann Sebastian\Das Wohltemperierte Klavier, Buch I (Disc 2)\08 - XVI G-moll.wav

Pre-gap length 0:00:03.05

Peak level 74.7 %
Track quality 100.0 %
Test CRC 34972CFF
Copy CRC 34972CFF
Copy OK

Track 9
Filename C:\My Music\Classical\Bach, Johann Sebastian\Das Wohltemperierte Klavier, Buch I (Disc 2)\09 - XVII As-dur.wav

Pre-gap length 0:00:02.35

Peak level 63.9 %
Track quality 100.0 %
Test CRC F124C0B5
Copy CRC F124C0B5
Copy OK

Track 10
Filename C:\My Music\Classical\Bach, Johann Sebastian\Das Wohltemperierte Klavier, Buch I (Disc 2)\10 - XVII As-dur.wav

Pre-gap length 0:00:02.50

Peak level 61.9 %
Track quality 100.0 %
Test CRC 999BFDCB
Copy CRC 999BFDCB
Copy OK

Track 11
Filename C:\My Music\Classical\Bach, Johann Sebastian\Das Wohltemperierte Klavier, Buch I (Disc 2)\11 - XVIII Gis-moll.wav

Pre-gap length 0:00:03.25

Peak level 53.7 %
Track quality 99.8 %
Test CRC 256EFC14
Copy CRC 256EFC14
Copy OK

Track 12
Filename C:\My Music\Classical\Bach, Johann Sebastian\Das Wohltemperierte Klavier, Buch I (Disc 2)\12 - XVIII Gis-moll.wav

Pre-gap length 0:00:03.50

Peak level 66.7 %
Track quality 100.0 %
Test CRC D0624DFA
Copy CRC D0624DFA
Copy OK

Track 13
Filename C:\My Music\Classical\Bach, Johann Sebastian\Das Wohltemperierte Klavier, Buch I (Disc 2)\13 - XIX A-dur.wav

Pre-gap length 0:00:03.38

Peak level 62.0 %
Track quality 100.0 %
Test CRC 0B2167DF
Copy CRC 0B2167DF
Copy OK

Track 14
Filename C:\My Music\Classical\Bach, Johann Sebastian\Das Wohltemperierte Klavier, Buch I (Disc 2)\14 - XIX A-dur.wav

Pre-gap length 0:00:02.50

Peak level 56.3 %
Track quality 100.0 %
Test CRC FBD52436
Copy CRC FBD52436
Copy OK

Track 15
Filename C:\My Music\Classical\Bach, Johann Sebastian\Das Wohltemperierte Klavier, Buch I (Disc 2)\15 - XX A-moll.wav

Pre-gap length 0:00:03.00

Peak level 51.9 %
Track quality 100.0 %
Test CRC 3259FAE3
Copy CRC 3259FAE3
Copy OK

Track 16
Filename C:\My Music\Classical\Bach, Johann Sebastian\Das Wohltemperierte Klavier, Buch I (Disc 2)\16 - XX A-moll.wav

Pre-gap length 0:00:02.63

Peak level 78.9 %
Track quality 100.0 %
Test CRC CF1FA00E
Copy CRC CF1FA00E
Copy OK

Track 17
Filename C:\My Music\Classical\Bach, Johann Sebastian\Das Wohltemperierte Klavier, Buch I (Disc 2)\17 - XXI B-dur.wav

Pre-gap length 0:00:02.37

Peak level 59.7 %
Track quality 99.8 %
Test CRC B512AD03
Copy CRC B512AD03
Copy OK

Track 18
Filename C:\My Music\Classical\Bach, Johann Sebastian\Das Wohltemperierte Klavier, Buch I (Disc 2)\18 - XXI B-dur.wav

Pre-gap length 0:00:02.37

Peak level 53.6 %
Track quality 100.0 %
Test CRC AF49653D
Copy CRC AF49653D
Copy OK

Track 19
Filename C:\My Music\Classical\Bach, Johann Sebastian\Das Wohltemperierte Klavier, Buch I (Disc 2)\19 - XXII B-moll.wav

Pre-gap length 0:00:03.00

Peak level 61.1 %
Track quality 99.9 %
Test CRC C8B4C5CE
Copy CRC C8B4C5CE
Copy OK

Track 20
Filename C:\My Music\Classical\Bach, Johann Sebastian\Das Wohltemperierte Klavier, Buch I (Disc 2)\20 - XXII B-moll.wav

Pre-gap length 0:00:02.25

Peak level 84.2 %
Track quality 99.9 %
Test CRC 0FDCF0F8
Copy CRC 0FDCF0F8
Copy OK

Track 21
Filename C:\My Music\Classical\Bach, Johann Sebastian\Das Wohltemperierte Klavier, Buch I (Disc 2)\21 - XXIII H-dur.wav

Pre-gap length 0:00:03.12

Peak level 56.4 %
Track quality 100.0 %
Test CRC C08BC0A7
Copy CRC C08BC0A7
Copy OK

Track 22
Filename C:\My Music\Classical\Bach, Johann Sebastian\Das Wohltemperierte Klavier, Buch I (Disc 2)\22 - XXIII H-dur.wav

Pre-gap length 0:00:03.00

Peak level 76.5 %
Track quality 100.0 %
Test CRC 88654DCE
Copy CRC 88654DCE
Copy OK

Track 23
Filename C:\My Music\Classical\Bach, Johann Sebastian\Das Wohltemperierte Klavier, Buch I (Disc 2)\23 - XXIV H-moll.wav

Pre-gap length 0:00:03.63

Peak level 46.0 %
Track quality 100.0 %
Test CRC F901BEC4
Copy CRC F901BEC4
Copy OK

Track 24
Filename C:\My Music\Classical\Bach, Johann Sebastian\Das Wohltemperierte Klavier, Buch I (Disc 2)\24 - XXIV H-moll.wav

Pre-gap length 0:00:02.25

Peak level 57.7 %
Track quality 99.9 %
Test CRC A2B68627
Copy CRC A2B68627
Copy OK

No errors occured


End of status report


Keith Jarrett - J.S. Bach - Das Wohltemperierte Klavier, Buch I + Buch II (1988, 1991) {4CD Set ECM Records}

Keith Jarrett - J.S. Bach - Das Wohltemperierte Klavier, Buch I + Buch II (1988, 1991) {4CD Set ECM Records}



–––––––––––––––––––––-
Keith Jarrett - J.S. Bach - Das Wohltemperierte Klavier, Buch I + Buch II (1988, 1991) {4CD Set ECM Records}

Keith Jarrett - J.S. Bach - Das Wohltemperierte Klavier, Buch II (1991) [2CD] {ECM Records}
EAC rip (secure mode) | FLAC (tracks)+CUE+LOG -> 959 Mb | MP3 @320 -> 352 Mb
Full Artwork @ 300 dpi (png) -> 52 Mb | 5% repair rar
© 1991 ECM Records | ECM New Series 1433~34

Keith Jarrett is such a fine musician that he, as a composer as well as a performer and a jazz interpreter as well as a classics interpreter, knows when to simply let the written notes be played the way they were written. His Bach is very straightforward: yes, he embellishes in keeping with the indications and musical period of Bach, but he never lets the embellishments sound as though they should call attention to the performer. Book One of the Well-Tempered Clavier is performed on the piano while Book Two is performed on the harpsichord. For this listener his piano keyboard Bach is more interesting than his Harpsichord Bach and I'm not at all certain why he elected to change instruments. But perhaps that is simply one more aspect of Jarrett's exploration of works he deems important enough to spend his concentration and time reproducing.

One of the pleasures of Jarrett's playing is his knowledge of how to bring a phrase to a close and for that matter how he prepares for the closing of a variation. It feels right, as though he has thought about Bach's ideas and incorporated them into his own manner of performing. Both of these 2CD albums are very well recorded and make a solid addition to the library: piano keyboard Bach or harpsichord keyboard Bach - both make for repeated frequent listenings.

Personnel: Keith Jarrett - harpsichord

tracklist:
CD1

01. I C-dur
02. II c-moll
03. III Cis-dur
04. IV cis-moll
05. V D-dur
06. VI d-moll
07. VII Es-dur
08. VIII dis-moll
09. IX E-dur
10. X e-moll
11. XI F-dur
12. XII f-moll

CD2
01. XIII, Fis-dur
02. XIV, fis-moll
03. XV, G-dur
04. XVI, g-moll
05. XVII, As-dur
06. XVIII, gis-moll
07. XIX, A-dur
08. XX, a-moll
09. XXI, B-dur
10. XXII, b-moll
11. XXIII, H-dur
12. XXIV, h-moll

Exact Audio Copy V0.99 prebeta 5 from 4. May 2009

EAC extraction logfile from 28. December 2010, 19:00

Keith Jarrett / J.S. Bach - Das Wohltemperierte Klavier, Buch II (CD1)

Used drive : TSSTcorpCD/DVDW TS-H552L Adapter: 3 ID: 0

Read mode : Secure
Utilize accurate stream : Yes
Defeat audio cache : Yes
Make use of C2 pointers : No

Read offset correction : 6
Overread into Lead-In and Lead-Out : No
Fill up missing offset samples with silence : Yes
Delete leading and trailing silent blocks : No
Null samples used in CRC calculations : Yes
Used interface : Native Win32 interface for Win NT & 2000
Gap handling : Appended to previous track

Used output format : User Defined Encoder
Selected bitrate : 1024 kBit/s
Quality : High
Add ID3 tag : No
Command line compressor : C:\Program Files\FLAC\flac.exe
Additional command line options : -5 -V -T "ARTIST=%a" -T "TITLE=%t" -T "ALBUM=%g" -T "DATE=%y" -T "TRACKNUMBER=%n" -T "TOTALTRACKS=%x" -T "GENRE=%m" -T "ALBUMARTIST=%v" -T "ALBUM ARTIST=%v" -T "COMMENT=EAC Secure Mode, Test & Copy, AccurateRip, FLAC -5" %s


TOC of the extracted CD

Track | Start | Length | Start sector | End sector
––––––––––––––––––––––––––––-
1 | 0:00.00 | 4:16.50 | 0 | 19249
2 | 4:16.50 | 4:34.00 | 19250 | 39799
3 | 8:50.50 | 3:35.00 | 39800 | 55924
4 | 12:25.50 | 6:04.00 | 55925 | 83224
5 | 18:29.50 | 8:14.70 | 83225 | 120344
6 | 26:44.45 | 3:44.05 | 120345 | 137149
7 | 30:28.50 | 5:03.00 | 137150 | 159874
8 | 35:31.50 | 7:41.00 | 159875 | 194449
9 | 43:12.50 | 7:58.00 | 194450 | 230299
10 | 51:10.50 | 7:20.70 | 230300 | 263369
11 | 58:31.45 | 5:47.05 | 263370 | 289399
12 | 64:18.50 | 5:49.27 | 289400 | 315601


Track 1

Filename E:\EAC\Keith Jarrett - J.S. Bach - Das Wohltemperierte Klavier, Buch II (1991) [2CD] {ECM Records}\CD1\01 - I C-dur.wav

Pre-gap length 0:00:02.00

Peak level 56.8 %
Track quality 99.9 %
Test CRC 646CB3B5
Copy CRC 646CB3B5
Accurately ripped (confidence 13) [23E35932]
Copy OK

Track 2

Filename E:\EAC\Keith Jarrett - J.S. Bach - Das Wohltemperierte Klavier, Buch II (1991) [2CD] {ECM Records}\CD1\02 - II c-moll.wav

Pre-gap length 0:00:03.35

Peak level 48.0 %
Track quality 100.0 %
Test CRC 6F9C11D4
Copy CRC 6F9C11D4
Accurately ripped (confidence 13) [B9F411C6]
Copy OK

Track 3

Filename E:\EAC\Keith Jarrett - J.S. Bach - Das Wohltemperierte Klavier, Buch II (1991) [2CD] {ECM Records}\CD1\03 - III Cis-dur.wav

Pre-gap length 0:00:04.45

Peak level 53.7 %
Track quality 100.0 %
Test CRC BA0ADD73
Copy CRC BA0ADD73
Accurately ripped (confidence 14) [670A04F5]
Copy OK

Track 4

Filename E:\EAC\Keith Jarrett - J.S. Bach - Das Wohltemperierte Klavier, Buch II (1991) [2CD] {ECM Records}\CD1\04 - IV cis-moll.wav

Pre-gap length 0:00:03.18

Peak level 53.9 %
Track quality 100.0 %
Test CRC 4EB69655
Copy CRC 4EB69655
Accurately ripped (confidence 13) [11E96D1D]
Copy OK

Track 5

Filename E:\EAC\Keith Jarrett - J.S. Bach - Das Wohltemperierte Klavier, Buch II (1991) [2CD] {ECM Records}\CD1\05 - V D-dur.wav

Pre-gap length 0:00:03.40

Peak level 65.1 %
Track quality 100.0 %
Test CRC 6CFE7A97
Copy CRC 6CFE7A97
Accurately ripped (confidence 14) [6FB68A09]
Copy OK

Track 6

Filename E:\EAC\Keith Jarrett - J.S. Bach - Das Wohltemperierte Klavier, Buch II (1991) [2CD] {ECM Records}\CD1\06 - VI d-moll.wav

Pre-gap length 0:00:05.55

Peak level 55.4 %
Track quality 100.0 %
Test CRC CEB344F9
Copy CRC CEB344F9
Accurately ripped (confidence 14) [A7A669D1]
Copy OK

Track 7

Filename E:\EAC\Keith Jarrett - J.S. Bach - Das Wohltemperierte Klavier, Buch II (1991) [2CD] {ECM Records}\CD1\07 - VII Es-dur.wav

Pre-gap length 0:00:05.15

Peak level 59.7 %
Track quality 100.0 %
Test CRC 30900023
Copy CRC 30900023
Accurately ripped (confidence 14) [3FF4E4C7]
Copy OK

Track 8

Filename E:\EAC\Keith Jarrett - J.S. Bach - Das Wohltemperierte Klavier, Buch II (1991) [2CD] {ECM Records}\CD1\08 - VIII dis-moll.wav

Pre-gap length 0:00:04.65

Peak level 46.5 %
Track quality 100.0 %
Test CRC D5787DCC
Copy CRC D5787DCC
Accurately ripped (confidence 13) [2616C8AA]
Copy OK

Track 9

Filename E:\EAC\Keith Jarrett - J.S. Bach - Das Wohltemperierte Klavier, Buch II (1991) [2CD] {ECM Records}\CD1\09 - IX E-dur.wav

Pre-gap length 0:00:04.20

Peak level 51.3 %
Track quality 100.0 %
Test CRC 6B73D939
Copy CRC 6B73D939
Accurately ripped (confidence 13) [EAEE27DF]
Copy OK

Track 10

Filename E:\EAC\Keith Jarrett - J.S. Bach - Das Wohltemperierte Klavier, Buch II (1991) [2CD] {ECM Records}\CD1\10 - X e-moll.wav

Pre-gap length 0:00:04.45

Peak level 54.9 %
Track quality 100.0 %
Test CRC 84A02CFF
Copy CRC 84A02CFF
Accurately ripped (confidence 14) [3DD0A27F]
Copy OK

Track 11

Filename E:\EAC\Keith Jarrett - J.S. Bach - Das Wohltemperierte Klavier, Buch II (1991) [2CD] {ECM Records}\CD1\11 - XI F-dur.wav

Pre-gap length 0:00:04.63

Peak level 55.9 %
Track quality 100.0 %
Test CRC 88EC5917
Copy CRC 88EC5917
Accurately ripped (confidence 14) [70BC221A]
Copy OK

Track 12

Filename E:\EAC\Keith Jarrett - J.S. Bach - Das Wohltemperierte Klavier, Buch II (1991) [2CD] {ECM Records}\CD1\12 - XII f-moll.wav

Pre-gap length 0:00:04.63

Peak level 53.1 %
Track quality 100.0 %
Test CRC 11DA73FE
Copy CRC 11DA73FE
Accurately ripped (confidence 14) [F145CC35]
Copy OK


All tracks accurately ripped

No errors occurred

End of status report

Exact Audio Copy V0.99 prebeta 5 from 4. May 2009

EAC extraction logfile from 28. December 2010, 19:08

Keith Jarrett / J.S. Bach - Das Wohltemperierte Klavier, Buch II (CD2)

Used drive : TSSTcorpCD/DVDW TS-H552L Adapter: 3 ID: 0

Read mode : Secure
Utilize accurate stream : Yes
Defeat audio cache : Yes
Make use of C2 pointers : No

Read offset correction : 6
Overread into Lead-In and Lead-Out : No
Fill up missing offset samples with silence : Yes
Delete leading and trailing silent blocks : No
Null samples used in CRC calculations : Yes
Used interface : Native Win32 interface for Win NT & 2000
Gap handling : Appended to previous track

Used output format : User Defined Encoder
Selected bitrate : 1024 kBit/s
Quality : High
Add ID3 tag : No
Command line compressor : C:\Program Files\FLAC\flac.exe
Additional command line options : -5 -V -T "ARTIST=%a" -T "TITLE=%t" -T "ALBUM=%g" -T "DATE=%y" -T "TRACKNUMBER=%n" -T "TOTALTRACKS=%x" -T "GENRE=%m" -T "ALBUMARTIST=%v" -T "ALBUM ARTIST=%v" -T "COMMENT=EAC Secure Mode, Test & Copy, AccurateRip, FLAC -5" %s


TOC of the extracted CD

Track | Start | Length | Start sector | End sector
––––––––––––––––––––––––––––-
1 | 0:00.32 | 5:59.50 | 32 | 27006
2 | 6:00.07 | 7:24.00 | 27007 | 60306
3 | 13:24.07 | 4:21.00 | 60307 | 79881
4 | 17:45.07 | 6:30.00 | 79882 | 109131
5 | 24:15.07 | 7:58.00 | 109132 | 144981
6 | 32:13.07 | 8:51.00 | 144982 | 184806
7 | 41:04.07 | 3:18.00 | 184807 | 199656
8 | 44:22.07 | 7:20.00 | 199657 | 232656
9 | 51:42.07 | 10:12.00 | 232657 | 278556
10 | 61:54.07 | 8:16.00 | 278557 | 315756
11 | 70:10.07 | 5:26.00 | 315757 | 340206
12 | 75:36.07 | 4:09.63 | 340207 | 358944


Track 1

Filename E:\EAC\Keith Jarrett - J.S. Bach - Das Wohltemperierte Klavier, Buch II (1991) [2CD] {ECM Records}\CD2\01 - XIII, Fis-dur.wav

Pre-gap length 0:00:02.32

Peak level 55.8 %
Track quality 100.0 %
Test CRC 1A7F6951
Copy CRC 1A7F6951
Accurately ripped (confidence 1) [3C352BE7]
Copy OK

Track 2

Filename E:\EAC\Keith Jarrett - J.S. Bach - Das Wohltemperierte Klavier, Buch II (1991) [2CD] {ECM Records}\CD2\02 - XIV, fis-moll.wav

Pre-gap length 0:00:05.10

Peak level 43.2 %
Track quality 100.0 %
Test CRC 0344FC2D
Copy CRC 0344FC2D
Accurately ripped (confidence 1) [F8AE8EB9]
Copy OK

Track 3

Filename E:\EAC\Keith Jarrett - J.S. Bach - Das Wohltemperierte Klavier, Buch II (1991) [2CD] {ECM Records}\CD2\03 - XV, G-dur.wav

Pre-gap length 0:00:04.72

Peak level 52.3 %
Track quality 99.9 %
Test CRC 4C4AC28C
Copy CRC 4C4AC28C
Accurately ripped (confidence 1) [063E39A6]
Copy OK

Track 4

Filename E:\EAC\Keith Jarrett - J.S. Bach - Das Wohltemperierte Klavier, Buch II (1991) [2CD] {ECM Records}\CD2\04 - XVI, g-moll.wav

Pre-gap length 0:00:08.70

Peak level 65.4 %
Track quality 100.0 %
Test CRC E7871F84
Copy CRC E7871F84
Accurately ripped (confidence 1) [8940B09E]
Copy OK

Track 5

Filename E:\EAC\Keith Jarrett - J.S. Bach - Das Wohltemperierte Klavier, Buch II (1991) [2CD] {ECM Records}\CD2\05 - XVII, As-dur.wav

Pre-gap length 0:00:05.00

Peak level 45.4 %
Track quality 100.0 %
Test CRC A95F94E1
Copy CRC A95F94E1
Accurately ripped (confidence 1) [EB036452]
Copy OK

Track 6

Filename E:\EAC\Keith Jarrett - J.S. Bach - Das Wohltemperierte Klavier, Buch II (1991) [2CD] {ECM Records}\CD2\06 - XVIII, gis-moll.wav

Pre-gap length 0:00:04.45

Peak level 57.4 %
Track quality 100.0 %
Test CRC 37A03577
Copy CRC 37A03577
Accurately ripped (confidence 1) [AA48360B]
Copy OK

Track 7

Filename E:\EAC\Keith Jarrett - J.S. Bach - Das Wohltemperierte Klavier, Buch II (1991) [2CD] {ECM Records}\CD2\07 - XIX, A-dur.wav

Pre-gap length 0:00:04.62

Peak level 55.2 %
Track quality 100.0 %
Test CRC 0DE59CBD
Copy CRC 0DE59CBD
Accurately ripped (confidence 1) [A49CEED8]
Copy OK

Track 8

Filename E:\EAC\Keith Jarrett - J.S. Bach - Das Wohltemperierte Klavier, Buch II (1991) [2CD] {ECM Records}\CD2\08 - XX, a-moll.wav

Pre-gap length 0:00:05.20

Peak level 63.5 %
Track quality 100.0 %
Test CRC A3B65E55
Copy CRC A3B65E55
Accurately ripped (confidence 1) [EE4C22EE]
Copy OK

Track 9

Filename E:\EAC\Keith Jarrett - J.S. Bach - Das Wohltemperierte Klavier, Buch II (1991) [2CD] {ECM Records}\CD2\09 - XXI, B-dur.wav

Pre-gap length 0:00:05.15

Peak level 46.9 %
Track quality 99.9 %
Test CRC F88203B1
Copy CRC F88203B1
Accurately ripped (confidence 1) [7DCFA203]
Copy OK

Track 10

Filename E:\EAC\Keith Jarrett - J.S. Bach - Das Wohltemperierte Klavier, Buch II (1991) [2CD] {ECM Records}\CD2\10 - XXII, b-moll.wav

Pre-gap length 0:00:04.57

Peak level 76.5 %
Track quality 100.0 %
Test CRC 14B6BA82
Copy CRC 14B6BA82
Accurately ripped (confidence 1) [57188D93]
Copy OK

Track 11

Filename E:\EAC\Keith Jarrett - J.S. Bach - Das Wohltemperierte Klavier, Buch II (1991) [2CD] {ECM Records}\CD2\11 - XXIII, H-dur.wav

Pre-gap length 0:00:04.65

Peak level 51.3 %
Track quality 100.0 %
Test CRC 3CE5569A
Copy CRC 3CE5569A
Accurately ripped (confidence 1) [FEE09E35]
Copy OK

Track 12

Filename E:\EAC\Keith Jarrett - J.S. Bach - Das Wohltemperierte Klavier, Buch II (1991) [2CD] {ECM Records}\CD2\12 - XXIV, h-moll.wav

Pre-gap length 0:00:05.47

Peak level 63.1 %
Track quality 100.0 %
Test CRC 418A5C62
Copy CRC 418A5C62
Accurately ripped (confidence 1) [A07451AC]
Copy OK


All tracks accurately ripped

No errors occurred

End of status report


Keith Jarrett - J.S. Bach - Das Wohltemperierte Klavier, Buch I + Buch II (1988, 1991) {4CD Set ECM Records}

Keith Jarrett - J.S. Bach - Das Wohltemperierte Klavier, Buch I + Buch II (1988, 1991) {4CD Set ECM Records}



===