Subcategories

Keith Jarrett - Spheres (1976) {ECM}

Posted By: ruskaval
Keith Jarrett - Spheres (1976) {ECM}

Keith Jarrett - Spheres (1976) {ECM}
EAC rip (secure mode) | FLAC (tracks)+CUE+LOG -> 185 Mb | MP3 @320 -> 96 Mb
Full Artwork @ 300 dpi (jpg) -> 13 Mb
© 1985 ECM Records | ECM 1302
Jazz / Classical / Organ

Hymns/Spheres, the original double LP from which the four pieces here are drawn, was perhaps too long and somewhat self-indulgent, and ultimately risked tedium. Yet the album contained some of the most transcendent music Keith Jarrett has recorded. In 1976, he came upon the mighty Trinity Organ, built by Karl Joseph Riepp (1710-1775) at the Benedictine Abbey in Ottobeuren, and proceeded to extend its already awesome capabilities by experimenting with partial openings of its stops. The result was an array of eerie tonalities with which he could accomplish a memorable contribution to the long tradition of organ improvisation. The opening section of the nine-part "Sphere" (four selections of which comprise this release) is a grand, piercing, and elevating summoning of shadowy recesses of the spirit, and of their liberation in devotion to whatever one's gods.

AAJ INFO
ECM INFO


Personnel: Keith Jarrett: Baroque organ

tracklist:
01. Spheres (1st Movement)
02. Spheres (4th Movement)
03. Spheres (7th Movement)
04. Spheres (9th Movement)

Keith Jarrett - Spheres (1976) {ECM}

Keith Jarrett - Spheres (1976) {ECM}

EAC extraction logfile from 17. July 2009, 22:09 for CD
Keith Jarrett / Spheres

Used drive : TSSTcorpDVD+-RW TS-L632H Adapter: 1 ID: 0
Read mode : Secure with NO C2, accurate stream, disable cache
Read offset correction : 6
Overread into Lead-In and Lead-Out : No

Used output format : C:\Soft Audio\FLAC\flac.exe (User Defined Encoder)
128 kBit/s
Additional command line options : -V -8 -T "artist=%a" -T "title=%t" -T "album=%g" -T "date=%y" -T "tracknumber=%n" -T "genre=%m" %s

Other options :
Fill up missing offset samples with silence : Yes
Delete leading and trailing silent blocks : No
Native Win32 interface for Win NT & 2000


Track 1
Filename C:\Flac\Keith Jarrett - Spheres\01 - Spheres (1st Movement).wav

Pre-gap length 0:00:02.33

Peak level 58.7 %
Track quality 100.0 %
Test CRC B5F83358
Copy CRC B5F83358
Copy OK

Track 2
Filename C:\Flac\Keith Jarrett - Spheres\02 - Spheres (4th Movement).wav

Pre-gap length 0:00:05.38

Peak level 58.6 %
Track quality 100.0 %
Test CRC 91212ECC
Copy CRC 91212ECC
Copy OK

Track 3
Filename C:\Flac\Keith Jarrett - Spheres\03 - Spheres (7th Movement).wav

Pre-gap length 0:00:03.63

Peak level 77.3 %
Track quality 99.9 %
Test CRC 80861F5C
Copy CRC 80861F5C
Copy OK

Track 4
Filename C:\Flac\Keith Jarrett - Spheres\04 - Spheres (9th Movement).wav

Pre-gap length 0:00:06.63

Peak level 64.7 %
Track quality 100.0 %
Test CRC 5CBBB13A
Copy CRC 5CBBB13A
Copy OK

No errors occured


End of status report


All thanks goes to the original releaser!