Tags
Language
Tags

Kid Ory, Bix Beiderbecke - Jazz Lips (The Cradle Of Jazz) (2008)

Posted By: SuniR
Kid Ory, Bix Beiderbecke - Jazz Lips (The Cradle Of Jazz) (2008)

Kid Ory, Bix Beiderbecke - Jazz Lips (The Cradle Of Jazz) (2008)
EAC | FLAC (log,tracks+cue) -> 458 Mb (5% Rec.)
Mp3 CBR320 Kbps -> 333 Mb (5% Rec.) | Scans included
Jazz, Swing | Label: History, 20.3013-HI | 02:01:53

This CD series contains tracks by some of the greatest Jazz musicians of all times.
These historic recordings have been digitally remastered to enhance the sound and reduce noise and crackle from the original recordings without manipulationg the character of the music.

Kid Ory

Edward "Kid" Ory was born on Christmas Day, 1886 in La Place, Louisiana. He came from a Creolean family who owned a plantation in the vicinity of New Orleans. He played as a youngster with friends on self-made instruments, bought a trombone from money he had earned, and took lessons.
"Kid" appeared at weekends even as a 14 year old in New Orleans, with the well-known bands of the day - amongst others with the formation of Buddy Bolden. Ory led his own band as of 1911, with which other jazz greats such as, Mutt Carey, Johnny Dodds, King Oliver, Sidney Bechet, Jimmie Noone and Louis Armstrong played in the following 8 years.
Ory moved to Los Angeles in 1919 for health reasons, and built up 2 years later the "Spike's Seven Pods of Pepper Orchestra", in which diverse musicians from New Orleans played. After recording the songs "Ory's Creole Trombone" and "Society Blues" Ory's combo was considered to be the first coloured combo to have recorded a record. Ory eventually handed his musicians over to Mutt Carey and went to Chicago. Here he worked with King Oliver from 1925 until 1927, and recorded numerous classics with Louis Armstrong
and his "Hot Five" and with Jelly Roll Morton.
After the recession, and during the whole of the Thirties, this previously permanently occupied trombone player withdrew from the music business, and set up a chicken farm with his brother. It was only after the Dixieland revival in the Forties that Ory could celebrate his comeback. He played in 1942 with Barney Bigard, and with his own band as of 1944, first and foremost for Orson Welles' radio show. From then on Ory enjoyed an unusual renaissance, played once again as a star soloist - amongst others with Louis Armstrong - and was the owner of several successful clubs in Los Angeles and San Francisco. On top of that Ory appeared in the film "New Orleans" in 1946 with Louis Armstrong. Ten years later he also appeared in the film "The Benny Goodman Story".
After various European tours, and performances at numerous festivals, he withdrew from 1960 partly out of the music business, and retired completely in 1966 to settle down on Hawaii.
Ory was considered to be the best Tailgate trombone player in tradtional jazz, and contributed considerably to the acceptance of this instrument. He died in January, 1973 in Honolulu.

Bix Beiderbecke

Leon Bismarck "Bix" Beiderbecke was born on the 10th March, 1903 in Davenport, Iowa. As a legendary cornet player he had a great influence on the 1st jazz generation in his short life. He was the first white musician on the Chicago scene.
Music already played an important role in the childhood of this son of a middle-class family of German descent. He began by playing the piano, and it soon became obvious that the small boy had an exceptional sense of pitch. He was capable of repeating pieces perfectly, after hearing them only once from his teacher. His training as a concert pianist failed on the grounds of him not being able to read music. Beiderbecke changed from piano to cornet at the age of 14. He taught himself on this new choice of instrument, under the influence of Louis Armstrong, who he had heard on the Mississippi steam-boats.
Beiderbecke began to play in 1923 with the "Wolverings" in Chicago. The band had started to make a name for itself amongst jazz musicians, and Beiderbecke recorded his first record with them.
He later changed to the orchestra of Jean Goldkette, which was very popular at the time. He became a friend of the saxophone
player Frankie Trumbauer in this period. The two recorded together some of the classics on which Beiderbecke's legendary solos can be heard. He and Trumbauer became members of Paul Whiteman's orchestra in 1927. Whiteman was regarded at the time as a famous bandleader. Many recordings were made with the orchestras of Goldkette and Whiteman between 1928 and 1930, on which Beiderbecke's solos took over a leading role. During this period he also played in smaller "Hot Groups" -often together with Trumbauer. He performed now and then with Bing Crosby.
Beiderbecke's state of health eventually deteriorated, also due to the fact that he often drank alcohol. Whiteman sent him back to his hometown of Davenport but his stay there did not seem to help. When he returned to New York, and once again Whiteman wanted to engage him in his band, Beiderbecke backed down. The musician appeared in various clubs, composed a little, then shut himself for days on end in his hotel room. Bix Beiderbecke died of pneumonia on the 7th August, 1931 in Queens. The talented musician was just 28 years old.

Tracklist:

CD 1: Kid Ory
01. Ory's Creole Trombone 03:21
02. Gut Bucket Blues (Armstrong) 02:49
03. Muskrat Ramble (Ory) 02:35
04. 29th And Dearborn (Jones) 02:53
05. Too Bod (Meyers - Scboebel) 02:01
06. Dropping Shucks (Hardin) 03:04
07. Gatemouth (Armstrong) 03:06
08. Papa Dip (Armstrong) 02:53
09. Flat Foot (Armstrong) 03:24
10. Mad Dog (Armstrong) 02:48
11. Dead Man Blues (Morton) 03:15
12. Jazz Lips (Hardin) 03:08
13. Dry's Creole Trombone (Ory) 03:04
14. Once In A While (Butler) 03:13
15. South (Moten - Hoyes) 02:44
16. Blues For Jimmie (Ory) 03:02

CD 2: Bix Beiderbecke
01. Fidgety Feet (La Rocca - Shields - Ragas) 02:19
02. Copenhagen (Melrose - Davis) 02:27
03. Tiger Rag (La Rocca - Costa - ODJB) 02:33
04. Davenport Blues (Beiderbecke) 02:49
05. Trumbology (Trumbauer) 03:02
06. Singin' The Blues (Young - Lewis - Conrad - Robinson) 02:57
07. Ostric Walk (La Rocca - Shields) 03:08
08. Riverboat Shuffle (Voynow - Carmichael - Mills - Parish) 03:10
09. I'm Comin' Virginia (Cook - Heywood) 03:09
10. Way Down Yonder In New Orleans (Creamer - Loyton) 02:52
11. For No Reason At All In "C" (Young - Lewis - Meyer) 03:03
12. In A Mist (Bixology) (Beiderbecke) 02:43
13. Clementine (From "New Orleans") (Creamer - Warren) 03:01
14. Jazz Me Blues (Delaney) 03:04
15. At The Jazz Band Ball (La Rocca - Shields) 02:52
16. Royal Garden Blues (C. & S. Williams) 03:01
17. Goose Pimples (Trent - Henderson) 03:17
18. Sorry (Klages - Quicksell) 02:54
19. Thou Swell (Hart - Rogers) 03:00
20. 0l' Man River (Hammerstein II - Kern) 03:06
21. Wa-Da-Da (Ev'rybody's Doin't It Now) (Cavanaugh - Barris) 03:03
22. Lousiana (Razaf - Schafer- Johnson) 02:50
23. Margie (Davis - Conrad - Robinson) 02:56
24. I'll Be A Friend With Pleasure (Pinkard) 03:04
25. Bessie Couldn't Help It (Warner - Richmind - Bayha) 02:56

Exact Audio Copy V0.99 prebeta 4 from 23. January 2008

EAC extraction logfile from 18. July 2010, 16:57

Kid Ory, Bix Beiderbecke / Jazz Lips (1of2)

Used drive : HL-DT-STDVD-RAM GH22NP20 Adapter: 0 ID: 0

Read mode : Secure
Utilize accurate stream : Yes
Defeat audio cache : Yes
Make use of C2 pointers : No

Read offset correction : 102
Overread into Lead-In and Lead-Out : No
Fill up missing offset samples with silence : Yes
Delete leading and trailing silent blocks : No
Null samples used in CRC calculations : Yes
Used interface : Installed external ASPI interface
Gap handling : Appended to previous track

Used output format : User Defined Encoder
Selected bitrate : 320 kBit/s
Quality : High
Add ID3 tag : No
Command line compressor : C:\Program Files\Exact Audio Copy\Flac\flac.exe
Additional command line options : -V -8 -T "artist=%a" -T "title=%t" -T "album=%g" -T "date=%y" -T "tracknumber=%n" -T "genre=%m" %s


TOC of the extracted CD

Track | Start | Length | Start sector | End sector
––––––––––––––––––––––––––––-
1 | 0:00.00 | 3:21.27 | 0 | 15101
2 | 3:21.27 | 2:49.73 | 15102 | 27849
3 | 6:11.25 | 2:35.24 | 27850 | 39498
4 | 8:46.49 | 2:53.37 | 39499 | 52510
5 | 11:40.11 | 3:01.36 | 52511 | 66121
6 | 14:41.47 | 3:04.33 | 66122 | 79954
7 | 17:46.05 | 3:06.27 | 79955 | 93931
8 | 20:52.32 | 2:53.15 | 93932 | 106921
9 | 23:45.47 | 3:24.20 | 106922 | 122241
10 | 27:09.67 | 2:48.47 | 122242 | 134888
11 | 29:58.39 | 3:15.14 | 134889 | 149527
12 | 33:13.53 | 3:08.60 | 149528 | 163687
13 | 36:22.38 | 3:04.60 | 163688 | 177547
14 | 39:27.23 | 3:13.27 | 177548 | 192049
15 | 42:40.50 | 2:44.72 | 192050 | 204421
16 | 45:25.47 | 3:02.24 | 204422 | 218095


Track 1

Filename D:\music\Musicgate's rips\Kid Ory, Bix Beiderbecke - Jazz Lips (2CD) - {The Cradle Of Jazz. History}\CD1\01 - Ory's Creole Trombone.wav

Pre-gap length 0:00:02.00

Peak level 63.0 %
Track quality 100.0 %
Test CRC FBB17F45
Copy CRC FBB17F45
Track not present in AccurateRip database
Copy OK

Track 2

Filename D:\music\Musicgate's rips\Kid Ory, Bix Beiderbecke - Jazz Lips (2CD) - {The Cradle Of Jazz. History}\CD1\02 - Gut Bucket Blues (Armstrong).wav

Pre-gap length 0:00:01.60

Peak level 65.1 %
Track quality 100.0 %
Test CRC 2D26E8DD
Copy CRC 2D26E8DD
Track not present in AccurateRip database
Copy OK

Track 3

Filename D:\music\Musicgate's rips\Kid Ory, Bix Beiderbecke - Jazz Lips (2CD) - {The Cradle Of Jazz. History}\CD1\03 - Muskrats Rumble (Ory).wav

Pre-gap length 0:00:01.60

Peak level 67.1 %
Track quality 100.0 %
Test CRC 957D682C
Copy CRC 957D682C
Track not present in AccurateRip database
Copy OK

Track 4

Filename D:\music\Musicgate's rips\Kid Ory, Bix Beiderbecke - Jazz Lips (2CD) - {The Cradle Of Jazz. History}\CD1\04 - 29th And Dearborn (Jones).wav

Pre-gap length 0:00:01.60

Peak level 59.1 %
Track quality 100.0 %
Test CRC 71462E50
Copy CRC 71462E50
Track not present in AccurateRip database
Copy OK

Track 5

Filename D:\music\Musicgate's rips\Kid Ory, Bix Beiderbecke - Jazz Lips (2CD) - {The Cradle Of Jazz. History}\CD1\05 - Too Bad (Meyers - Schoebel).wav

Pre-gap length 0:00:01.60

Peak level 63.5 %
Track quality 100.0 %
Test CRC AB17AAD6
Copy CRC AB17AAD6
Track not present in AccurateRip database
Copy OK

Track 6

Filename D:\music\Musicgate's rips\Kid Ory, Bix Beiderbecke - Jazz Lips (2CD) - {The Cradle Of Jazz. History}\CD1\06 - Dropping Shucks (Hardin).wav

Pre-gap length 0:00:01.60

Peak level 70.9 %
Track quality 100.0 %
Test CRC F1D0F917
Copy CRC F1D0F917
Track not present in AccurateRip database
Copy OK

Track 7

Filename D:\music\Musicgate's rips\Kid Ory, Bix Beiderbecke - Jazz Lips (2CD) - {The Cradle Of Jazz. History}\CD1\07 - Gatemouth (Armstrong).wav

Pre-gap length 0:00:01.60

Peak level 68.0 %
Track quality 100.0 %
Test CRC 0A5EFA56
Copy CRC 0A5EFA56
Track not present in AccurateRip database
Copy OK

Track 8

Filename D:\music\Musicgate's rips\Kid Ory, Bix Beiderbecke - Jazz Lips (2CD) - {The Cradle Of Jazz. History}\CD1\08 - Papa Dip (Armstrong).wav

Pre-gap length 0:00:01.60

Peak level 63.8 %
Track quality 100.0 %
Test CRC F2CCE260
Copy CRC F2CCE260
Track not present in AccurateRip database
Copy OK

Track 9

Filename D:\music\Musicgate's rips\Kid Ory, Bix Beiderbecke - Jazz Lips (2CD) - {The Cradle Of Jazz. History}\CD1\09 - Flat Foot (Armstrong).wav

Pre-gap length 0:00:01.60

Peak level 74.1 %
Track quality 100.0 %
Test CRC 48A0ECC5
Copy CRC 48A0ECC5
Track not present in AccurateRip database
Copy OK

Track 10

Filename D:\music\Musicgate's rips\Kid Ory, Bix Beiderbecke - Jazz Lips (2CD) - {The Cradle Of Jazz. History}\CD1\10 - Mad Dog (Armstrong).wav

Pre-gap length 0:00:01.60

Peak level 71.8 %
Track quality 100.0 %
Test CRC 8499790E
Copy CRC 8499790E
Track not present in AccurateRip database
Copy OK

Track 11

Filename D:\music\Musicgate's rips\Kid Ory, Bix Beiderbecke - Jazz Lips (2CD) - {The Cradle Of Jazz. History}\CD1\11 - Dead Man Blues (Morton).wav

Pre-gap length 0:00:01.60

Peak level 62.3 %
Track quality 100.0 %
Test CRC 4BC2167B
Copy CRC 4BC2167B
Track not present in AccurateRip database
Copy OK

Track 12

Filename D:\music\Musicgate's rips\Kid Ory, Bix Beiderbecke - Jazz Lips (2CD) - {The Cradle Of Jazz. History}\CD1\12 - Jazz Lips (Hardin).wav

Pre-gap length 0:00:01.60

Peak level 62.3 %
Track quality 100.0 %
Test CRC B6F66216
Copy CRC B6F66216
Track not present in AccurateRip database
Copy OK

Track 13

Filename D:\music\Musicgate's rips\Kid Ory, Bix Beiderbecke - Jazz Lips (2CD) - {The Cradle Of Jazz. History}\CD1\13 - Ory's Creol Trombone (Ory).wav

Pre-gap length 0:00:01.60

Peak level 66.9 %
Track quality 100.0 %
Test CRC E9FDBC43
Copy CRC E9FDBC43
Track not present in AccurateRip database
Copy OK

Track 14

Filename D:\music\Musicgate's rips\Kid Ory, Bix Beiderbecke - Jazz Lips (2CD) - {The Cradle Of Jazz. History}\CD1\14 - Once In A While (Butler).wav

Pre-gap length 0:00:01.60

Peak level 61.7 %
Track quality 100.0 %
Test CRC 4B412D9A
Copy CRC 4B412D9A
Track not present in AccurateRip database
Copy OK

Track 15

Filename D:\music\Musicgate's rips\Kid Ory, Bix Beiderbecke - Jazz Lips (2CD) - {The Cradle Of Jazz. History}\CD1\15 - South (Moten-Hayes).wav

Pre-gap length 0:00:01.60

Peak level 70.6 %
Track quality 100.0 %
Test CRC FBC156F2
Copy CRC FBC156F2
Track not present in AccurateRip database
Copy OK

Track 16

Filename D:\music\Musicgate's rips\Kid Ory, Bix Beiderbecke - Jazz Lips (2CD) - {The Cradle Of Jazz. History}\CD1\16 - BLues For Jimmy (Ory).wav

Pre-gap length 0:00:01.60

Peak level 67.2 %
Track quality 99.9 %
Test CRC 571294FF
Copy CRC 571294FF
Track not present in AccurateRip database
Copy OK


None of the tracks are present in the AccurateRip database

No errors occurred

End of status report

foobar2000 1.3.6 / Dynamic Range Meter 1.1.1
log date: 2017-07-19 10:17:51

––––––––––––––––––––––––––––––––––––––––
Analyzed: Kid Ory, Bix Beiderbecke / Jazz Lips (1of2)
––––––––––––––––––––––––––––––––––––––––

DR Peak RMS Duration Track
––––––––––––––––––––––––––––––––––––––––
DR8 -4.01 dB -14.65 dB 3:21 01-Ory's Creole Trombone
DR10 -3.72 dB -15.44 dB 2:50 02-Gut Bucket Blues (Armstrong)
DR9 -3.46 dB -14.23 dB 2:35 03-Muskrats Rumble (Ory)
DR10 -4.57 dB -17.09 dB 2:53 04-29th And Dearborn (Jones)
DR9 -3.94 dB -16.03 dB 3:01 05-Too Bad (Meyers - Schoebel)
DR9 -2.98 dB -13.85 dB 3:04 06-Dropping Shucks (Hardin)
DR10 -3.34 dB -15.01 dB 3:06 07-Gatemouth (Armstrong)
DR10 -3.90 dB -15.07 dB 2:53 08-Papa Dip (Armstrong)
DR12 -2.60 dB -16.22 dB 3:24 09-Flat Foot (Armstrong)
DR11 -2.88 dB -16.00 dB 2:49 10-Mad Dog (Armstrong)
DR12 -4.10 dB -18.69 dB 3:15 11-Dead Man Blues (Morton)
DR8 -4.11 dB -14.17 dB 3:09 12-Jazz Lips (Hardin)
DR11 -3.49 dB -16.01 dB 3:05 13-Ory's Creol Trombone (Ory)
DR11 -4.19 dB -16.08 dB 3:13 14-Once In A While (Butler)
DR11 -3.01 dB -15.67 dB 2:45 15-South (Moten-Hayes)
DR11 -3.44 dB -16.66 dB 3:02 16-BLues For Jimmy (Ory)
––––––––––––––––––––––––––––––––––––––––

Number of tracks: 16
Official DR value: DR10

Samplerate: 44100 Hz
Channels: 2
Bits per sample: 16
Bitrate: 466 kbps
Codec: FLAC
================================================================================

Exact Audio Copy V0.99 prebeta 4 from 23. January 2008

EAC extraction logfile from 18. July 2010, 15:22

Kid Ory, Bix Beiderbecke / Jazz Lips (2 of 2)

Used drive : HL-DT-STDVD-RAM GH22NP20 Adapter: 0 ID: 0

Read mode : Secure
Utilize accurate stream : Yes
Defeat audio cache : Yes
Make use of C2 pointers : No

Read offset correction : 102
Overread into Lead-In and Lead-Out : No
Fill up missing offset samples with silence : Yes
Delete leading and trailing silent blocks : No
Null samples used in CRC calculations : Yes
Used interface : Installed external ASPI interface
Gap handling : Appended to previous track

Used output format : User Defined Encoder
Selected bitrate : 320 kBit/s
Quality : High
Add ID3 tag : No
Command line compressor : C:\Program Files\Exact Audio Copy\Flac\flac.exe
Additional command line options : -V -8 -T "artist=%a" -T "title=%t" -T "album=%g" -T "date=%y" -T "tracknumber=%n" -T "genre=%m" %s


TOC of the extracted CD

Track | Start | Length | Start sector | End sector
––––––––––––––––––––––––––––-
1 | 0:00.00 | 2:19.30 | 0 | 10454
2 | 2:19.30 | 2:27.64 | 10455 | 21543
3 | 4:47.19 | 2:33.24 | 21544 | 33042
4 | 7:20.43 | 2:49.47 | 33043 | 45764
5 | 10:10.15 | 3:02.37 | 45765 | 59451
6 | 13:12.52 | 2:57.22 | 59452 | 72748
7 | 16:09.74 | 3:08.16 | 72749 | 86864
8 | 19:18.15 | 3:10.50 | 86865 | 101164
9 | 22:28.65 | 3:09.37 | 101165 | 115376
10 | 25:38.27 | 2:52.32 | 115377 | 128308
11 | 28:30.59 | 3:03.57 | 128309 | 142090
12 | 31:34.41 | 2:43.60 | 142091 | 154375
13 | 34:18.26 | 3:01.51 | 154376 | 168001
14 | 37:20.02 | 3:04.06 | 168002 | 181807
15 | 40:24.08 | 2:52.12 | 181808 | 194719
16 | 43:16.20 | 3:01.66 | 194720 | 208360
17 | 46:18.11 | 3:17.63 | 208361 | 223198
18 | 49:35.74 | 2:54.67 | 223199 | 236315
19 | 52:30.66 | 3:00.34 | 236316 | 249849
20 | 55:31.25 | 3:06.52 | 249850 | 263851
21 | 58:38.02 | 3:03.20 | 263852 | 277596
22 | 61:41.22 | 2:50.52 | 277597 | 290398
23 | 64:31.74 | 2:56.27 | 290399 | 303625
24 | 67:28.26 | 3:04.31 | 303626 | 317456
25 | 70:32.57 | 2:56.51 | 317457 | 330707


Track 1

Filename D:\music\Musicgate's rips\Kid Ory, Bix Beiderbecke - Jazz Lips (2CD) - {The Cradle Of Jazz. History}\CD2\01 - Fidgety Feet.wav

Pre-gap length 0:00:02.00

Peak level 49.9 %
Track quality 100.0 %
Test CRC FBE3CB69
Copy CRC FBE3CB69
Track not present in AccurateRip database
Copy OK

Track 2

Filename D:\music\Musicgate's rips\Kid Ory, Bix Beiderbecke - Jazz Lips (2CD) - {The Cradle Of Jazz. History}\CD2\02 - Copenhagen.wav

Pre-gap length 0:00:01.60

Peak level 46.8 %
Track quality 100.0 %
Test CRC 751124F0
Copy CRC 751124F0
Track not present in AccurateRip database
Copy OK

Track 3

Filename D:\music\Musicgate's rips\Kid Ory, Bix Beiderbecke - Jazz Lips (2CD) - {The Cradle Of Jazz. History}\CD2\03 - Tiger Rag.wav

Pre-gap length 0:00:01.60

Peak level 47.4 %
Track quality 100.0 %
Test CRC BCD02150
Copy CRC BCD02150
Track not present in AccurateRip database
Copy OK

Track 4

Filename D:\music\Musicgate's rips\Kid Ory, Bix Beiderbecke - Jazz Lips (2CD) - {The Cradle Of Jazz. History}\CD2\04 - Davenport Blues.wav

Pre-gap length 0:00:01.60

Peak level 46.7 %
Track quality 100.0 %
Test CRC 4BEC31D8
Copy CRC 4BEC31D8
Track not present in AccurateRip database
Copy OK

Track 5

Filename D:\music\Musicgate's rips\Kid Ory, Bix Beiderbecke - Jazz Lips (2CD) - {The Cradle Of Jazz. History}\CD2\05 - Trumbology.wav

Pre-gap length 0:00:01.60

Peak level 46.4 %
Track quality 100.0 %
Test CRC FB218908
Copy CRC FB218908
Track not present in AccurateRip database
Copy OK

Track 6

Filename D:\music\Musicgate's rips\Kid Ory, Bix Beiderbecke - Jazz Lips (2CD) - {The Cradle Of Jazz. History}\CD2\06 - Singin' the Blues.wav

Pre-gap length 0:00:01.60

Peak level 44.8 %
Track quality 99.9 %
Test CRC 2FF5CDA0
Copy CRC 2FF5CDA0
Track not present in AccurateRip database
Copy OK

Track 7

Filename D:\music\Musicgate's rips\Kid Ory, Bix Beiderbecke - Jazz Lips (2CD) - {The Cradle Of Jazz. History}\CD2\07 - Ostric Walk.wav

Pre-gap length 0:00:01.60

Peak level 47.9 %
Track quality 100.0 %
Test CRC E0B3DE74
Copy CRC E0B3DE74
Track not present in AccurateRip database
Copy OK

Track 8

Filename D:\music\Musicgate's rips\Kid Ory, Bix Beiderbecke - Jazz Lips (2CD) - {The Cradle Of Jazz. History}\CD2\08 - Riverboat Shuffle.wav

Pre-gap length 0:00:01.60

Peak level 51.9 %
Track quality 100.0 %
Test CRC 7074072F
Copy CRC 7074072F
Track not present in AccurateRip database
Copy OK

Track 9

Filename D:\music\Musicgate's rips\Kid Ory, Bix Beiderbecke - Jazz Lips (2CD) - {The Cradle Of Jazz. History}\CD2\09 - I'm Comin' Virginia.wav

Pre-gap length 0:00:01.60

Peak level 44.7 %
Track quality 100.0 %
Test CRC 4BF35404
Copy CRC 4BF35404
Track not present in AccurateRip database
Copy OK

Track 10

Filename D:\music\Musicgate's rips\Kid Ory, Bix Beiderbecke - Jazz Lips (2CD) - {The Cradle Of Jazz. History}\CD2\10 - Way Down Yonder in New Orleans.wav

Pre-gap length 0:00:01.60

Peak level 53.5 %
Track quality 100.0 %
Test CRC 6EC1D700
Copy CRC 6EC1D700
Track not present in AccurateRip database
Copy OK

Track 11

Filename D:\music\Musicgate's rips\Kid Ory, Bix Beiderbecke - Jazz Lips (2CD) - {The Cradle Of Jazz. History}\CD2\11 - For No Reason at All in 'C'.wav

Pre-gap length 0:00:01.60

Peak level 46.2 %
Track quality 100.0 %
Test CRC 19E9A539
Copy CRC 19E9A539
Track not present in AccurateRip database
Copy OK

Track 12

Filename D:\music\Musicgate's rips\Kid Ory, Bix Beiderbecke - Jazz Lips (2CD) - {The Cradle Of Jazz. History}\CD2\12 - In a Mist (Bixology).wav

Pre-gap length 0:00:01.60

Peak level 55.2 %
Track quality 100.0 %
Test CRC 4AAB37C3
Copy CRC 4AAB37C3
Track not present in AccurateRip database
Copy OK

Track 13

Filename D:\music\Musicgate's rips\Kid Ory, Bix Beiderbecke - Jazz Lips (2CD) - {The Cradle Of Jazz. History}\CD2\13 - Clementine (From New Orleans).wav

Pre-gap length 0:00:01.60

Peak level 56.2 %
Track quality 100.0 %
Test CRC 006B24E8
Copy CRC 006B24E8
Track not present in AccurateRip database
Copy OK

Track 14

Filename D:\music\Musicgate's rips\Kid Ory, Bix Beiderbecke - Jazz Lips (2CD) - {The Cradle Of Jazz. History}\CD2\14 - Jazz Me Blues.wav

Pre-gap length 0:00:01.60

Peak level 52.6 %
Track quality 100.0 %
Test CRC 0D0315D9
Copy CRC 0D0315D9
Track not present in AccurateRip database
Copy OK

Track 15

Filename D:\music\Musicgate's rips\Kid Ory, Bix Beiderbecke - Jazz Lips (2CD) - {The Cradle Of Jazz. History}\CD2\15 - At the Jazz Band Ball.wav

Pre-gap length 0:00:01.60

Peak level 50.8 %
Track quality 100.0 %
Test CRC 15C2B9EF
Copy CRC 15C2B9EF
Track not present in AccurateRip database
Copy OK

Track 16

Filename D:\music\Musicgate's rips\Kid Ory, Bix Beiderbecke - Jazz Lips (2CD) - {The Cradle Of Jazz. History}\CD2\16 - Royal Garden Blues.wav

Pre-gap length 0:00:01.60

Peak level 50.1 %
Track quality 100.0 %
Test CRC 719021A7
Copy CRC 719021A7
Track not present in AccurateRip database
Copy OK

Track 17

Filename D:\music\Musicgate's rips\Kid Ory, Bix Beiderbecke - Jazz Lips (2CD) - {The Cradle Of Jazz. History}\CD2\17 - Goose Pimples.wav

Pre-gap length 0:00:01.60

Peak level 48.6 %
Track quality 100.0 %
Test CRC FDD38B18
Copy CRC FDD38B18
Track not present in AccurateRip database
Copy OK

Track 18

Filename D:\music\Musicgate's rips\Kid Ory, Bix Beiderbecke - Jazz Lips (2CD) - {The Cradle Of Jazz. History}\CD2\18 - Sorry.wav

Pre-gap length 0:00:01.60

Peak level 50.3 %
Track quality 100.0 %
Test CRC 06145BE1
Copy CRC 06145BE1
Track not present in AccurateRip database
Copy OK

Track 19

Filename D:\music\Musicgate's rips\Kid Ory, Bix Beiderbecke - Jazz Lips (2CD) - {The Cradle Of Jazz. History}\CD2\19 - Thou Swell.wav

Pre-gap length 0:00:01.60

Peak level 52.7 %
Track quality 100.0 %
Test CRC 0F6C9779
Copy CRC 0F6C9779
Track not present in AccurateRip database
Copy OK

Track 20

Filename D:\music\Musicgate's rips\Kid Ory, Bix Beiderbecke - Jazz Lips (2CD) - {The Cradle Of Jazz. History}\CD2\20 - Ol' Man River.wav

Pre-gap length 0:00:01.60

Peak level 51.4 %
Track quality 100.0 %
Test CRC 3F549255
Copy CRC 3F549255
Track not present in AccurateRip database
Copy OK

Track 21

Filename D:\music\Musicgate's rips\Kid Ory, Bix Beiderbecke - Jazz Lips (2CD) - {The Cradle Of Jazz. History}\CD2\21 - Wa-Da-Da (Ev'rybody's Doin' It Now).wav

Pre-gap length 0:00:01.60

Peak level 54.0 %
Track quality 99.9 %
Test CRC 58EC18B2
Copy CRC 58EC18B2
Track not present in AccurateRip database
Copy OK

Track 22

Filename D:\music\Musicgate's rips\Kid Ory, Bix Beiderbecke - Jazz Lips (2CD) - {The Cradle Of Jazz. History}\CD2\22 - Lousiana.wav

Pre-gap length 0:00:01.60

Peak level 56.6 %
Track quality 99.9 %
Test CRC C95F1199
Copy CRC C95F1199
Track not present in AccurateRip database
Copy OK

Track 23

Filename D:\music\Musicgate's rips\Kid Ory, Bix Beiderbecke - Jazz Lips (2CD) - {The Cradle Of Jazz. History}\CD2\23 - Margie.wav

Pre-gap length 0:00:01.60

Peak level 59.4 %
Track quality 100.0 %
Test CRC DD115DDD
Copy CRC DD115DDD
Track not present in AccurateRip database
Copy OK

Track 24

Filename D:\music\Musicgate's rips\Kid Ory, Bix Beiderbecke - Jazz Lips (2CD) - {The Cradle Of Jazz. History}\CD2\24 - I'll Be a Friend With Pleasure.wav

Pre-gap length 0:00:01.60

Peak level 57.4 %
Track quality 100.0 %
Test CRC 2F97AF6A
Copy CRC 2F97AF6A
Track not present in AccurateRip database
Copy OK

Track 25

Filename D:\music\Musicgate's rips\Kid Ory, Bix Beiderbecke - Jazz Lips (2CD) - {The Cradle Of Jazz. History}\CD2\25 - Bessie Couldn't Help It.wav

Pre-gap length 0:00:01.60

Peak level 51.2 %
Track quality 99.9 %
Test CRC 10868BF2
Copy CRC 10868BF2
Track not present in AccurateRip database
Copy OK


None of the tracks are present in the AccurateRip database

No errors occurred

End of status report

foobar2000 1.3.6 / Dynamic Range Meter 1.1.1
log date: 2017-07-19 10:22:29

––––––––––––––––––––––––––––––––––––––––
Analyzed: Kid Ory, Bix Beiderbecke / Jazz Lips (2 of 2)
––––––––––––––––––––––––––––––––––––––––

DR Peak RMS Duration Track
––––––––––––––––––––––––––––––––––––––––
DR10 -6.03 dB -17.66 dB 2:19 01-Fidgety Feet
DR11 -6.58 dB -19.28 dB 2:28 02-Copenhagen
DR10 -6.48 dB -17.90 dB 2:33 03-Tiger Rag
DR11 -6.61 dB -19.24 dB 2:50 04-Davenport Blues
DR10 -6.66 dB -18.87 dB 3:02 05-Trumbology
DR12 -6.97 dB -21.44 dB 2:57 06-Singin' the Blues
DR12 -6.38 dB -20.40 dB 3:08 07-Ostric Walk
DR12 -5.69 dB -21.15 dB 3:11 08-Riverboat Shuffle
DR10 -6.99 dB -19.39 dB 3:09 09-I'm Comin' Virginia
DR12 -5.42 dB -20.41 dB 2:52 10-Way Down Yonder in New Orleans
DR10 -6.70 dB -18.90 dB 3:04 11-For No Reason at All in 'C'
DR13 -5.15 dB -19.88 dB 2:44 12-In a Mist (Bixology)
DR13 -5.00 dB -19.97 dB 3:02 13-Clementine (From New Orleans)
DR12 -5.57 dB -20.19 dB 3:04 14-Jazz Me Blues
DR11 -5.87 dB -19.33 dB 2:52 15-At the Jazz Band Ball
DR11 -5.99 dB -18.90 dB 3:02 16-Royal Garden Blues
DR12 -6.26 dB -19.67 dB 3:18 17-Goose Pimples
DR11 -5.96 dB -18.84 dB 2:55 18-Sorry
DR12 -5.56 dB -18.91 dB 3:00 19-Thou Swell
DR11 -5.77 dB -18.75 dB 3:07 20-Ol' Man River
DR11 -5.34 dB -19.13 dB 3:03 21-Wa-Da-Da (Ev'rybody's Doin' It Now)
DR11 -4.93 dB -19.43 dB 2:51 22-Lousiana
DR11 -4.52 dB -18.80 dB 2:56 23-Margie
DR12 -4.82 dB -20.49 dB 3:04 24-I'll Be a Friend With Pleasure
DR13 -5.81 dB -20.66 dB 2:57 25-Bessie Couldn't Help It
––––––––––––––––––––––––––––––––––––––––

Number of tracks: 25
Official DR value: DR11

Samplerate: 44100 Hz
Channels: 2
Bits per sample: 16
Bitrate: 477 kbps
Codec: FLAC
================================================================================

Thanks to the original releaser Muscgate