Subcategories

Kora Jazz Band - Kora Jazz Band and Guests (2011)

Posted By: Domestos
Kora Jazz Band - Kora Jazz Band and Guests (2011)

Kora Jazz Band - Kora Jazz Band and Guests (2011)
EAC Rip | FLAC (tracks+.cue, log) ~ 307.13 Mb | 52:04 | Covers
African Jazz, World Fusion | Label: Celluloid - 006621

Since they started out, eight years ago, the Kora Jazz Trio have toured all over the world and released three remarkable recordings. Today, the pianist Abdoulaye Diabate´ continues to pioneer the astonishing dialogue he initiated involving two solo instruments emblematic of radically different musical cultures - the Western piano and the African kora. He has brought new band members to the fore, all the better to develop and explore new musical pastures. The Kora Jazz Band is therefore a new generation Kora Jazz Trio - a formation that brings us new sonic textures, new breathing space and greater scope.

The heart of this ensemble is built around Abdoulaye Diabate´ on the piano, Soriba Kouyate´ on the kora (who made his name as a sideman playing with Paolo Fresu, Ray Lema and Salif Keita - replacing Djeli Moussa Diawara currently involved in other personal projects) and Moussa Sissokho on the percussions - a man who has managed to make his name as one of the most prominent percussionists of his generation. Three musicians bring their unexpected contribution to different tracks: Andy Narell on the steel pan, Omar Marquez on the timbales and Manu Dibango on the marimba (yes that's right, your eyes are not deceiving you ; this will be a revelation for many).

We are very far from money grabbing "crossover" attempts or "post-modern electro remixes" of world music designed for lounge bars. For our greatest pleasure, swing, melody and harmony are very much alive, free in spirit, united in substance, joining forces on a new horizon. Future Kora Jazz Band concerts will be generous and celebratory events - something not to be missed.

As with previous recordings by the Kora Jazz Trio, this album features original compositions penned by Abdoulaye Diabate´ and standards shaded in with new tints such as All blues, a major track on Miles Davis' seminal Kind of blue and the indestructible and fiery cha-cha-cha of Tito Puente's Oye Como va, better known as an international pop hit by Carlos Santana. Each of Abdoulaye Diabate´'s creations aims to embody the faithful and sincere transposition of an emotion, a story or a particular feeling. There is a central theme here - transmission and sharing knowledge with your audience. We are still gathered together under the old "talking tree" (arbre a` palabres). And what could be more eloquent than jazz?
The joy and the pleasure of playing together that lit up this recording were unfortunately brutally foreshadowed by the sudden passing away Soriba Kouyate´ merely a week after recording was finalised. This album is specially dedicated to him.

Yakhouba Sissokho joined the Band in january 2011 to play the Kora. His experience with jazz musicians such as Erik Truffaz or Jean Philippe Rykiel, his touring and recording experience with Dee Dee Bridgewater (alongside with Moussa Sissokho), and his knowledge of African Tradition through his recordings with Lansine Kouyate allowed him to fit in easily.

Track List:
01. All Blues (5:01)
02. Kuma (6:40)
03. Banekh (5:28)
04. Madiba (7:00)
05. Oye Como Va (4:44)
06. Ewagne (4:07)
07. Catarina (6:31)
08. Mandjou (3:43)
09. Soukou-Papaye (3:59)
10. Spain (4:51)

Abdoulaye Diabate - piano
Soriba Kouyate - kora
Moussa Sissokho - percussion
Manu Dibango - marimba
Andy Narell - steelpan
Omar Marquez, Cyrille Maillard (#10) - timbales

Kora Jazz Band - Kora Jazz Band and Guests (2011)

Exact Audio Copy V1.3 from 2. September 2016

EAC extraction logfile from 26. April 2018, 19:07

Kora Jazz Trio / Kora Jazz Band

Used drive : TSSTcorpCDDVDW SH-224DB Adapter: 1 ID: 0

Read mode : Secure
Utilize accurate stream : Yes
Defeat audio cache : Yes
Make use of C2 pointers : No

Read offset correction : 6
Overread into Lead-In and Lead-Out : No
Fill up missing offset samples with silence : Yes
Delete leading and trailing silent blocks : No
Null samples used in CRC calculations : Yes
Used interface : Native Win32 interface for Win NT & 2000
Gap handling : Appended to previous track

Used output format : User Defined Encoder
Selected bitrate : 1024 kBit/s
Quality : High
Add ID3 tag : No
Command line compressor : C:\Program Files (x86)\Exact Audio Copy\Flac\flac.exe
Additional command line options : -8 -e -p -V -T "ARTIST=%artist%" -T "TITLE=%title%" -T "ALBUM=%albumtitle%" -T "DATE=%year%" -T "TRACKNUMBER=%tracknr%" -T "GENRE=%genre%" -T "PERFORMER=%albuminterpret%" -T "COMPOSER=%composer%" %haslyrics%–tag-from-file=LYRICS="%lyricsfile%"%haslyrics% -T "ALBUMARTIST=%albumartist%" -T "DISCNUMBER=%cdnumber%" -T "TOTALDISCS=%totalcds%" -T "TOTALTRACKS=%numtracks%" -T "COMMENT=%comment%" %source% -o %dest%


TOC of the extracted CD

Track | Start | Length | Start sector | End sector
––––––––––––––––––––––––––––-
1 | 0:00.00 | 5:01.34 | 0 | 22608
2 | 5:01.34 | 6:40.07 | 22609 | 52615
3 | 11:41.41 | 5:27.47 | 52616 | 77187
4 | 17:09.13 | 6:59.64 | 77188 | 108676
5 | 24:09.02 | 4:43.51 | 108677 | 129952
6 | 28:52.53 | 4:06.41 | 129953 | 148443
7 | 32:59.19 | 6:31.01 | 148444 | 177769
8 | 39:30.20 | 3:42.55 | 177770 | 194474
9 | 43:13.00 | 3:58.62 | 194475 | 212386
10 | 47:11.62 | 4:51.15 | 212387 | 234226


Track 1

Filename C:\EAC Rips\Kora Jazz Trio - Kora Jazz Band (2011) {Celluloid 006621} [FLAC]\01 - All Blues.wav

Pre-gap length 0:00:02.00

Peak level 100.0 %
Extraction speed 1.6 X
Track quality 99.9 %
Test CRC 5518201C
Copy CRC 5518201C
Accurately ripped (confidence 9) [AA2CF488] (AR v2)
Copy OK

Track 2

Filename C:\EAC Rips\Kora Jazz Trio - Kora Jazz Band (2011) {Celluloid 006621} [FLAC]\02 - Kuma.wav

Pre-gap length 0:00:01.10

Peak level 100.0 %
Extraction speed 2.1 X
Track quality 100.0 %
Test CRC E64A0E4C
Copy CRC E64A0E4C
Accurately ripped (confidence 9) [F9DF9C39] (AR v2)
Copy OK

Track 3

Filename C:\EAC Rips\Kora Jazz Trio - Kora Jazz Band (2011) {Celluloid 006621} [FLAC]\03 - Banekh.wav

Peak level 100.0 %
Extraction speed 2.3 X
Track quality 100.0 %
Test CRC E3CEDF24
Copy CRC E3CEDF24
Accurately ripped (confidence 9) [FA88B334] (AR v2)
Copy OK

Track 4

Filename C:\EAC Rips\Kora Jazz Trio - Kora Jazz Band (2011) {Celluloid 006621} [FLAC]\04 - Madiba.wav

Pre-gap length 0:00:00.34

Peak level 100.0 %
Extraction speed 2.6 X
Track quality 100.0 %
Test CRC E0499B8E
Copy CRC E0499B8E
Accurately ripped (confidence 9) [04A4A9A1] (AR v2)
Copy OK

Track 5

Filename C:\EAC Rips\Kora Jazz Trio - Kora Jazz Band (2011) {Celluloid 006621} [FLAC]\05 - Oyé Como Va.wav

Pre-gap length 0:00:00.26

Peak level 100.0 %
Extraction speed 2.7 X
Track quality 100.0 %
Test CRC 16DE389C
Copy CRC 16DE389C
Accurately ripped (confidence 9) [1919849D] (AR v2)
Copy OK

Track 6

Filename C:\EAC Rips\Kora Jazz Trio - Kora Jazz Band (2011) {Celluloid 006621} [FLAC]\06 - Ewagne.wav

Peak level 100.0 %
Extraction speed 2.8 X
Track quality 100.0 %
Test CRC 28214F6A
Copy CRC 28214F6A
Accurately ripped (confidence 9) [F68724F0] (AR v2)
Copy OK

Track 7

Filename C:\EAC Rips\Kora Jazz Trio - Kora Jazz Band (2011) {Celluloid 006621} [FLAC]\07 - Catarina.wav

Pre-gap length 0:00:01.41

Peak level 100.0 %
Extraction speed 3.1 X
Track quality 100.0 %
Test CRC F3EF3AD1
Copy CRC F3EF3AD1
Accurately ripped (confidence 9) [C0FE675C] (AR v2)
Copy OK

Track 8

Filename C:\EAC Rips\Kora Jazz Trio - Kora Jazz Band (2011) {Celluloid 006621} [FLAC]\08 - Mandjou.wav

Peak level 100.0 %
Extraction speed 2.4 X
Track quality 99.9 %
Test CRC 86DC4318
Copy CRC 86DC4318
Accurately ripped (confidence 9) [DA02109C] (AR v2)
Copy OK

Track 9

Filename C:\EAC Rips\Kora Jazz Trio - Kora Jazz Band (2011) {Celluloid 006621} [FLAC]\09 - Soukou-Papaye.wav

Pre-gap length 0:00:00.93

Peak level 100.0 %
Extraction speed 3.2 X
Track quality 100.0 %
Test CRC 5B7D3BF2
Copy CRC 5B7D3BF2
Accurately ripped (confidence 9) [D1FDEEEC] (AR v2)
Copy OK

Track 10

Filename C:\EAC Rips\Kora Jazz Trio - Kora Jazz Band (2011) {Celluloid 006621} [FLAC]\10 - Spain.wav

Pre-gap length 0:00:01.16

Peak level 100.0 %
Extraction speed 2.7 X
Track quality 99.9 %
Test CRC 3228135C
Copy CRC 3228135C
Accurately ripped (confidence 9) [A56DD032] (AR v2)
Copy OK


All tracks accurately ripped

No errors occurred

End of status report

–– CUETools DB Plugin V2.1.6

[CTDB TOCID: xx96NM7U0ga0Mi_e7zrzth1Cgls-] found
Submit result: already submitted
Track | CTDB Status
1 | (18/19) Accurately ripped
2 | (18/19) Accurately ripped
3 | (18/19) Accurately ripped
4 | (18/19) Accurately ripped
5 | (18/19) Accurately ripped
6 | (18/19) Accurately ripped
7 | (18/19) Accurately ripped
8 | (18/19) Accurately ripped
9 | (18/19) Accurately ripped
10 | (18/19) Accurately ripped


==== Log checksum 0E9962685E6BA7FFE4911EF1719E7B87EDBBE1350810CCD26B11525300A50370 ====

All thanks go to the gein

More Music in My Blog
Follow My RSS Channel