Subcategories

Lili Kraus, Aline Van Barentzen, Rudolf Serkin & Wilhelm Backhaus - Beethoven: Sonates pour piano (2020)

Posted By: delpotro
Lili Kraus, Aline Van Barentzen, Rudolf Serkin & Wilhelm Backhaus - Beethoven: Sonates pour piano (2020)

Lili Kraus, Aline Van Barentzen, Rudolf Serkin & Wilhelm Backhaus - Beethoven: Sonates pour piano - Waldstein, Pathétique, Clair de lune, Pastorale (2020)
EAC Rip | FLAC (tracks+log+.cue) - 294 Mb | MP3 CBR 320 kbps - 186 Mb | Covers included | 01:15:22
Classical | Label: Les indispensables de Diapason

Deux femmes et deux hommes : la parité est respectée pour ces quatre sonates à titre de Beethoven.

Tous les éditeurs vous le diront : rien de tel qu'un bon titre pour s'assurer une place dans le cœur des mélomanes. Les sonates pour piano de Beethoven n'échappent pas à la règle, que leur surnom ait été adoubé par le maître (« Pathétique ») ou accolé après sa mort (« Clair de lune » est dû au poète Rellstab). Voici donc quatre sonates « à titre » parmi les plus populaires du maître de Bonn, sorties de sa plume en cinq années à peine autour de 1800, et où quatre artistes, deux femmes et deux hommes, se partagent l'affiche, l'occasion au passage de tordre le cou à l'idée reçue qui voudrait que la musique « virile » de Beethoven soit avant tout une affaire de ­testostérone.

Le jour se lève avec la « Wald­stein », autrefois surnommée « L'Aurore », dans la version qu'en donnait Lili Kraus en 1953 pour Ducretet-Thomson. Immense mozartienne (elle entamerait son intégrale des sonates et trios pour les Discophiles français l'année suivante), la pianiste se garde bien de marteler brutalement les accords répétés du début de l'Allegro et nous réserve des surprises à chaque instant. L'invention règne en maître et l'artisanat de Beethoven en son laboratoire n'est ni laborieux, ni furieux, mais bien joyeux. Quant au finale, son appui sur les doubles-croches dans le grave lui donne un élan irrépressible, jusqu'à l'explosion d'une coda aux allures de grande fête ­populaire.

Déjà héros, au sein de nos Indispensables (no 31), d'une percutante « Appassionata », Rudolf Serkin est comme toujours chez lui en terres beethovéniennes. Dans son premier enregistrement de l'œuvre (1945), il se joue du piège sentimentaliste que lui tend la « Pathétique » et nous livre une version poignante, avec une clarté dans l'articulation qui en rend les arêtes plus saillantes. On est loin, dans le finale, du vernis convenable dont la partition est trop souvent affublée.


Plus connue pour ses enregistrements du cycle des Prole do bebê de Villa-Lobos ou pour la première discographique des Nuits dans les jardins d'Espagne de Falla, Aline Van Barentzen nous livre quant à elle une version encore tout sauf propre sur elle de la « Clair de lune ». Réalisée en 1960, elle reçoit enfin ici son premier report en CD. Les deux abîmes dont parlait Liszt pour les mouvements extrêmes sont d'une noirceur sans égale. Son finale, d'une violence désespérée, vous poursuivra longtemps.

A l'ombre de la Symphonie no 6, l'autre « Pastorale », la Sonate no 15 était l'une des préférées de Beethoven (il jouait souvent l'Andante pour lui-même). Au soir d'une existence au service du compositeur, Wilhelm Backhaus offre, dans son intégrale des sonates en stéréo réalisée à partir de 1958, une leçon de style avec un piano qui chante, respire, rebondit, nous touche et nous élève.
Tracklist:
01. Lili Kraus - Sonate pour piano No.21 op.53 ''Waldstein''- I. Allegro con brio
02. Lili Kraus - Sonate pour piano No.21 op.53 ''Waldstein''- II. Introduzione- Adagio molto
03. Lili Kraus - Sonate pour piano No.21 op.53 ''Waldstein''- III. Rondo- Allegro moderato - Prestissimo
04. Rudolf Serkin - Sonate pour piano No.8 op.13 ''Pathetique''- I. Grave, Allegro di molto e con brio
05. Rudolf Serkin - Sonate pour piano No.8 op.13 ''Pathetique''- II. Adagio cantabile
06. Rudolf Serkin - Sonate pour piano No.8 op.13 ''Pathetique''- III. Rondo- Allegro
07. Aline van Barentzen - Sonate pour piano No.14 op.27,2 ''Clair de lune''- I. Adagio sostenuto
08. Aline van Barentzen - Sonate pour piano No.14 op.27,2 ''Clair de lune''- II. Allegretto - Trio
09. Aline van Barentzen - Sonate pour piano No.14 op.27,2 ''Clair de lune''- III. Presto agitato
10. Wilhelm Backhaus - Sonate pour piano No.15 op.28 ''Pastorale''- I. Allegro
11. Wilhelm Backhaus - Sonate pour piano No.15 op.28 ''Pastorale''- II. Andante
12. Wilhelm Backhaus - Sonate pour piano No.15 op.28 ''Pastorale''- III. Scherzo- allegro vivace
13. Wilhelm Backhaus - Sonate pour piano No.15 op.28 ''Pastorale''- IV. Rondo- allegro ma non troppo

Exact Audio Copy V1.3 from 2. September 2016

EAC extraction logfile from 28. October 2020, 16:46

Various Artists / Beethoven Sonates pour piano - Indispensables Diapason no 129

Used drive : SlimtypeeBAU108 6 L Adapter: 1 ID: 1

Read mode : Secure
Utilize accurate stream : Yes
Defeat audio cache : Yes
Make use of C2 pointers : No

Read offset correction : 6
Overread into Lead-In and Lead-Out : No
Fill up missing offset samples with silence : Yes
Delete leading and trailing silent blocks : No
Null samples used in CRC calculations : Yes
Used interface : Native Win32 interface for Win NT & 2000
Gap handling : Appended to previous track

Used output format : User Defined Encoder
Selected bitrate : 896 kBit/s
Quality : High
Add ID3 tag : No
Command line compressor : C:\Program Files (x86)\Exact Audio Copy\FLAC\FLAC.EXE
Additional command line options : -6 -V -T "COMPOSER=%composer%" -T "TITLE=%title%" -T "ARTIST=%artist%" -T "ALBUM=%albumtitle%" -T "DATE=%year%" -T "TRACKNUMBER=%tracknr%" -T "GENRE=%genre%" -T "BAND=%albuminterpret%" -T "ALBUMARTIST=%albuminterpret%" -T "DISCNUMBER=%cdnumber%" -T "TOTALDISCS=%totalcds%" -T "TOTALTRACKS=%numtracks%" %source% -o %dest%


TOC of the extracted CD

Track | Start | Length | Start sector | End sector
––––––––––––––––––––––––––––-
1 | 0:00.00 | 10:39.10 | 0 | 47934
2 | 10:39.10 | 3:44.03 | 47935 | 64737
3 | 14:23.13 | 9:17.42 | 64738 | 106554
4 | 23:40.55 | 8:49.73 | 106555 | 146302
5 | 32:30.53 | 5:33.65 | 146303 | 171342
6 | 38:04.43 | 4:10.17 | 171343 | 190109
7 | 42:14.60 | 6:12.18 | 190110 | 218027
8 | 48:27.03 | 2:02.67 | 218028 | 227244
9 | 50:29.70 | 5:30.56 | 227245 | 252050
10 | 56:00.51 | 6:44.51 | 252051 | 282401
11 | 62:45.27 | 6:27.51 | 282402 | 311477
12 | 69:13.03 | 1:55.06 | 311478 | 320108
13 | 71:08.09 | 4:14.60 | 320109 | 339218


Track 1

Filename Y:\_orp\DIAP129\01. Sonate pour piano No.21 op.53 ''Waldstein''- I. Allegro con brio.wav

Pre-gap length 0:00:02.00

Peak level 96.8 %
Extraction speed 3.3 X
Track quality 100.0 %
Test CRC 0D0EADF0
Copy CRC 0D0EADF0
Copy OK

Track 2

Filename Y:\_orp\DIAP129\02. Sonate pour piano No.21 op.53 ''Waldstein''- II. Introduzione- Adagio molto.wav

Peak level 83.4 %
Extraction speed 3.4 X
Track quality 100.0 %
Test CRC 86A3A0FF
Copy CRC 86A3A0FF
Copy OK

Track 3

Filename Y:\_orp\DIAP129\03. Sonate pour piano No.21 op.53 ''Waldstein''- III. Rondo- Allegro moderato - Prestissimo.wav

Peak level 95.4 %
Extraction speed 4.1 X
Track quality 100.0 %
Test CRC 923EDCC9
Copy CRC 923EDCC9
Copy OK

Track 4

Filename Y:\_orp\DIAP129\04. Sonate pour piano No.8 op.13 ''Pathetique''- I. Grave, Allegro di molto e con brio.wav

Peak level 93.0 %
Extraction speed 4.5 X
Track quality 100.0 %
Test CRC 091AF266
Copy CRC 091AF266
Copy OK

Track 5

Filename Y:\_orp\DIAP129\05. Sonate pour piano No.8 op.13 ''Pathetique''- II. Adagio cantabile.wav

Peak level 92.7 %
Extraction speed 4.7 X
Track quality 100.0 %
Test CRC 6DCE0BDB
Copy CRC 6DCE0BDB
Copy OK

Track 6

Filename Y:\_orp\DIAP129\06. Sonate pour piano No.8 op.13 ''Pathetique''- III. Rondo- Allegro.wav

Peak level 92.8 %
Extraction speed 4.8 X
Track quality 100.0 %
Test CRC 351EE7C3
Copy CRC 351EE7C3
Copy OK

Track 7

Filename Y:\_orp\DIAP129\07. Sonate pour piano No.14 op.27,2 ''Clair de lune''- I. Adagio sostenuto.wav

Peak level 24.6 %
Extraction speed 5.1 X
Track quality 100.0 %
Test CRC 35D37B95
Copy CRC 35D37B95
Copy OK

Track 8

Filename Y:\_orp\DIAP129\08. Sonate pour piano No.14 op.27,2 ''Clair de lune''- II. Allegretto - Trio.wav

Peak level 62.0 %
Extraction speed 4.4 X
Track quality 100.0 %
Test CRC 1AE3EC18
Copy CRC 1AE3EC18
Copy OK

Track 9

Filename Y:\_orp\DIAP129\09. Sonate pour piano No.14 op.27,2 ''Clair de lune''- III. Presto agitato.wav

Peak level 94.5 %
Extraction speed 5.2 X
Track quality 100.0 %
Test CRC 4065AAD7
Copy CRC 4065AAD7
Copy OK

Track 10

Filename Y:\_orp\DIAP129\10. Sonate pour piano No.15 op.28 ''Pastorale''- I. Allegro.wav

Peak level 77.1 %
Extraction speed 5.1 X
Track quality 99.9 %
Test CRC 8E529A6D
Copy CRC 8E529A6D
Copy OK

Track 11

Filename Y:\_orp\DIAP129\11. Sonate pour piano No.15 op.28 ''Pastorale''- II. Andante.wav

Peak level 59.8 %
Extraction speed 5.8 X
Track quality 100.0 %
Test CRC B209F721
Copy CRC B209F721
Copy OK

Track 12

Filename Y:\_orp\DIAP129\12. Sonate pour piano No.15 op.28 ''Pastorale''- III. Scherzo- allegro vivace.wav

Peak level 89.8 %
Extraction speed 4.9 X
Track quality 100.0 %
Test CRC 004BBD82
Copy CRC 004BBD82
Copy OK

Track 13

Filename Y:\_orp\DIAP129\13. Sonate pour piano No.15 op.28 ''Pastorale''- IV. Rondo- allegro ma non troppo.wav

Peak level 95.5 %
Extraction speed 5.7 X
Track quality 100.0 %
Test CRC 7E41EAD8
Copy CRC 7E41EAD8
Copy OK

No errors occurred

End of status report

–– CUETools DB Plugin V2.1.6

[CTDB TOCID: 9xyt3tDCHwHTSIimbVWRbwTX96M-] found
Submit result: 9xyt3tDCHwHTSIimbVWRbwTX96M- has been confirmed
Track | CTDB Status
1 | (1/1) Accurately ripped
2 | (1/1) Accurately ripped
3 | (1/1) Accurately ripped
4 | (1/1) Accurately ripped
5 | (1/1) Accurately ripped
6 | (1/1) Accurately ripped
7 | (1/1) Accurately ripped
8 | (1/1) Accurately ripped
9 | (1/1) Accurately ripped
10 | (1/1) Accurately ripped
11 | (1/1) Accurately ripped
12 | (1/1) Accurately ripped
13 | (1/1) Accurately ripped


==== Log checksum 767AB5399E4836CBB6E02EE237C85CC7D1A04C19696A103B3914E75C394619F4 ====


Thanks to the Original ripper !