Subcategories

VA - The Infinite Zero Almanac 1996 Volume IV (1996) {american recordings}

Posted By: TestTickles
VA - The Infinite Zero Almanac 1996 Volume IV (1996) {american recordings}

VA - The Infinite Zero Almanac 1996 Volume IV (1996) {american recordings}
EAC Rip | FLAC with CUE and log | scans | 374 mb
MP3 CBR 320kbps | RAR | 172 mb
Genre: new wave, blues, punk, jazz, spoken word, synth pop, no wave, post-punk

The Infinite Zero Almanac 1996 Volume IV is a 1996 compilation released by the Infinite Zero label, a subsidiary of american recordings founded by Rick Rubin and Henry Rollins. The compilation focuses on CD's they reissued in the mid-1990's, including music by Devo, Gang Of Four, Matthew Shipp, Tom Verlaine, and others.

VA - The Infinite Zero Almanac 1996 Volume IV (1996) {american recordings}

01. Gang Of Four - I Love A Man In A Uniform
02. Gang Of Four - On The Instant
03. James White & The Blacks - That Old Black Magic
04. James White & The Blacks - Money To Burn
05. Alan Vega - Raver
06. Alan Vega - Lonely
07. Devo - Peek-A-Boo
08. Alan Watts - Om
09. Iceberg Slim - Broadway Sam
10. Matthew Shipp - Circular Temple
11. Flipper - Love Canal
12. Mississippi Fred McDowell - 61 Highway
13. Tom Verlaine - Mr. Blur

Exact Audio Copy V1.0 beta 6 from 9. April 2015

EAC extraction logfile from 4. January 2018, 11:20

Various Artists / The Infinite Zero Almanac 1996 Volume IV

Used drive : TSSTcorpDVD+-RW TS-L633C Adapter: 1 ID: 0

Read mode : Secure
Utilize accurate stream : Yes
Defeat audio cache : Yes
Make use of C2 pointers : No

Read offset correction : 6
Overread into Lead-In and Lead-Out : No
Fill up missing offset samples with silence : Yes
Delete leading and trailing silent blocks : No
Null samples used in CRC calculations : Yes
Used interface : Native Win32 interface for Win NT & 2000
Gap handling : Appended to previous track

Used output format : Internal WAV Routines
Sample format : 44.100 Hz; 16 Bit; Stereo


TOC of the extracted CD

Track | Start | Length | Start sector | End sector
––––––––––––––––––––––––––––-
1 | 0:00.00 | 4:08.12 | 0 | 18611
2 | 4:08.12 | 5:00.23 | 18612 | 41134
3 | 9:08.35 | 6:48.57 | 41135 | 71791
4 | 15:57.17 | 6:20.58 | 71792 | 100349
5 | 22:18.00 | 2:45.62 | 100350 | 112786
6 | 25:03.62 | 2:43.53 | 112787 | 125064
7 | 27:47.40 | 3:01.20 | 125065 | 138659
8 | 30:48.60 | 2:28.60 | 138660 | 149819
9 | 33:17.45 | 3:35.20 | 149820 | 165964
10 | 36:52.65 | 6:27.57 | 165965 | 195046
11 | 43:20.47 | 3:58.20 | 195047 | 212916
12 | 47:18.67 | 5:58.35 | 212917 | 239801
13 | 53:17.27 | 3:24.30 | 239802 | 255131


Track 1

Filename C:\My Documents\My FLAC\VA - The Infinite Zero Almanac 1996 Volume IV (1996) [FLAC] {american recordings}\01 - Gang Of Four - I Love A Man In A Uniform.wav

Pre-gap length 0:00:02.00

Peak level 100.0 %
Extraction speed 1.1 X
Track quality 100.0 %
Test CRC F1EDA32E
Copy CRC F1EDA32E
Accurately ripped (confidence 3) [38B7027F] (AR v1)
Copy OK

Track 2

Filename C:\My Documents\My FLAC\VA - The Infinite Zero Almanac 1996 Volume IV (1996) [FLAC] {american recordings}\02 - Gang Of Four - On The Instant.wav

Pre-gap length 0:00:01.42

Peak level 100.0 %
Extraction speed 1.3 X
Track quality 100.0 %
Test CRC 09A2ACF7
Copy CRC 09A2ACF7
Accurately ripped (confidence 3) [46DAB515] (AR v1)
Copy OK

Track 3

Filename C:\My Documents\My FLAC\VA - The Infinite Zero Almanac 1996 Volume IV (1996) [FLAC] {american recordings}\03 - James White & The Blacks - That Old Black Magic.wav

Pre-gap length 0:00:02.27

Peak level 100.0 %
Extraction speed 1.5 X
Track quality 100.0 %
Test CRC 10FA5E60
Copy CRC 10FA5E60
Accurately ripped (confidence 3) [9C696B5F] (AR v1)
Copy OK

Track 4

Filename C:\My Documents\My FLAC\VA - The Infinite Zero Almanac 1996 Volume IV (1996) [FLAC] {american recordings}\04 - James White & The Blacks - Money To Burn.wav

Pre-gap length 0:00:01.27

Peak level 100.0 %
Extraction speed 0.6 X
Track quality 99.9 %
Test CRC D07A126D
Copy CRC D07A126D
Accurately ripped (confidence 3) [222FDC97] (AR v1)
Copy OK

Track 5

Filename C:\My Documents\My FLAC\VA - The Infinite Zero Almanac 1996 Volume IV (1996) [FLAC] {american recordings}\05 - Alan Vega - Raver.wav

Pre-gap length 0:00:01.02

Peak level 95.9 %
Extraction speed 1.6 X
Track quality 100.0 %
Test CRC 3D35438A
Copy CRC 3D35438A
Accurately ripped (confidence 3) [8C4ACA5B] (AR v1)
Copy OK

Track 6

Filename C:\My Documents\My FLAC\VA - The Infinite Zero Almanac 1996 Volume IV (1996) [FLAC] {american recordings}\06 - Alan Vega - Lonely.wav

Pre-gap length 0:00:00.39

Peak level 100.0 %
Extraction speed 1.6 X
Track quality 100.0 %
Test CRC 546A493C
Copy CRC 546A493C
Accurately ripped (confidence 3) [9948D0E5] (AR v1)
Copy OK

Track 7

Filename C:\My Documents\My FLAC\VA - The Infinite Zero Almanac 1996 Volume IV (1996) [FLAC] {american recordings}\07 - Devo - Peek-A-Boo.wav

Pre-gap length 0:00:00.52

Peak level 100.0 %
Extraction speed 1.4 X
Track quality 99.9 %
Test CRC 70270727
Copy CRC 70270727
Accurately ripped (confidence 3) [A562D940] (AR v1)
Copy OK

Track 8

Filename C:\My Documents\My FLAC\VA - The Infinite Zero Almanac 1996 Volume IV (1996) [FLAC] {american recordings}\08 - Alan Watts - Om.wav

Pre-gap length 0:00:01.02

Peak level 80.4 %
Extraction speed 1.7 X
Track quality 100.0 %
Test CRC 365E640C
Copy CRC 365E640C
Accurately ripped (confidence 3) [93FA6446] (AR v1)
Copy OK

Track 9

Filename C:\My Documents\My FLAC\VA - The Infinite Zero Almanac 1996 Volume IV (1996) [FLAC] {american recordings}\09 - Iceberg Slim - Broadway Sam.wav

Pre-gap length 0:00:02.05

Peak level 87.5 %
Extraction speed 1.8 X
Track quality 100.0 %
Test CRC B446EEA7
Copy CRC B446EEA7
Accurately ripped (confidence 3) [CE4ACDE6] (AR v1)
Copy OK

Track 10

Filename C:\My Documents\My FLAC\VA - The Infinite Zero Almanac 1996 Volume IV (1996) [FLAC] {american recordings}\10 - Matthew Shipp - Circular Temple.wav

Pre-gap length 0:00:01.55

Peak level 95.6 %
Extraction speed 1.9 X
Track quality 99.9 %
Test CRC E062801B
Copy CRC E062801B
Accurately ripped (confidence 3) [B26114AD] (AR v1)
Copy OK

Track 11

Filename C:\My Documents\My FLAC\VA - The Infinite Zero Almanac 1996 Volume IV (1996) [FLAC] {american recordings}\11 - Flipper - Love Canal.wav

Pre-gap length 0:00:02.02

Peak level 100.0 %
Extraction speed 2.0 X
Track quality 100.0 %
Test CRC C249658F
Copy CRC C249658F
Accurately ripped (confidence 3) [27B4689F] (AR v1)
Copy OK

Track 12

Filename C:\My Documents\My FLAC\VA - The Infinite Zero Almanac 1996 Volume IV (1996) [FLAC] {american recordings}\12 - Mississippi Fred McDowell - 61 Highway.wav

Pre-gap length 0:00:01.12

Peak level 98.5 %
Extraction speed 2.2 X
Track quality 100.0 %
Test CRC 38A110EE
Copy CRC 38A110EE
Accurately ripped (confidence 3) [A7612482] (AR v1)
Copy OK

Track 13

Filename C:\My Documents\My FLAC\VA - The Infinite Zero Almanac 1996 Volume IV (1996) [FLAC] {american recordings}\13 - Tom Verlaine - Mr. Blur.wav

Pre-gap length 0:00:00.39

Peak level 100.0 %
Extraction speed 2.1 X
Track quality 100.0 %
Test CRC 8178C514
Copy CRC 8178C514
Accurately ripped (confidence 3) [0C5C8EB0] (AR v1)
Copy OK


All tracks accurately ripped

No errors occurred

End of status report

–– CUETools DB Plugin V2.1.6

[CTDB TOCID: BHHvZPhEh6wbfKlWKnJp5L8MR3g-] found
Submit result: BHHvZPhEh6wbfKlWKnJp5L8MR3g- has been confirmed
Track | CTDB Status
1 | (1/1) Accurately ripped
2 | (1/1) Accurately ripped
3 | (1/1) Accurately ripped
4 | (1/1) Accurately ripped
5 | (1/1) Accurately ripped
6 | (1/1) Accurately ripped
7 | (1/1) Accurately ripped
8 | (1/1) Accurately ripped
9 | (1/1) Accurately ripped
10 | (1/1) Accurately ripped
11 | (1/1) Accurately ripped
12 | (1/1) Accurately ripped
13 | (1/1) Accurately ripped


==== Log checksum 6D94B8DD48E2C4929F6AF62C8A501688288B67E93196384F624635B48368064D ====


VA - The Infinite Zero Almanac 1996 Volume IV (1996) {american recordings}