Tags
Language
Tags

101 Strings - The Great American Composers Volume IV (1988) {Alshire} **[RE-UP]**

Posted By: TestTickles
101 Strings - The Great American Composers Volume IV (1988) {Alshire} **[RE-UP]**

101 Strings - The Great American Composers Volume IV (1988)
EAC Rip | FLAC with CUE and log | scans | 364 mb
MP3 CBR 320kbps | RAR | 126 mb
Genre: classical, easy listening

The Great American Composers Volume IV is the 1988 CD by the 101 Strings. The composers explored on this disc include Hoagy Carmichael, Rodgers And Hammerstein, Cole Porter, Irving Berlin, Lerner And Loewe and George Gershwin. This was released on the Alshire Records label.

101 Strings - The Great American Composers Volume IV (1988) {Alshire} **[RE-UP]**

01. Embraceable You
02. A Foggy Day
03. Nancy's Song
04. I Could Have Danced All Night
05. Camelot
06. Montmarte
07. How Deep Is The Ocean
08. A Pretty Girl Is Like A Melody
09. Remember
10. I've Got You Under My Skin
11. In The Still Of The Night
12. I Love You
13. June Is Bustin' Out All Over
14. People Will Say We're In Love
15. Night Of Love (Noche Amour)
16. Two Sleepy People
17. The Nearness Of Yo
18. Girl On The Boulevard

Exact Audio Copy V1.1 from 23. June 2015

EAC extraction logfile from 18. February 2016, 14:03

101 Strings / The Best Of The Great American Composers Volume III

Used drive : TEAC DVD-ROM DV-28SW Adapter: 1 ID: 0

Read mode : Secure
Utilize accurate stream : Yes
Defeat audio cache : Yes
Make use of C2 pointers : No

Read offset correction : 6
Overread into Lead-In and Lead-Out : No
Fill up missing offset samples with silence : Yes
Delete leading and trailing silent blocks : No
Null samples used in CRC calculations : Yes
Used interface : Native Win32 interface for Win NT & 2000
Gap handling : Left out

Used output format : Internal WAV Routines
Sample format : 44.100 Hz; 16 Bit; Stereo


TOC of the extracted CD

Track | Start | Length | Start sector | End sector
––––––––––––––––––––––––––––-
1 | 0:00.33 | 2:28.02 | 33 | 11134
2 | 2:28.35 | 3:22.05 | 11135 | 26289
3 | 5:50.40 | 5:14.48 | 26290 | 49887
4 | 11:05.13 | 3:10.35 | 49888 | 64172
5 | 14:15.48 | 3:53.27 | 64173 | 81674
6 | 18:09.00 | 3:09.05 | 81675 | 95854
7 | 21:18.05 | 4:57.13 | 95855 | 118142
8 | 26:15.18 | 3:11.22 | 118143 | 132489
9 | 29:26.40 | 2:25.53 | 132490 | 143417
10 | 31:52.18 | 5:35.15 | 143418 | 168557
11 | 37:27.33 | 8:06.52 | 168558 | 205059
12 | 45:34.10 | 4:50.68 | 205060 | 226877
13 | 50:25.03 | 2:09.27 | 226878 | 236579
14 | 52:34.30 | 3:42.45 | 236580 | 253274
15 | 56:17.00 | 2:42.43 | 253275 | 265467
16 | 58:59.43 | 4:30.17 | 265468 | 285734
17 | 63:29.60 | 4:15.48 | 285735 | 304907
18 | 67:45.33 | 2:42.72 | 304908 | 317129


Track 1

Filename C:\My Documents\My FLAC\101 Strings - The Best Of The Great American Composers Volume III (1988) [FLAC] {Alshire}\01 - Bewitched, Bothered And Bewildered.wav

Pre-gap length 0:00:02.33

Peak level 100.0 %
Extraction speed 1.0 X
Track quality 100.0 %
Test CRC 9144F4F7
Copy CRC 9144F4F7
Track not fully ripped for AccurateRip lookup
Copy OK

Track 2

Filename C:\My Documents\My FLAC\101 Strings - The Best Of The Great American Composers Volume III (1988) [FLAC] {Alshire}\02 - My Funny Valentine.wav

Pre-gap length 0:00:04.27

Peak level 100.0 %
Extraction speed 1.2 X
Track quality 100.0 %
Test CRC 17E403F5
Copy CRC 17E403F5
Track not fully ripped for AccurateRip lookup
Copy OK

Track 3

Filename C:\My Documents\My FLAC\101 Strings - The Best Of The Great American Composers Volume III (1988) [FLAC] {Alshire}\03 - Curtain Time.wav

Pre-gap length 0:00:04.32

Peak level 100.0 %
Extraction speed 1.4 X
Track quality 100.0 %
Test CRC 2E8D5734
Copy CRC 2E8D5734
Track not fully ripped for AccurateRip lookup
Copy OK

Track 4

Filename C:\My Documents\My FLAC\101 Strings - The Best Of The Great American Composers Volume III (1988) [FLAC] {Alshire}\04 - Solitude.wav

Pre-gap length 0:00:04.00

Peak level 89.2 %
Extraction speed 1.4 X
Track quality 100.0 %
Test CRC 144B00FA
Copy CRC 144B00FA
Track not fully ripped for AccurateRip lookup
Copy OK

Track 5

Filename C:\My Documents\My FLAC\101 Strings - The Best Of The Great American Composers Volume III (1988) [FLAC] {Alshire}\05 - Mood Indigo.wav

Pre-gap length 0:00:04.00

Peak level 100.0 %
Extraction speed 1.5 X
Track quality 100.0 %
Test CRC 246557AF
Copy CRC 246557AF
Track not fully ripped for AccurateRip lookup
Copy OK

Track 6

Filename C:\My Documents\My FLAC\101 Strings - The Best Of The Great American Composers Volume III (1988) [FLAC] {Alshire}\06 - Sophisticated Lady.wav

Pre-gap length 0:00:04.62

Peak level 100.0 %
Extraction speed 1.6 X
Track quality 100.0 %
Test CRC 5C670B9E
Copy CRC 5C670B9E
Track not fully ripped for AccurateRip lookup
Copy OK

Track 7

Filename C:\My Documents\My FLAC\101 Strings - The Best Of The Great American Composers Volume III (1988) [FLAC] {Alshire}\07 - Golden Earrings.wav

Pre-gap length 0:00:03.55

Peak level 75.3 %
Extraction speed 1.8 X
Track quality 100.0 %
Test CRC 94790289
Copy CRC 94790289
Track not fully ripped for AccurateRip lookup
Copy OK

Track 8

Filename C:\My Documents\My FLAC\101 Strings - The Best Of The Great American Composers Volume III (1988) [FLAC] {Alshire}\08 - Around The World In 80 Days.wav

Pre-gap length 0:00:05.40

Peak level 98.8 %
Extraction speed 1.7 X
Track quality 100.0 %
Test CRC 36967BFC
Copy CRC 36967BFC
Track not fully ripped for AccurateRip lookup
Copy OK

Track 9

Filename C:\My Documents\My FLAC\101 Strings - The Best Of The Great American Composers Volume III (1988) [FLAC] {Alshire}\09 - Lakeshore Drive.wav

Pre-gap length 0:00:05.45

Peak level 96.6 %
Extraction speed 1.7 X
Track quality 100.0 %
Test CRC DA22BBBF
Copy CRC DA22BBBF
Track not fully ripped for AccurateRip lookup
Copy OK

Track 10

Filename C:\My Documents\My FLAC\101 Strings - The Best Of The Great American Composers Volume III (1988) [FLAC] {Alshire}\10 - The Painted Desert.wav

Pre-gap length 0:00:02.43

Peak level 100.0 %
Extraction speed 2.0 X
Track quality 100.0 %
Test CRC B51214FB
Copy CRC B51214FB
Track not fully ripped for AccurateRip lookup
Copy OK

Track 11

Filename C:\My Documents\My FLAC\101 Strings - The Best Of The Great American Composers Volume III (1988) [FLAC] {Alshire}\11 - Cloudburst.wav

Pre-gap length 0:00:03.70

Peak level 100.0 %
Extraction speed 2.1 X
Track quality 99.9 %
Test CRC 07158194
Copy CRC 07158194
Track not fully ripped for AccurateRip lookup
Copy OK

Track 12

Filename C:\My Documents\My FLAC\101 Strings - The Best Of The Great American Composers Volume III (1988) [FLAC] {Alshire}\12 - Sunset.wav

Pre-gap length 0:00:03.47

Peak level 84.1 %
Extraction speed 2.2 X
Track quality 100.0 %
Test CRC D2C65254
Copy CRC D2C65254
Track not fully ripped for AccurateRip lookup
Copy OK

Track 13

Filename C:\My Documents\My FLAC\101 Strings - The Best Of The Great American Composers Volume III (1988) [FLAC] {Alshire}\13 - Typewriter Song.wav

Pre-gap length 0:00:04.45

Peak level 100.0 %
Extraction speed 0.3 X
Track quality 100.0 %
Test CRC 94D2FF21
Copy CRC 94D2FF21
Track not fully ripped for AccurateRip lookup
Copy OK

Track 14

Filename C:\My Documents\My FLAC\101 Strings - The Best Of The Great American Composers Volume III (1988) [FLAC] {Alshire}\14 - Fiddle Faddle.wav

Pre-gap length 0:00:04.37

Peak level 100.0 %
Extraction speed 2.2 X
Track quality 100.0 %
Test CRC B04C08DE
Copy CRC B04C08DE
Track not fully ripped for AccurateRip lookup
Copy OK

Track 15

Filename C:\My Documents\My FLAC\101 Strings - The Best Of The Great American Composers Volume III (1988) [FLAC] {Alshire}\15 - Blues Pizzicato.wav

Pre-gap length 0:00:03.47

Peak level 96.9 %
Extraction speed 2.1 X
Track quality 100.0 %
Test CRC E828EB1C
Copy CRC E828EB1C
Track not fully ripped for AccurateRip lookup
Copy OK

Track 16

Filename C:\My Documents\My FLAC\101 Strings - The Best Of The Great American Composers Volume III (1988) [FLAC] {Alshire}\16 - Without A Song.wav

Pre-gap length 0:00:03.63

Peak level 99.1 %
Extraction speed 2.4 X
Track quality 100.0 %
Test CRC 54284B2A
Copy CRC 54284B2A
Track not fully ripped for AccurateRip lookup
Copy OK

Track 17

Filename C:\My Documents\My FLAC\101 Strings - The Best Of The Great American Composers Volume III (1988) [FLAC] {Alshire}\17 - Carioca.wav

Pre-gap length 0:00:03.27

Peak level 100.0 %
Extraction speed 2.4 X
Track quality 100.0 %
Test CRC 2E1B771B
Copy CRC 2E1B771B
Track not fully ripped for AccurateRip lookup
Copy OK

Track 18

Filename C:\My Documents\My FLAC\101 Strings - The Best Of The Great American Composers Volume III (1988) [FLAC] {Alshire}\18 - Love Is Worth Waiting For.wav

Pre-gap length 0:00:03.43

Peak level 70.9 %
Extraction speed 2.3 X
Track quality 100.0 %
Test CRC AEBAC9D5
Copy CRC AEBAC9D5
Accurately ripped (confidence 1) [6E467C59] (AR v1)
Copy OK


1 track(s) accurately ripped
17 track(s) not fully ripped for AccurateRip lookup

Some tracks could not be verified as accurate

No errors occurred

End of status report

==== Log checksum 7FFD65B2B1BA2B332FFE96E5C68DF750368E0D57989E11C419016455F0BF7406 ====


101 Strings - The Great American Composers Volume IV (1988) {Alshire} **[RE-UP]**