Tags
Language
Tags

Lamas of Nyingmapa Monastery – Tibetan Ritual (1991)

Posted By: d'Avignon
Lamas of Nyingmapa Monastery – Tibetan Ritual (1991)

Lamas of Nyingmapa Monastery – Tibetan Ritual (1991)
World/Ethnic | FLAC lossless | cuesheets+log | covers+booklet | 44m51s | 180mb
Label: Unesco/Auvidis | cat. no. D 8034


This recording presents in its entirety the “Invocation to the Goddess Yeshiki Mamo,” performed by Buddhist monks (lamas) from the Nyingmapa Monastery of Dehra Dun in India with the authorization of the private secretariat of the Dalai Lama. The monks, who represent one of the oldest Buddhist sects to be established in Tibet in the 8th century, are trained to produce vocal sounds at a very low pitch, believing the disembodied sounds to be the nearest to the divine. The liner notes provide a brief overview of the ritual to the goddess Yeshiki Mamo.

Tracks:

01. Invocation to the Goddess Yeshiki Mamo part I – 15.53
02. Invocation to the Goddess Yeshiki Mamo part II – 15.40
03. Invocation to the Goddess Yeshiki Mamo part III – 13.08

Performers:

Lamas of Nyingmapa Monastery of Dehra Dun

Exact Audio Copy V1.0 beta 3 from 29. August 2011

EAC extraction logfile from 2. June 2016, 1:19

The Lamas of the Nyingmapa Monastery / Tibetan Ritual

Used drive : TSSTcorpCDDVDW SH-216AB Adapter: 0 ID: 0

Read mode : Secure
Utilize accurate stream : Yes
Defeat audio cache : Yes
Make use of C2 pointers : No

Read offset correction : 6
Overread into Lead-In and Lead-Out : No
Fill up missing offset samples with silence : Yes
Delete leading and trailing silent blocks : No
Null samples used in CRC calculations : Yes
Used interface : Native Win32 interface for Win NT & 2000
Gap handling : Appended to previous track

Used output format : User Defined Encoder
Selected bitrate : 768 kBit/s
Quality : High
Add ID3 tag : No
Command line compressor : C:\Program Files (x86)\FLAC Frontend\tools\flac.exe
Additional command line options : -8 -V -T "ARTIST=%artist%" -T "TITLE=%title%" -T "ALBUM=%albumtitle%" -T "DATE=%year%" -T "TRACKNUMBER=%tracknr%" -T "GENRE=%genre%" -T "PERFORMER=%albuminterpret%" -T "COMPOSER=%composer%" %haslyrics%–tag-from-file=LYRICS="%lyricsfile%"%haslyrics% -T "ALBUMARTIST=%albumartist%" -T "DISCNUMBER=%cdnumber%" -T "TOTALDISCS=%totalcds%" -T "TOTALTRACKS=%numtracks%" -T "COMMENT=%comment%" %source% -o %dest%


TOC of the extracted CD

Track | Start | Length | Start sector | End sector
––––––––––––––––––––––––––––-
1 | 0:00.32 | 15:57.53 | 32 | 71859
2 | 15:58.10 | 15:44.57 | 71860 | 142716
3 | 31:42.67 | 13:08.40 | 142717 | 201856


Track 1

Filename H:\Users\astarte\03. POST\Lamas of Nyingmapa Monastery - Tibetan Ritual\01 Part I.wav

Pre-gap length 0:00:02.42

Peak level 94.9 %
Extraction speed 0.3 X
Track quality 100.0 %
Copy CRC 8F8C0895
Accurately ripped (confidence 3) [9FE363D2] (AR v2)
Copy OK

Track 2

Filename H:\Users\astarte\03. POST\Lamas of Nyingmapa Monastery - Tibetan Ritual\02 Part II.wav

Pre-gap length 0:00:04.04

Peak level 89.3 %
Extraction speed 2.9 X
Track quality 100.0 %
Copy CRC A79DF2EF
Accurately ripped (confidence 2) [EE2248C0] (AR v2)
Copy OK

Track 3

Filename H:\Users\astarte\03. POST\Lamas of Nyingmapa Monastery - Tibetan Ritual\03 Part III.wav

Pre-gap length 0:00:04.26

Peak level 87.1 %
Extraction speed 3.2 X
Track quality 99.9 %
Copy CRC 8F7F2EF2
Accurately ripped (confidence 3) [698BBAB7] (AR v2)
Copy OK


All tracks accurately ripped

No errors occurred

End of status report

==== Log checksum ECF5301D2B54008FEE41382807AD1DCAF765DB4FB055BE5D7BDE68958ECC848C ====