Tags
Language
Tags

Le Concert de la Loge, Julien Chauvin & Justin Taylor - Haydn: Symphony No. 83 "La Poule" (2017)

Posted By: delpotro
Le Concert de la Loge, Julien Chauvin & Justin Taylor - Haydn: Symphony No. 83 "La Poule" (2017)

Le Concert de la Loge, Julien Chauvin & Justin Taylor - Haydn: Symphony No. 83 "La Poule" (2017)
EAC Rip | FLAC (tracks+log+.cue) - 291 Mb | MP3 CBR 320 kbps - 149 Mb | Digital booklet | 01:03:02
Classical | Label: Aparté

Thanks to Julien Chauvin and his ensemble La Loge, the programs of the Concert Spirituel’s evenings in the late 18th century Paris come back to life. The so called Haydn’s “symphonies parisiennes” are the core of their musical project which also features contemporary composers, some of them are still unknown.

After “La Reine”, Julien Chauvin and his musicians release “La Poule”, which mischievous doted notes are famous, and Marie-Alexandre Guénin’s Third Symphony. In addition to being a member of the Concert Spirituel’s orchestra as a violinist, Guénin was a teacher and a composer. This score, typical of the Sturm und Drang dramatic gestures, has nothing to envy to the works of his more prominent peers.

The disc ends with Mozart’s Piano Concerto No. 17, K 453 performed by the young and talented Justin Taylor on the fortepiano. His technique allows his sensibility and intelligence to blossom freely so that the soloist can offer a pure moment of delicacy.
Tracklist:
1. Le Concert de la Loge & Julien Chauvin – Symphony No. 83 in G Minor, Hob. I:83 "La poule": I. Allegro spiritoso (07:03)
2. Le Concert de la Loge & Julien Chauvin – Symphony No. 83 in G Minor, Hob. I:83 "La poule": II. Andante (07:58)
3. Le Concert de la Loge & Julien Chauvin – Symphony No. 83 in G Minor, Hob. I:83 "La poule": III. Menuet. Allegretto (03:17)
4. Le Concert de la Loge & Julien Chauvin – Symphony No. 83 in G Minor, Hob. I:83 "La poule": IV. Vivace (04:03)
5. Le Concert de la Loge, Justin Taylor & Julien Chauvin – Piano Concerto No. 17 in G Major, K. 453: I. Allegro (12:00)
6. Le Concert de la Loge, Julien Chauvin & Justin Taylor – Piano Concerto No. 17 in G Major, K. 453: II. Andante (09:30)
7. Le Concert de la Loge, Justin Taylor & Julien Chauvin – Piano Concerto No. 17 in G Major, K. 453: III. Allegretto (07:51)
8. Le Concert de la Loge & Julien Chauvin – Symphony in D Minor, Op. 4 No. 3: I. Allegro di molto (04:05)
9. Le Concert de la Loge & Julien Chauvin – Symphony in D Minor, Op. 4 No. 3: II. Andante (03:47)
10. Le Concert de la Loge & Julien Chauvin – Symphony in D Minor, Op. 4 No. 3: III. Allegro di molto (03:23)

Exact Audio Copy V1.3 from 2. September 2016

EAC extraction logfile from 15. August 2020, 12:18

Le Concert de la Loge, Julien Chauvin, Justin Taylor / Symphony No. 83 "la poule"

Used drive : HL-DT-STDVDRAM GH24NSD1 Adapter: 1 ID: 0

Read mode : Secure
Utilize accurate stream : Yes
Defeat audio cache : Yes
Make use of C2 pointers : No

Read offset correction : 6
Overread into Lead-In and Lead-Out : No
Fill up missing offset samples with silence : Yes
Delete leading and trailing silent blocks : No
Null samples used in CRC calculations : Yes
Used interface : Native Win32 interface for Win NT & 2000
Gap handling : Appended to previous track

Used output format : User Defined Encoder
Selected bitrate : 1024 kBit/s
Quality : High
Add ID3 tag : No
Command line compressor : C:\Program Files (x86)\Exact Audio Copy\Flac\flac.exe
Additional command line options : -8 -V -T "ARTIST=%artist%" -T "TITLE=%title%" -T "ALBUM=%albumtitle%" -T "DATE=%year%" -T "TRACKNUMBER=%tracknr%" -T "GENRE=%genre%" -T "PERFORMER=%albuminterpret%" -T "COMPOSER=%composer%" %haslyrics%–tag-from-file=LYRICS="%lyricsfile%"%haslyrics% -T "ALBUMARTIST=%albumartist%" -T "DISCNUMBER=%cdnumber%" -T "TOTALDISCS=%totalcds%" -T "TOTALTRACKS=%numtracks%" -T "COMMENT=%comment%" %source% -o %dest%


TOC of the extracted CD

Track | Start | Length | Start sector | End sector
––––––––––––––––––––––––––––-
1 | 0:00.00 | 7:03.62 | 0 | 31786
2 | 7:03.62 | 7:58.02 | 31787 | 67638
3 | 15:01.64 | 3:17.58 | 67639 | 82471
4 | 18:19.47 | 4:03.67 | 82472 | 100763
5 | 22:23.39 | 12:00.60 | 100764 | 154823
6 | 34:24.24 | 9:30.58 | 154824 | 197631
7 | 43:55.07 | 7:51.74 | 197632 | 233030
8 | 51:47.06 | 4:05.12 | 233031 | 251417
9 | 55:52.18 | 3:47.15 | 251418 | 268457
10 | 59:39.33 | 3:23.02 | 268458 | 283684


Track 1

Filename E:\WHAT.CD\000TEMP\Haydn - Symphony No. 83 La Poule - Le Concert de la Loge (2017) [FLAC]\01 - Symphony No. 83 ''la poule'' - 1. Allegro spiritoso.wav

Pre-gap length 0:00:02.00

Peak level 96.5 %
Extraction speed 1.2 X
Track quality 100.0 %
Test CRC 2C906559
Copy CRC 2C906559
Accurately ripped (confidence 2) [30B89944] (AR v2)
Copy OK

Track 2

Filename E:\WHAT.CD\000TEMP\Haydn - Symphony No. 83 La Poule - Le Concert de la Loge (2017) [FLAC]\02 - Symphony No. 83 ''la poule'' - 2. Andante.wav

Peak level 96.5 %
Extraction speed 5.9 X
Track quality 100.0 %
Test CRC 62D4CD2F
Copy CRC 62D4CD2F
Accurately ripped (confidence 2) [EE70575A] (AR v2)
Copy OK

Track 3

Filename E:\WHAT.CD\000TEMP\Haydn - Symphony No. 83 La Poule - Le Concert de la Loge (2017) [FLAC]\03 - Symphony No. 83 ''la poule'' - 3. Menuet. Allegretto.wav

Peak level 96.5 %
Extraction speed 5.9 X
Track quality 100.0 %
Test CRC CF82D663
Copy CRC CF82D663
Accurately ripped (confidence 2) [96C2F7B7] (AR v2)
Copy OK

Track 4

Filename E:\WHAT.CD\000TEMP\Haydn - Symphony No. 83 La Poule - Le Concert de la Loge (2017) [FLAC]\04 - Symphony No. 83 ''la poule'' - 4. Vivace.wav

Peak level 96.5 %
Extraction speed 6.4 X
Track quality 100.0 %
Test CRC EFE8ECEB
Copy CRC EFE8ECEB
Accurately ripped (confidence 2) [EA3E1B7E] (AR v2)
Copy OK

Track 5

Filename E:\WHAT.CD\000TEMP\Haydn - Symphony No. 83 La Poule - Le Concert de la Loge (2017) [FLAC]\05 - Piano concerto No. 17 In G major K453 - 1. Allegro.wav

Peak level 96.6 %
Extraction speed 7.5 X
Track quality 100.0 %
Test CRC 4D620E07
Copy CRC 4D620E07
Accurately ripped (confidence 2) [FD14D13C] (AR v2)
Copy OK

Track 6

Filename E:\WHAT.CD\000TEMP\Haydn - Symphony No. 83 La Poule - Le Concert de la Loge (2017) [FLAC]\06 - Piano concerto No. 17 In G major - 2. Andante.wav

Peak level 80.0 %
Extraction speed 8.3 X
Track quality 100.0 %
Test CRC 60D1F7CE
Copy CRC 60D1F7CE
Accurately ripped (confidence 2) [4DAAD194] (AR v2)
Copy OK

Track 7

Filename E:\WHAT.CD\000TEMP\Haydn - Symphony No. 83 La Poule - Le Concert de la Loge (2017) [FLAC]\07 - Piano concerto No. 17 In G major - 3. Allegretto.wav

Peak level 96.6 %
Extraction speed 8.8 X
Track quality 100.0 %
Test CRC 992BBE24
Copy CRC 992BBE24
Accurately ripped (confidence 2) [5357A430] (AR v2)
Copy OK

Track 8

Filename E:\WHAT.CD\000TEMP\Haydn - Symphony No. 83 La Poule - Le Concert de la Loge (2017) [FLAC]\08 - Symphony in D minor Op. 4 No. 3 - 1. Allegro di molto.wav

Peak level 96.5 %
Extraction speed 8.6 X
Track quality 100.0 %
Test CRC 9C1E164E
Copy CRC 9C1E164E
Accurately ripped (confidence 2) [D4B7F987] (AR v2)
Copy OK

Track 9

Filename E:\WHAT.CD\000TEMP\Haydn - Symphony No. 83 La Poule - Le Concert de la Loge (2017) [FLAC]\09 - Symphony in D minor Op. 4 No. 3 - 2. Andante.wav

Peak level 52.8 %
Extraction speed 8.7 X
Track quality 100.0 %
Test CRC B991453E
Copy CRC B991453E
Accurately ripped (confidence 2) [9F6D5A21] (AR v2)
Copy OK

Track 10

Filename E:\WHAT.CD\000TEMP\Haydn - Symphony No. 83 La Poule - Le Concert de la Loge (2017) [FLAC]\10 - Symphony in D minor Op. 4 No. 3 - 3. Allegro di molto.wav

Peak level 96.6 %
Extraction speed 8.6 X
Track quality 100.0 %
Test CRC D209FC35
Copy CRC D209FC35
Accurately ripped (confidence 2) [5ACA58B4] (AR v2)
Copy OK


All tracks accurately ripped

No errors occurred

End of status report

–– CUETools DB Plugin V2.1.6

[CTDB TOCID: 2uSt_nz8gZ42KlJ0LeBOE.QAGVc-] found
Submit result: 2uSt_nz8gZ42KlJ0LeBOE.QAGVc- has been confirmed
Track | CTDB Status
1 | (10/10) Accurately ripped
2 | (10/10) Accurately ripped
3 | (10/10) Accurately ripped
4 | (10/10) Accurately ripped
5 | (10/10) Accurately ripped
6 | (10/10) Accurately ripped
7 | (10/10) Accurately ripped
8 | (10/10) Accurately ripped
9 | (10/10) Accurately ripped
10 | (10/10) Accurately ripped


==== Log checksum 8716DE625C6692B552EA3572EDA2587E21CA0FF155C62DC8E1CDE81A8F9D40A0 ====

Thanks to the Original ripper !