Subcategories

Lebrun & Mozart - Heinz Holliger - Oboe Concertos [Archiv Produktion 471 724-2] {1965, 1980/82 - ReIssue 2003}

Posted By: luckburz
Lebrun & Mozart - Heinz Holliger - Oboe Concertos [Archiv Produktion 471 724-2] {1965, 1980/82 - ReIssue 2003}

Lebrun & Mozart - Heinz Holliger - Oboe Concertos
Lebrun: Camerata Bern / Thomas Füri - Mozart: Münchener Kammerorchester / Hans Stadlmair
EAC+LOG+CUE | FLAC: 435 MB | Full Artwork | 5% Recovery Info
Label/Cat#: Archiv Produktion # 471 724-2 | Country/Year: Germany 2003, 1965, 1980-82
Genre: Classical | Style: Viennese School

MD5 [X] CUE [X] LOG [X] INFO TEXT [X] ARTWORK [X]

selfrip [] not my rip [X]

Lebrun & Mozart - Heinz Holliger - Oboe Concertos [Archiv Produktion 471 724-2] {1965, 1980/82 - ReIssue 2003}


Exact Audio Copy V0.99 prebeta 5 from 4. May 2009

EAC extraction logfile from 29. September 2012, 14:01

Heinz Holliger, Camerata Bern, Thomas Furi / Lebrun - Oboe Concertos CD1

Used drive : HL-DT-STBDDVDRW CT30N Adapter: 0 ID: 2

Read mode : Secure
Utilize accurate stream : Yes
Defeat audio cache : Yes
Make use of C2 pointers : No

Read offset correction : 102
Overread into Lead-In and Lead-Out : No
Fill up missing offset samples with silence : Yes
Delete leading and trailing silent blocks : No
Null samples used in CRC calculations : Yes
Used interface : Native Win32 interface for Win NT & 2000

Used output format : User Defined Encoder
Selected bitrate : 768 kBit/s
Quality : High
Add ID3 tag : No
Command line compressor : C:\Program Files (x86)\Exact Audio Copy\FLAC\FLAC.EXE
Additional command line options : -6 -V -T "ARTIST=%a" -T "TITLE=%t" -T "ALBUM=%g" -T "DATE=%y" -T "TRACKNUMBER=%n" -T "GENRE=%m" -T "COMMENT=%e" %s -o %d


TOC of the extracted CD

Track | Start | Length | Start sector | End sector
––––––––––––––––––––––––––––-
1 | 0:00.00 | 8:19.66 | 0 | 37490
2 | 8:19.66 | 5:26.61 | 37491 | 62001
3 | 13:46.52 | 5:48.17 | 62002 | 88118
4 | 19:34.69 | 7:18.13 | 88119 | 120981
5 | 26:53.07 | 5:19.08 | 120982 | 144914
6 | 32:12.15 | 6:29.70 | 144915 | 174159
7 | 38:42.10 | 8:55.23 | 174160 | 214307
8 | 47:37.33 | 5:05.11 | 214308 | 237193
9 | 52:42.44 | 6:00.23 | 237194 | 264216


Range status and errors

Selected range

Filename D:\Rutracker.org\Lebrun & Mozart - Oboe Concertos - Heinz Holliger\CD 1\Heinz Holliger, Camerata Bern, Thomas Furi - Lebrun - Oboe Concertos CD1.wav

Peak level 100.0 %
Range quality 99.9 %
Copy CRC 6232DBF3
Copy OK

No errors occurred


AccurateRip summary

Track 1 accurately ripped (confidence 5) [3E84D02A]
Track 2 accurately ripped (confidence 5) [A06AB049]
Track 3 accurately ripped (confidence 5) [EC19D400]
Track 4 accurately ripped (confidence 5) [D2C1EC06]
Track 5 accurately ripped (confidence 5) [804AA32F]
Track 6 accurately ripped (confidence 5) [B4FB1B77]
Track 7 accurately ripped (confidence 5) [EA6D0080]
Track 8 accurately ripped (confidence 5) [3D913D42]
Track 9 accurately ripped (confidence 5) [08782924]

All tracks accurately ripped

End of status report

Exact Audio Copy V0.99 prebeta 5 from 4. May 2009

EAC extraction logfile from 29. September 2012, 14:51

Heinz Holliger, Camerata Bern, Thomas Furi / Lebrun - Oboe Concertos CD2

Used drive : HL-DT-STBDDVDRW CT30N Adapter: 0 ID: 2

Read mode : Secure
Utilize accurate stream : Yes
Defeat audio cache : Yes
Make use of C2 pointers : No

Read offset correction : 102
Overread into Lead-In and Lead-Out : No
Fill up missing offset samples with silence : Yes
Delete leading and trailing silent blocks : No
Null samples used in CRC calculations : Yes
Used interface : Native Win32 interface for Win NT & 2000

Used output format : User Defined Encoder
Selected bitrate : 768 kBit/s
Quality : High
Add ID3 tag : No
Command line compressor : C:\Program Files (x86)\Exact Audio Copy\FLAC\FLAC.EXE
Additional command line options : -6 -V -T "ARTIST=%a" -T "TITLE=%t" -T "ALBUM=%g" -T "DATE=%y" -T "TRACKNUMBER=%n" -T "GENRE=%m" -T "COMMENT=%e" %s -o %d


TOC of the extracted CD

Track | Start | Length | Start sector | End sector
––––––––––––––––––––––––––––-
1 | 0:00.00 | 7:43.37 | 0 | 34761
2 | 7:43.37 | 5:11.38 | 34762 | 58124
3 | 12:55.00 | 5:22.00 | 58125 | 82274
4 | 18:17.00 | 9:56.00 | 82275 | 126974
5 | 28:13.00 | 5:48.15 | 126975 | 153089
6 | 34:01.15 | 5:56.60 | 153090 | 179849
7 | 39:58.00 | 8:35.05 | 179850 | 218479
8 | 48:33.05 | 4:59.62 | 218480 | 240966
9 | 53:32.67 | 5:39.08 | 240967 | 266399
10 | 59:12.00 | 7:43.00 | 266400 | 301124
11 | 66:55.00 | 7:29.00 | 301125 | 334799
12 | 74:24.00 | 5:47.00 | 334800 | 360824


Range status and errors

Selected range

Filename D:\Rutracker.org\Lebrun & Mozart - Oboe Concertos - Heinz Holliger\CD 2\Heinz Holliger, Camerata Bern, Thomas Furi - Lebrun - Oboe Concertos CD2.wav

Peak level 92.3 %
Range quality 99.9 %
Copy CRC DAA57497
Copy OK

No errors occurred


AccurateRip summary

Track 1 accurately ripped (confidence 5) [A094C409]
Track 2 accurately ripped (confidence 5) [58680CA9]
Track 3 accurately ripped (confidence 5) [AA6AA296]
Track 4 accurately ripped (confidence 5) [1097157D]
Track 5 accurately ripped (confidence 5) [D81ACFC5]
Track 6 accurately ripped (confidence 5) [0EC8108B]
Track 7 accurately ripped (confidence 5) [A4131707]
Track 8 accurately ripped (confidence 5) [D5F00460]
Track 9 accurately ripped (confidence 5) [1868B070]
Track 10 accurately ripped (confidence 5) [13AFBEB2]
Track 11 accurately ripped (confidence 5) [D6A0DB82]
Track 12 accurately ripped (confidence 5) [B135EBE3]

All tracks accurately ripped

End of status report

auCDtect: CD records authenticity detector, version 0.8.2
Copyright © 2004 Oleg Berngardt. All rights reserved.
Copyright © 2004 Alexander Djourik. All rights reserved.

Detect mode (0..40 with 0 = most accurate): 8 (default)


––––––––––––––––––––––––––––––
[Heinz Holliger, Camerata Bern, Thomas Furi - Lebrun - Oboe Concertos CD1.wav]
Detected average hi-boundary frequency: 2.062431e+004 Hz
Detected average lo-boundary frequency: 1.323249e+004 Hz
Detected average hi-cut frequency: 2.133463e+004 Hz
Detected average lo-cut frequency: 1.583681e+004 Hz
Maximum probablis boundary frequency: 2.147100e+004 Hz
Coefficient of nonlinearity of a phase: 3.288468e-001
First order smothness: 4.534442e-001
Second order smothness: 8.299287e-001
––––––––––––––––––––––––––––––
This track looks like CDDA with probability 94%.

––––––––––––––––––––––––––––––
[Heinz Holliger, Camerata Bern, Thomas Furi - Lebrun - Oboe Concertos CD2.wav]
Detected average hi-boundary frequency: 2.024621e+004 Hz
Detected average lo-boundary frequency: 1.173451e+004 Hz
Detected average hi-cut frequency: 2.116520e+004 Hz
Detected average lo-cut frequency: 1.038636e+004 Hz
Maximum probablis boundary frequency: 2.189100e+004 Hz
Coefficient of nonlinearity of a phase: 3.955979e-001
First order smothness: 4.068978e-001
Second order smothness: 7.442954e-001
––––––––––––––––––––––––––––––
This track looks like CDDA with probability 100%.

foobar2000 1.1.14a / Dynamic Range Meter 1.1.1
log date: 2012-10-01 19:36:48

––––––––––––––––––––––––––––––––––––––––
Analyzed: Heinz Holliger, Camerata Bern, Thomas Furi / Lebrun - Oboe Concertos CD1
––––––––––––––––––––––––––––––––––––––––

DR Peak RMS Duration Track
––––––––––––––––––––––––––––––––––––––––
DR14 0.00 dB -18.98 dB 8:20 01-Oboe Concerto No.1 in D minor - I.Allegro
DR14 -3.76 dB -23.12 dB 5:27 02-Oboe Concerto No.1 in D minor - II.Grazioso
DR13 0.00 dB -17.75 dB 5:48 03-Oboe Concerto No.1 in D minor - III.Allegro
DR13 0.00 dB -17.92 dB 7:18 04-Oboe Concerto No.2 in G minor - I.Allegro
DR13 0.00 dB -19.33 dB 5:19 05-Oboe Concerto No.2 in G minor - II.Adagio
DR14 0.00 dB -18.93 dB 6:30 06-Oboe Concerto No.2 in G minor - III.Rondo.Allegro
DR14 0.00 dB -18.93 dB 8:55 07-Oboe Concerto No.3 in C major - I.Allegro
DR13 -4.15 dB -21.67 dB 5:05 08-Oboe Concerto No.3 in C major - II.Adagio
DR14 -0.63 dB -20.28 dB 6:00 09-Oboe Concerto No.3 in C major - III.Rondo. Allegretto
––––––––––––––––––––––––––––––––––––––––

Number of tracks: 9
Official DR value: DR13

Samplerate: 44100 Hz
Channels: 2
Bits per sample: 16
Bitrate: 560 kbps
Codec: FLAC
================================================================================

––––––––––––––––––––––––––––––––––––––––
Analyzed: Heinz Holliger, Camerata Bern, Thomas Furi / Lebrun - Oboe Concertos CD2
––––––––––––––––––––––––––––––––––––––––

DR Peak RMS Duration Track
––––––––––––––––––––––––––––––––––––––––
DR14 -0.69 dB -21.12 dB 7:43 01-Oboe Concerto No.4 in B flat major - I.Allegro
DR16 -3.44 dB -26.26 dB 5:12 02-Oboe Concerto No.4 in B flat major - II.Adagio
DR13 -0.69 dB -20.69 dB 5:22 03-Oboe Concerto No.4 in B flat major - III.Rondo. Allegro
DR14 -2.84 dB -22.19 dB 9:56 04-Oboe Concerto No.5 in C major - I.Grave - Allegro
DR13 -5.88 dB -25.25 dB 5:48 05-Oboe Concerto No.5 in C major - II.Adagio
DR13 -1.78 dB -22.09 dB 5:57 06-Oboe Concerto No.5 in C major - III.Rondo. Allegro
DR14 -2.64 dB -23.26 dB 8:35 07-Oboe Concerto No.6 in F major - I.Allegro
DR13 -7.70 dB -26.95 dB 5:00 08-Oboe Concerto No.6 in F major - II.Adagio grazioso
DR13 -4.77 dB -24.00 dB 5:39 09-Oboe Concerto No.6 in F major - III.Rondo. Allegro
DR13 -0.96 dB -19.57 dB 7:43 10-W.A.Mozart - Oboe Concerto in C major K.314 - I.Allegro aperto
DR12 -4.38 dB -22.78 dB 7:29 11-W.A.Mozart - Oboe Concerto in C major K.314 - II.Adagio non troppo
DR13 -1.31 dB -20.27 dB 5:47 12-W.A.Mozart - Oboe Concerto in C major K.314 - III.Rondo. Allegretto
––––––––––––––––––––––––––––––––––––––––

Number of tracks: 12
Official DR value: DR13

Samplerate: 44100 Hz
Channels: 2
Bits per sample: 16
Bitrate: 609 kbps
Codec: FLAC
================================================================================



CD Info:

Lebrun / Mozart - Heinz Holliger - Oboe Concertos

Lebrun: Camerata Bern / Thomas Füri
Mozart: Münchener Kammerorchester / Hans Stadlmair

Label: Archiv Produktion
Catalog#: 471 724-2
Format: CD, Album
Country: Germany
Released: 2003 (1965, 1980, 1982)
Genre: Classical

Tracklist:

CD 1:

Ludwig August Lebrun (1752-1790)

1 - Oboe Concerto No.1 in D minor - I.Allegro 8:20
2 - Oboe Concerto No.1 in D minor - II.Grazioso 5:27
3 - Oboe Concerto No.1 in D minor - III.Allegro 5:48
4 - Oboe Concerto No.2 in G minor - I.Allegro 7:18
5 - Oboe Concerto No.2 in G minor - II.Adagio 5:19
6 - Oboe Concerto No.2 in G minor - III.Rondo.Allegro 6:30
7 - Oboe Concerto No.3 in C major - I.Allegro 8:55
8 - Oboe Concerto No.3 in C major - II.Adagio 5:05
9 - Oboe Concerto No.3 in C major - III.Rondo. Allegretto 6:00

CD 2:

1 - Oboe Concerto No.4 in B flat major - I.Allegro 7:43
2 - Oboe Concerto No.4 in B flat major - II.Adagio 5:12
3 - Oboe Concerto No.4 in B flat major - III.Rondo. Allegro 5:22
4 - Oboe Concerto No.5 in C major - I.Grave - Allegro 9:56
5 - Oboe Concerto No.5 in C major - II.Adagio 5:48
6 - Oboe Concerto No.5 in C major - III.Rondo. Allegro 5:57
7 - Oboe Concerto No.6 in F major - I.Allegro 8:35
8 - Oboe Concerto No.6 in F major - II.Adagio grazioso 5:00
9 - Oboe Concerto No.6 in F major - III.Rondo. Allegro 5:39

Wolgang Amadeus Mozart (1756-1791)

10 - Oboe Concerto in C major K.314 - I.Allegro aperto 7:43
11 - Oboe Concerto in C major K.314 - II.Adagio non troppo 7:29
12 - Oboe Concerto in C major K.314 - III.Rondo. Allegretto 5:47

Lebrun & Mozart - Heinz Holliger - Oboe Concertos [Archiv Produktion 471 724-2] {1965, 1980/82 - ReIssue 2003}


Recording: München, Musikhochschule, 4/1964 (Mozart); Bern, Konservatorium, 9/1979 (Lebrun, Concerto No. 1); Bern, DRS-Radio-Studio, 12/1981 (Lebrun, Concertos Nos. 2-4) & 3/1982 (Lebrun, Concertos Nos. 5 & 6
Digitally remastered at 96kHz/24Bit from the original master tapes by Emil Berliner Studios (Mozart)

Holliger is in top form, confronting the challenges as if they were child's play and capturing the spirit and the letter of the music as only he can . . . The support offered by the Camerata Bern and the Munich Chamber Orchestra is excellent and strong, with admirable pacing, precise ensemble, fine intonation, and splendid leadership . . . these recordings were nothing short of "must haves". While – in the intervening years – performance practices have encountered emendation and musical aesthetics have been altered, the immense musical and artistic value of these performances still holds.
Record Review / Michael Carter, Fanfare (Tenafly, NJ) / 01. July 2004

Thanks to Il-lustrator!
Lebrun & Mozart - Heinz Holliger - Oboe Concertos [Archiv Produktion 471 724-2] {1965, 1980/82 - ReIssue 2003}

// classical music \\
// all of my uploads \\
________________

Download:

FLAC Part I
FLAC Part II

Artwork
________________