Tags
Language
Tags

Leo Bud Welch - The Angels In Heaven Done Signed My Name (2019)

Posted By: delpotro
Leo Bud Welch - The Angels In Heaven Done Signed My Name (2019)

Leo Bud Welch - The Angels In Heaven Done Signed My Name (2019)
EAC Rip | FLAC (tracks+log+.cue) | 00:26:14 | 167 Mb
Delta Blues, Gospel Blues | Label: Easy Eye Sound

While it wasn't unexpected given his advanced age and health, the death of gospel bluesman Leo "Bud" Welch in 2017 felt altogether too soon. The Delta bluesman from Sabougla, Mississippi had been performing for most of his life. He gigged in juke joints, opened for touring artists such as B.B. King, Howlin' Wolf, Elmore James, and John Lee Hooker, and played in church, but he didn't release an album until he was 81. 2014's Sabougla Voices was a "Sunday morning" gospel-blues album of songs he'd learned, written, or improvised on the spot. He followed it a year later with his "Saturday night sinner's record," I Don’t Prefer No Blues, and toured the globe. In 2018, he was the subject of the documentary film, Late Blossom Blues: The Journey of Leo "Bud" Welch. Welch cut The Angels in Heaven Done Signed My Name in Nashville with producer Dan Auerbach and his band the Arcs (that included the late Richard Swift), at his Easy Eye Sound label and studio in Nashville in 2015. Welch prepared 30 traditional songs he'd been playing throughout his life and cut them live from the floor with the Arcs. After his passing, Auerbach returned to the tapes, cut the selection to ten tunes, and added few overdubs. The end result is pure Welch, passionate and rootsy, from his percussive, jagged, sometimes spooky guitar playing to his elastic, gritty, vocal phrasing.

Opener "I Know I Been Changed" commences solo in a droning minor-key blues, with Leon Michels' Hammond B-3, Auerbach's plodding snare/ and Dave Rose's bass. Its low-down droning vibe recalls Blind Willie Johnson's "Jesus Make Up My Dying Bed." The old chestnut "Jesus on the Mainline" is brighter, looser, a brilliant example of Welch's gospelized blues offered by three electric guitars, organ, kick drum, tom-toms, and a backing vocal chorus. It's soul stirring and nearly danceable. Contrast it with "Don't Let the Devil Ride," a cautionary, steamy, rocking trance blues that emerges from the Delta soil in the tradition of R.L. Burnside and Junior Kimbrough. "I Come to Praise His Name" is performed in shuffling stomp groove, like a rowdy revival camp meeting. The Grascals add backing vocals to the rocking country gospel of "Right on Time," which features some of Welch's most passionate singing and playing atop his band's rockabilly attack and swaying chorus vocals. "I Wanna Die Easy" is poignant in light of Welch's passing, but in its greasy, raw, presentation, this foreboding tune is a juke joint stroll. "Let It Shine" is a relaxed yet celebratory country-gospel-boogie with steel guitars, shuffling bass, and swampy organ. It there's a complaint about The Angels in Heaven Done Signed My Name, it's niggling: At only 27 minutes, Auerbach could have chosen more cuts from the 30 at his disposal. That said, what's included here offers a powerful, imposing, lasting portrait of Welch as a singular bluesman in the long, rich, Delta tradition.
Tracklist:
1. I Know I've Been Changed (00:57)
2. Jesus Is On The Mainline (02:47)
3. Don't Let The Devil Ride (02:46)
4. I Come To Praise His Name (03:05)
5. Walk With Me Lord (02:41)
6. Right On Time (03:25)
7. I Want To Be At The Meeting (02:25)
8. I Wanna Die Easy (03:10)
9. Let It Shine (02:33)
10. Sweet Home (01:26)

Exact Audio Copy V1.3 from 2. September 2016

EAC extraction logfile from 5. June 2019, 1:59

Leo Bud Welch / The Angels In Heaven Done Signed My Name

Used drive : MATSHITADVD-RAM UJ8E2 Adapter: 1 ID: 0

Read mode : Secure
Utilize accurate stream : Yes
Defeat audio cache : Yes
Make use of C2 pointers : No

Read offset correction : 103
Overread into Lead-In and Lead-Out : No
Fill up missing offset samples with silence : Yes
Delete leading and trailing silent blocks : No
Null samples used in CRC calculations : Yes
Used interface : Native Win32 interface for Win NT & 2000
Gap handling : Appended to previous track

Used output format : User Defined Encoder
Selected bitrate : 1024 kBit/s
Quality : High
Add ID3 tag : No
Command line compressor : C:\Program Files (x86)\Exact Audio Copy\Flac\flac.exe
Additional command line options : -8 -V -T "ARTIST=%artist%" -T "TITLE=%title%" -T "ALBUM=%albumtitle%" -T "DATE=%year%" -T "TRACKNUMBER=%tracknr%" -T "GENRE=%genre%" -T "PERFORMER=%albuminterpret%" -T "COMPOSER=%composer%" %haslyrics%–tag-from-file=LYRICS="%lyricsfile%"%haslyrics% -T "ALBUMARTIST=%albumartist%" -T "DISCNUMBER=%cdnumber%" -T "TOTALDISCS=%totalcds%" -T "TOTALTRACKS=%numtracks%" -T "COMMENT=%comment%" %source% -o %dest%


TOC of the extracted CD

Track | Start | Length | Start sector | End sector
––––––––––––––––––––––––––––-
1 | 0:00.00 | 1:57.17 | 0 | 8791
2 | 1:57.17 | 2:46.69 | 8792 | 21310
3 | 4:44.11 | 2:45.54 | 21311 | 33739
4 | 7:29.65 | 3:05.20 | 33740 | 47634
5 | 10:35.10 | 2:41.03 | 47635 | 59712
6 | 13:16.13 | 3:24.70 | 59713 | 75082
7 | 16:41.08 | 2:24.43 | 75083 | 85925
8 | 19:05.51 | 3:10.05 | 85926 | 100180
9 | 22:15.56 | 2:32.62 | 100181 | 111642
10 | 24:48.43 | 1:25.45 | 111643 | 118062


Track 1

Filename C:\EAC Rips\Leo Bud Welch (2019) The Angels In Heaven Done Signed My Name [FLAC] {EES-007}\ 01 - I Know I've Been Changed.wav

Pre-gap length 0:00:02.00

Peak level 98.7 %
Extraction speed 1.2 X
Track quality 100.0 %
Test CRC CDB58F2D
Copy CRC CDB58F2D
Accurately ripped (confidence 1) [211CBAEB] (AR v2)
Copy OK

Track 2

Filename C:\EAC Rips\Leo Bud Welch (2019) The Angels In Heaven Done Signed My Name [FLAC] {EES-007}\ 02 - Jesus Is On The Mainline.wav

Peak level 98.8 %
Extraction speed 1.4 X
Track quality 100.0 %
Test CRC 3F914259
Copy CRC 3F914259
Accurately ripped (confidence 1) [74BD3A64] (AR v2)
Copy OK

Track 3

Filename C:\EAC Rips\Leo Bud Welch (2019) The Angels In Heaven Done Signed My Name [FLAC] {EES-007}\ 03 - Don't Let The Devil Ride.wav

Peak level 98.9 %
Extraction speed 1.5 X
Track quality 100.0 %
Test CRC 06EEDFA7
Copy CRC 06EEDFA7
Accurately ripped (confidence 1) [69A993F8] (AR v2)
Copy OK

Track 4

Filename C:\EAC Rips\Leo Bud Welch (2019) The Angels In Heaven Done Signed My Name [FLAC] {EES-007}\ 04 - I Come To Praise His Name.wav

Peak level 98.8 %
Extraction speed 1.4 X
Track quality 99.9 %
Test CRC 495CE028
Copy CRC 495CE028
Accurately ripped (confidence 1) [270511FF] (AR v2)
Copy OK

Track 5

Filename C:\EAC Rips\Leo Bud Welch (2019) The Angels In Heaven Done Signed My Name [FLAC] {EES-007}\ 05 - Walk With Me Lord.wav

Peak level 98.7 %
Extraction speed 1.7 X
Track quality 100.0 %
Test CRC CF036329
Copy CRC CF036329
Accurately ripped (confidence 1) [C881ABA9] (AR v2)
Copy OK

Track 6

Filename C:\EAC Rips\Leo Bud Welch (2019) The Angels In Heaven Done Signed My Name [FLAC] {EES-007}\ 06 - Right On Time.wav

Peak level 98.8 %
Extraction speed 1.9 X
Track quality 100.0 %
Test CRC 80F6B561
Copy CRC 80F6B561
Accurately ripped (confidence 1) [737CEE3E] (AR v2)
Copy OK

Track 7

Filename C:\EAC Rips\Leo Bud Welch (2019) The Angels In Heaven Done Signed My Name [FLAC] {EES-007}\ 07 - I Want To Be At The Meeting.wav

Peak level 98.7 %
Extraction speed 1.8 X
Track quality 100.0 %
Test CRC EAAD6BBE
Copy CRC EAAD6BBE
Accurately ripped (confidence 1) [BFE77D1F] (AR v2)
Copy OK

Track 8

Filename C:\EAC Rips\Leo Bud Welch (2019) The Angels In Heaven Done Signed My Name [FLAC] {EES-007}\ 08 - I Wanna Die Easy.wav

Peak level 98.7 %
Extraction speed 2.0 X
Track quality 100.0 %
Test CRC 80F31042
Copy CRC 80F31042
Accurately ripped (confidence 1) [36D6857C] (AR v2)
Copy OK

Track 9

Filename C:\EAC Rips\Leo Bud Welch (2019) The Angels In Heaven Done Signed My Name [FLAC] {EES-007}\ 09 - Let It Shine.wav

Peak level 98.8 %
Extraction speed 2.0 X
Track quality 100.0 %
Test CRC DAE3CC9C
Copy CRC DAE3CC9C
Accurately ripped (confidence 1) [EB2CCE50] (AR v2)
Copy OK

Track 10

Filename C:\EAC Rips\Leo Bud Welch (2019) The Angels In Heaven Done Signed My Name [FLAC] {EES-007}\ 10 - Sweet Home.wav

Peak level 98.7 %
Extraction speed 1.8 X
Track quality 100.0 %
Test CRC 5CCA5410
Copy CRC 5CCA5410
Accurately ripped (confidence 1) [1E972036] (AR v2)
Copy OK


All tracks accurately ripped

No errors occurred

End of status report

–– CUETools DB Plugin V2.1.6

[CTDB TOCID: inS4o_2fedMSjWvgzQvJHaLcYWY-] found
Submit result: inS4o_2fedMSjWvgzQvJHaLcYWY- has been confirmed
Track | CTDB Status
1 | (3/3) Accurately ripped
2 | (3/3) Accurately ripped
3 | (3/3) Accurately ripped
4 | (3/3) Accurately ripped
5 | (3/3) Accurately ripped
6 | (3/3) Accurately ripped
7 | (3/3) Accurately ripped
8 | (3/3) Accurately ripped
9 | (3/3) Accurately ripped
10 | (3/3) Accurately ripped


==== Log checksum 071E34FDC623F53AA2142A6F31189474BD5F173EC8B251F1297C46B955FCAB19 ====

Thanks to the Original ripper !