Tags
Language
Tags

Les Vikings de La Guadeloupe - Enko On Ti Tou (1966 - 2016) (2016)

Posted By: aasana
Les Vikings de La Guadeloupe - Enko On Ti Tou (1966 - 2016) (2016)

Les Vikings de La Guadeloupe - Enko On Ti Tou (1966 - 2016) (2016)
EAC Rip | FLAC (tracks+.cue+.log) & booklet | 1:16:33 | 470 MB
World, Latin, Funk, Jazz | Label: Heavenly Sweetness

A compilation that marks the comeback of one of the most important French Antillean bands of the 60s and 70s, Les Vikings De La Guadeloupe.
Camille Sopran'n, who founded the band with guitarist Guy Jacquet and bassist Pierre-Edouard Décimus, personally selected this compilation from the Vikings' vast discography of about twenty albums, starting in 1967.
The Vikings were Guadeloupe's first true rock stars. They embodied the same spirit of liberty and anti-conformism as Led Zeppelin in 1960s Britain, The Impressions in U.S. soul around the same time and Ornette Coleman in the jazz world a few years earlier.
They might not play out-and-out rock, but these young hipsters with their unorthodox dress sense reinvented the music of the tropics and shook up its conventions to such an extent that their songs still sound like the soundtrack of a society in the throes of radical change. Their popularity went through the roof after their debut gigs at La Cocoteraie, one of the trendiest clubs in the Gosier area of Pointe-à-Pitre.
One track was featured on Heavenly Sweetness' well-received 2015 compilation 'Kouté Jazz', now with the 'Best Of - Enko On Ti Tou', which presents a selection of fourteen of their best songs and should see the musical adventures of this group become known around the world.

Tracklist:
01. Les Vikings de La Guadeloupe - Ambiance Vikings
02. Les Vikings de La Guadeloupe - Assez Palé
03. Les Vikings de La Guadeloupe - Rumbo Melon
04. Les Vikings de La Guadeloupe - Gadé Douvant
05. Les Vikings de La Guadeloupe - Ti Tong Ti Tong
06. Les Vikings de La Guadeloupe - Let's Stay Up Vikings
07. Les Vikings de La Guadeloupe - Ahi Na' Ma
08. Les Vikings de La Guadeloupe - Souvenirs
09. Les Vikings de La Guadeloupe - Retour au pays
10. Les Vikings de La Guadeloupe - Zagalakatéléman
11. Les Vikings de La Guadeloupe - Ka nou pé fé
12. Les Vikings de La Guadeloupe - Claro Que Si
13. Les Vikings de La Guadeloupe - Magdalena
14. Les Vikings de La Guadeloupe - Mikolasie

Exact Audio Copy V1.0 beta 3 from 29. August 2011

EAC extraction logfile from 3. July 2016, 18:01

Les Vikings de La Guadeloupe / Enko On Ti Tou (1966 - 2016)

Used drive : ASUS DRW-2014L1T Adapter: 3 ID: 0

Read mode : Secure
Utilize accurate stream : Yes
Defeat audio cache : Yes
Make use of C2 pointers : No

Read offset correction : 6
Overread into Lead-In and Lead-Out : No
Fill up missing offset samples with silence : Yes
Delete leading and trailing silent blocks : No
Null samples used in CRC calculations : Yes
Used interface : Native Win32 interface for Win NT & 2000
Gap handling : Appended to previous track

Used output format : User Defined Encoder
Selected bitrate : 1024 kBit/s
Quality : High
Add ID3 tag : No
Command line compressor : C:\Program Files (x86)\Exact Audio Copy\Flac\flac.exe
Additional command line options : -8 -V -T "ARTIST=%artist%" -T "TITLE=%title%" -T "ALBUM=%albumtitle%" -T "DATE=%year%" -T "TRACKNUMBER=%tracknr%" -T "GENRE=%genre%" -T "PERFORMER=%albuminterpret%" -T "COMPOSER=%composer%" %haslyrics%–tag-from-file=LYRICS="%lyricsfile%"%haslyrics% -T "ALBUMARTIST=%albumartist%" -T "DISCNUMBER=%cdnumber%" -T "TOTALDISCS=%totalcds%" -T "TOTALTRACKS=%numtracks%" -T "COMMENT=%comment%" %source% -o %dest%


TOC of the extracted CD

Track | Start | Length | Start sector | End sector
––––––––––––––––––––––––––––-
1 | 0:00.00 | 2:28.37 | 0 | 11136
2 | 2:28.37 | 2:48.68 | 11137 | 23804
3 | 5:17.30 | 3:33.23 | 23805 | 39802
4 | 8:50.53 | 4:44.38 | 39803 | 61140
5 | 13:35.16 | 3:44.01 | 61141 | 77941
6 | 17:19.17 | 6:11.16 | 77942 | 105782
7 | 23:30.33 | 7:04.46 | 105783 | 137628
8 | 30:35.04 | 5:29.47 | 137629 | 162350
9 | 36:04.51 | 7:24.58 | 162351 | 195708
10 | 43:29.34 | 8:04.46 | 195709 | 232054
11 | 51:34.05 | 6:56.60 | 232055 | 263314
12 | 58:30.65 | 5:36.18 | 263315 | 288532
13 | 64:07.08 | 7:27.43 | 288533 | 322100
14 | 71:34.51 | 4:58.62 | 322101 | 344512


Track 1

Filename D:\Telechargements\CDRip Lucas\Les Vikings de La Guadeloupe - Enko On Ti Tou (1966 - 2016) (2016) [FLAC]\01 - Ambiance Vikings.wav

Pre-gap length 0:00:02.00

Peak level 98.3 %
Extraction speed 2.5 X
Track quality 100.0 %
Test CRC 295440D7
Copy CRC 295440D7
Track not present in AccurateRip database
Copy OK

Track 2

Filename D:\Telechargements\CDRip Lucas\Les Vikings de La Guadeloupe - Enko On Ti Tou (1966 - 2016) (2016) [FLAC]\02 - Assez Palé.wav

Pre-gap length 0:00:00.49

Peak level 98.7 %
Extraction speed 2.8 X
Track quality 100.0 %
Test CRC F5378BAF
Copy CRC F5378BAF
Track not present in AccurateRip database
Copy OK

Track 3

Filename D:\Telechargements\CDRip Lucas\Les Vikings de La Guadeloupe - Enko On Ti Tou (1966 - 2016) (2016) [FLAC]\03 - Rumbo Melon.wav

Pre-gap length 0:00:00.49

Peak level 98.4 %
Extraction speed 3.1 X
Track quality 100.0 %
Test CRC 0F90E317
Copy CRC 0F90E317
Track not present in AccurateRip database
Copy OK

Track 4

Filename D:\Telechargements\CDRip Lucas\Les Vikings de La Guadeloupe - Enko On Ti Tou (1966 - 2016) (2016) [FLAC]\04 - Gadé Douvant.wav

Pre-gap length 0:00:00.49

Peak level 98.3 %
Extraction speed 2.1 X
Track quality 99.9 %
Test CRC 2E51B61F
Copy CRC 2E51B61F
Track not present in AccurateRip database
Copy OK

Track 5

Filename D:\Telechargements\CDRip Lucas\Les Vikings de La Guadeloupe - Enko On Ti Tou (1966 - 2016) (2016) [FLAC]\05 - Ti Tong Ti Tong.wav

Pre-gap length 0:00:00.49

Peak level 98.8 %
Extraction speed 3.6 X
Track quality 100.0 %
Test CRC 7CE173FD
Copy CRC 7CE173FD
Track not present in AccurateRip database
Copy OK

Track 6

Filename D:\Telechargements\CDRip Lucas\Les Vikings de La Guadeloupe - Enko On Ti Tou (1966 - 2016) (2016) [FLAC]\06 - Let's Stay Up Vikings.wav

Pre-gap length 0:00:00.49

Peak level 98.1 %
Extraction speed 4.0 X
Track quality 100.0 %
Test CRC 1F0A0260
Copy CRC 1F0A0260
Track not present in AccurateRip database
Copy OK

Track 7

Filename D:\Telechargements\CDRip Lucas\Les Vikings de La Guadeloupe - Enko On Ti Tou (1966 - 2016) (2016) [FLAC]\07 - Ahi Na' Ma.wav

Pre-gap length 0:00:00.49

Peak level 98.2 %
Extraction speed 2.8 X
Track quality 99.9 %
Test CRC 9C40A555
Copy CRC 9C40A555
Track not present in AccurateRip database
Copy OK

Track 8

Filename D:\Telechargements\CDRip Lucas\Les Vikings de La Guadeloupe - Enko On Ti Tou (1966 - 2016) (2016) [FLAC]\08 - Souvenirs.wav

Pre-gap length 0:00:00.49

Peak level 97.9 %
Extraction speed 4.6 X
Track quality 100.0 %
Test CRC ECD686ED
Copy CRC ECD686ED
Track not present in AccurateRip database
Copy OK

Track 9

Filename D:\Telechargements\CDRip Lucas\Les Vikings de La Guadeloupe - Enko On Ti Tou (1966 - 2016) (2016) [FLAC]\09 - Retour au pays.wav

Pre-gap length 0:00:00.49

Peak level 98.5 %
Extraction speed 5.0 X
Track quality 100.0 %
Test CRC 77EF1654
Copy CRC 77EF1654
Track not present in AccurateRip database
Copy OK

Track 10

Filename D:\Telechargements\CDRip Lucas\Les Vikings de La Guadeloupe - Enko On Ti Tou (1966 - 2016) (2016) [FLAC]\10 - Zagalakatéléman.wav

Pre-gap length 0:00:00.49

Peak level 97.2 %
Extraction speed 5.4 X
Track quality 100.0 %
Test CRC 97D1FBF0
Copy CRC 97D1FBF0
Track not present in AccurateRip database
Copy OK

Track 11

Filename D:\Telechargements\CDRip Lucas\Les Vikings de La Guadeloupe - Enko On Ti Tou (1966 - 2016) (2016) [FLAC]\11 - Ka nou pé fé.wav

Pre-gap length 0:00:00.49

Peak level 98.6 %
Extraction speed 5.6 X
Track quality 100.0 %
Test CRC 9E2B603F
Copy CRC 9E2B603F
Track not present in AccurateRip database
Copy OK

Track 12

Filename D:\Telechargements\CDRip Lucas\Les Vikings de La Guadeloupe - Enko On Ti Tou (1966 - 2016) (2016) [FLAC]\12 - Claro Que Si.wav

Pre-gap length 0:00:00.49

Peak level 98.7 %
Extraction speed 5.6 X
Track quality 100.0 %
Test CRC 33AC7DE8
Copy CRC 33AC7DE8
Track not present in AccurateRip database
Copy OK

Track 13

Filename D:\Telechargements\CDRip Lucas\Les Vikings de La Guadeloupe - Enko On Ti Tou (1966 - 2016) (2016) [FLAC]\13 - Magdalena.wav

Pre-gap length 0:00:00.49

Peak level 98.5 %
Extraction speed 6.0 X
Track quality 100.0 %
Test CRC C966443B
Copy CRC C966443B
Track not present in AccurateRip database
Copy OK

Track 14

Filename D:\Telechargements\CDRip Lucas\Les Vikings de La Guadeloupe - Enko On Ti Tou (1966 - 2016) (2016) [FLAC]\14 - Mikolasie.wav

Pre-gap length 0:00:00.49

Peak level 97.9 %
Extraction speed 3.6 X
Track quality 99.9 %
Test CRC B955481C
Copy CRC B955481C
Track not present in AccurateRip database
Copy OK


None of the tracks are present in the AccurateRip database

No errors occurred

End of status report

–– CUETools DB Plugin V2.1.3

[CTDB TOCID: DJQVT.8E0wtnWKoZ0zvuHZyO1pk-] found, Submit result: DJQVT.8E0wtnWKoZ0zvuHZyO1pk- has been confirmed
[0fb4d0c0] (1/1) Accurately ripped


==== Log checksum ECA0BD615456F9EDB724945762653EC21C97CC03779AB90F8360C9619942D792 ====