Subcategories

Longnon Big Band - Encore Du Bop ??? (2009) {Integral Jazz / Jean-Loup Longnon}

Posted By: ruskaval
Longnon Big Band - Encore Du Bop ??? (2009) {Integral Jazz / Jean-Loup Longnon}

Longnon Big Band - Encore Du Bop ??? (2009) {Integral Jazz / Jean-Loup Longnon}
EAC rip (secure mode) | FLAC (tracks)+CUE+LOG -> 493 Mb | MP3 @320 -> 178 Mb
Full Artwork @ 300 dpi (png) -> 19 Mb | 5% repair rar
© 2009 Integral Jazz / Jean-Loup Longnon
Jazz / Modern Big Band / Trumpet

Prix Django Reinhardt, prix Boris Vian, prix audiovisuel de l'Europe, Django d'or, au fil des années, de clubs en concerts, d'enregistrements en festivals, à travers son jeu inventif et sa présence scènique, il s'est affirmé comme une des créatrices personnalités du jazz en europe. Le Monde, Francis Marmande : Le Big Band de Jean-Loup Longnon Trompettiste de tempérament, personnalité bruyante, Jean-Loup Longnon n'est jamais si vivant qu'à la tête de sa légion. Il aime les masses sonores, les chocs de sections, l'allégresse et la puissance que dégage une machine qui tourne. Il a les moyens de le faire savoir : l'entourage choisi, le goût de l'écriture et l'énergie communicative de la direction d'orchestre.
Django Reinhardt Prize, Boris Vian Prize, Audiovisual Prize of Europe, Django d'or, over the years, from clubs to concerts, from recordings to festivals, through his inventive play and his scenic presence. Asserted as one of the creative personalities of jazz in europe. Le Monde, Francis Marmande: The Big Band by Jean-Loup Longnon Trumpeter of temperament, noisy personality, Jean-Loup Longnon is never so alive as at the head of his legion. He likes the sound masses, the shocks of sections, the joy and the power that comes from a rotating machine. He has the means to make it known: the chosen entourage, the taste for writing and the communicative energy of the orchestra conducting.

tracklist:
01 - Tels a vivre
02 - Two notes blues
03 - Le cure de Camaret
04 - Encore du bop
05 - Stephanie's dream
06 - On est pas la pour se faire engueuler
07 - I got you under my skin
08 - Lush life
09 - Que reste t-il de nos amours
10 - Tour de force
11 - L'important c'est la rose
12 - Step to the bop

Exact Audio Copy V0.99 prebeta 5 from 4. May 2009

EAC extraction logfile from 20. October 2010, 15:55

Longnon Big Band / Encore du bop

Used drive : PLEXTOR DVDR PX-860A Adapter: 0 ID: 0

Read mode : Secure
Utilize accurate stream : Yes
Defeat audio cache : Yes
Make use of C2 pointers : No

Read offset correction : 96
Overread into Lead-In and Lead-Out : No
Fill up missing offset samples with silence : Yes
Delete leading and trailing silent blocks : No
Null samples used in CRC calculations : Yes
Used interface : Native Win32 interface for Win NT & 2000
Gap handling : Appended to previous track

Used output format : User Defined Encoder
Selected bitrate : 768 kBit/s
Quality : High
Add ID3 tag : No
Command line compressor : C:\Program Files\FLAC\flac.exe
Additional command line options : -8 -V -T "ARTIST=%a" -T "TITLE=%t" -T "ALBUM=%g" -T "DATE=%y" -T "TRACKNUMBER=%n" -T "TOTALTRACKS=%x" -T "GENRE=%m" -T "ALBUM ARTIST=%v" -T "ALBUMARTIST=%v" -T "COMMENT=EAC V0.99 prebeta 5, Secure Mode, Test & Copy, Accurat


TOC of the extracted CD

Track | Start | Length | Start sector | End sector
––––––––––––––––––––––––––––-
1 | 0:00.00 | 4:41.01 | 0 | 21075
2 | 4:41.01 | 8:04.36 | 21076 | 57411
3 | 12:45.37 | 7:18.02 | 57412 | 90263
4 | 20:03.39 | 7:18.24 | 90264 | 123137
5 | 27:21.63 | 8:15.33 | 123138 | 160295
6 | 35:37.21 | 4:34.65 | 160296 | 180910
7 | 40:12.11 | 4:07.35 | 180911 | 199470
8 | 44:19.46 | 8:17.51 | 199471 | 236796
9 | 52:37.22 | 4:07.42 | 236797 | 255363
10 | 56:44.64 | 6:06.38 | 255364 | 282851
11 | 62:51.27 | 6:57.36 | 282852 | 314162
12 | 69:48.63 | 5:59.70 | 314163 | 341157


Track 1

Filename S:\DL\Longnon Big Band - Encore du bop (2009) [FLAC]\01 - Tels a vivre.wav

Pre-gap length 0:00:02.00

Peak level 98.0 %
Track quality 100.0 %
Test CRC 8C7F3135
Copy CRC 8C7F3135
Track not present in AccurateRip database
Copy OK

Track 2

Filename S:\DL\Longnon Big Band - Encore du bop (2009) [FLAC]\02 - Two notes blues.wav

Pre-gap length 0:00:02.00

Peak level 99.4 %
Track quality 99.9 %
Test CRC C795F342
Copy CRC C795F342
Track not present in AccurateRip database
Copy OK

Track 3

Filename S:\DL\Longnon Big Band - Encore du bop (2009) [FLAC]\03 - Le cure de Camaret.wav

Pre-gap length 0:00:02.00

Peak level 99.4 %
Track quality 100.0 %
Test CRC 1EA0A072
Copy CRC 1EA0A072
Track not present in AccurateRip database
Copy OK

Track 4

Filename S:\DL\Longnon Big Band - Encore du bop (2009) [FLAC]\04 - Encore du bop.wav

Pre-gap length 0:00:01.66

Peak level 98.8 %
Track quality 99.9 %
Test CRC BDA1CD21
Copy CRC BDA1CD21
Track not present in AccurateRip database
Copy OK

Track 5

Filename S:\DL\Longnon Big Band - Encore du bop (2009) [FLAC]\05 - Stephanie's dream.wav

Pre-gap length 0:00:01.82

Peak level 97.7 %
Track quality 99.9 %
Test CRC B2E4EF96
Copy CRC B2E4EF96
Track not present in AccurateRip database
Copy OK

Track 6

Filename S:\DL\Longnon Big Band - Encore du bop (2009) [FLAC]\06 - On est pas la pour se faire engueuler.wav

Pre-gap length 0:00:02.17

Peak level 98.9 %
Track quality 100.0 %
Test CRC A25F1A7B
Copy CRC A25F1A7B
Track not present in AccurateRip database
Copy OK

Track 7

Filename S:\DL\Longnon Big Band - Encore du bop (2009) [FLAC]\07 - I got you under my skin.wav

Pre-gap length 0:00:02.00

Peak level 97.7 %
Track quality 100.0 %
Test CRC 8C595C80
Copy CRC 8C595C80
Track not present in AccurateRip database
Copy OK

Track 8

Filename S:\DL\Longnon Big Band - Encore du bop (2009) [FLAC]\08 - Lush life.wav

Pre-gap length 0:00:02.00

Peak level 93.9 %
Track quality 100.0 %
Test CRC 5F2990E9
Copy CRC 5F2990E9
Track not present in AccurateRip database
Copy OK

Track 9

Filename S:\DL\Longnon Big Band - Encore du bop (2009) [FLAC]\09 - Que reste t-il de nos amours.wav

Pre-gap length 0:00:02.00

Peak level 93.1 %
Track quality 100.0 %
Test CRC 9DB025B0
Copy CRC 9DB025B0
Track not present in AccurateRip database
Copy OK

Track 10

Filename S:\DL\Longnon Big Band - Encore du bop (2009) [FLAC]\10 - Tour de force.wav

Pre-gap length 0:00:02.00

Peak level 96.6 %
Track quality 100.0 %
Test CRC 66B6FE46
Copy CRC 66B6FE46
Track not present in AccurateRip database
Copy OK

Track 11

Filename S:\DL\Longnon Big Band - Encore du bop (2009) [FLAC]\11 - L'important c'est la rose.wav

Pre-gap length 0:00:02.00

Peak level 97.6 %
Track quality 100.0 %
Test CRC A8DFD90D
Copy CRC A8DFD90D
Track not present in AccurateRip database
Copy OK

Track 12

Filename S:\DL\Longnon Big Band - Encore du bop (2009) [FLAC]\12 - Step to the bop.wav

Pre-gap length 0:00:02.00

Peak level 99.4 %
Track quality 100.0 %
Test CRC C11E8C16
Copy CRC C11E8C16
Track not present in AccurateRip database
Copy OK


None of the tracks are present in the AccurateRip database

No errors occurred

End of status report


Longnon Big Band - Encore Du Bop ??? (2009) {Integral Jazz / Jean-Loup Longnon}

Longnon Big Band - Encore Du Bop ??? (2009) {Integral Jazz / Jean-Loup Longnon}




NEXT -> more a modern progressive big bands on the way…