Subcategories

Lyrics Born - Real People (2015 )

Posted By: aasana
Lyrics Born - Real People (2015 )

Lyrics Born - Real People (2015)
EAC Rip | FLAC (tracks+.cue) | 00:44:11 | 296,82 MB
Hip Hop, Soul, Funk, RnB | Label: Mobile Home Recordings

Produced by Robert Mercurio & Ben Ellman of Galactic, 'Real People' blends LB's unique style of Hip-Hop with New Orleans funk for an eclectic album full of varying styles of music blended seamlessly in to a tasty Lyrics Born Gumbo with live instrumentation from Stanton Moore, Trombone Shorty, Preservation Hall Jazz Band, Ivan Neville, Corey Henry, Galactic and featured artists Corey Glover (Living Colour), David Shaw (The Revivalists) and Joyo Velarde.

01. Lyrics Born - Real People (3:07)
02. Lyrics Born feat. David Shaw - Chest Wide Open (3:48)
03. Lyrics Born - $Ir Racha (3:39)
04. Lyrics Born feat. Ivan Neville - All Hail the Queen (Ma Belle Reine) (2:44)
05. Lyrics Born feat. Galactic - Rock-Rock-Away (3:07)
06. Lyrics Born - Holy Matrimony (3:22)
07. Lyrics Born feat. Ivan Neville - Around the Bend (3:41)
08. Lyrics Born - Good Riddance (3:07)
09. Lyrics Born feat. Galactic - WTF? (3:41)
10. Lyrics Born feat. Corey Henry - Mr. D.I.L.L.I.G.A.F. (3:29)
11. Lyrics Born - In Confidence (3:36)
12. Lyrics Born feat. Preservation Hall Jazz Band - That's It! (3:20)
13. Lyrics Born feat. Corey Glover & Trombone Shorty - 2nd Act (Phoenix Rising) (3:30)

Exact Audio Copy V1.3 from 2. September 2016

EAC extraction logfile from 23. September 2018, 1:05

Lyrics Born / Real People

Used drive : Dell DVD+/-RW DW316 Adapter: 1 ID: 0

Read mode : Secure
Utilize accurate stream : Yes
Defeat audio cache : Yes
Make use of C2 pointers : No

Read offset correction : 6
Overread into Lead-In and Lead-Out : No
Fill up missing offset samples with silence : Yes
Delete leading and trailing silent blocks : No
Null samples used in CRC calculations : Yes
Used interface : Native Win32 interface for Win NT & 2000
Gap handling : Appended to previous track

Used output format : User Defined Encoder
Selected bitrate : 1024 kBit/s
Quality : High
Add ID3 tag : No
Command line compressor : C:\Program Files (x86)\Exact Audio Copy\Flac\flac.exe
Additional command line options : -8 -e -p -V -T "ARTIST=%artist%" -T "TITLE=%title%" -T "ALBUM=%albumtitle%" -T "DATE=%year%" -T "TRACKNUMBER=%tracknr%" -T "GENRE=%genre%" -T "PERFORMER=%albuminterpret%" -T "COMPOSER=%composer%" %haslyrics%–tag-from-file=LYRICS="%lyricsfile%"%haslyrics% -T "ALBUMARTIST=%albumartist%" -T "DISCNUMBER=%cdnumber%" -T "TOTALDISCS=%totalcds%" -T "TOTALTRACKS=%numtracks%" -T "COMMENT=%comment%" %source% -o %dest%


TOC of the extracted CD

Track | Start | Length | Start sector | End sector
––––––––––––––––––––––––––––-
1 | 0:00.00 | 3:07.10 | 0 | 14034
2 | 3:07.10 | 3:48.12 | 14035 | 31146
3 | 6:55.22 | 3:39.35 | 31147 | 47606
4 | 10:34.57 | 2:43.38 | 47607 | 59869
5 | 13:18.20 | 3:07.30 | 59870 | 73924
6 | 16:25.50 | 3:22.05 | 73925 | 89079
7 | 19:47.55 | 3:41.03 | 89080 | 105657
8 | 23:28.58 | 3:06.56 | 105658 | 119663
9 | 26:35.39 | 3:41.12 | 119664 | 136250
10 | 30:16.51 | 3:29.27 | 136251 | 151952
11 | 33:46.03 | 3:36.14 | 151953 | 168166
12 | 37:22.17 | 3:19.40 | 168167 | 183131
13 | 40:41.57 | 3:29.51 | 183132 | 198857


Track 1

Filename C:\EAC\Dropbox\Lyrics Born - Real People (2015) [FLAC]\01. Lyrics Born - Real People.wav

Pre-gap length 0:00:02.00

Peak level 100.0 %
Extraction speed 1.0 X
Track quality 100.0 %
Test CRC 500EA8C6
Copy CRC 500EA8C6
Accurately ripped (confidence 1) [DCA7A591] (AR v2)
Copy OK

Track 2

Filename C:\EAC\Dropbox\Lyrics Born - Real People (2015) [FLAC]\02. Lyrics Born feat. David Shaw - Chest Wide Open.wav

Peak level 99.3 %
Extraction speed 1.2 X
Track quality 100.0 %
Test CRC D801BC22
Copy CRC D801BC22
Accurately ripped (confidence 1) [8975B793] (AR v2)
Copy OK

Track 3

Filename C:\EAC\Dropbox\Lyrics Born - Real People (2015) [FLAC]\03. Lyrics Born - $Ir Racha.wav

Peak level 100.0 %
Extraction speed 1.1 X
Track quality 99.9 %
Test CRC 9B801122
Copy CRC 9B801122
Accurately ripped (confidence 1) [C1173E0B] (AR v2)
Copy OK

Track 4

Filename C:\EAC\Dropbox\Lyrics Born - Real People (2015) [FLAC]\04. Lyrics Born feat. Ivan Neville - All Hail the Queen (Ma Belle Reine).wav

Peak level 100.0 %
Extraction speed 1.3 X
Track quality 100.0 %
Test CRC D67657CD
Copy CRC D67657CD
Accurately ripped (confidence 1) [4E6AF975] (AR v2)
Copy OK

Track 5

Filename C:\EAC\Dropbox\Lyrics Born - Real People (2015) [FLAC]\05. Lyrics Born feat. Galactic - Rock-Rock-Away.wav

Peak level 100.0 %
Extraction speed 1.4 X
Track quality 100.0 %
Test CRC AABAA551
Copy CRC AABAA551
Accurately ripped (confidence 1) [CC0FFF81] (AR v2)
Copy OK

Track 6

Filename C:\EAC\Dropbox\Lyrics Born - Real People (2015) [FLAC]\06. Lyrics Born - Holy Matrimony.wav

Peak level 100.0 %
Extraction speed 1.5 X
Track quality 100.0 %
Test CRC E96FBBEE
Copy CRC E96FBBEE
Accurately ripped (confidence 1) [CB040866] (AR v2)
Copy OK

Track 7

Filename C:\EAC\Dropbox\Lyrics Born - Real People (2015) [FLAC]\07. Lyrics Born feat. Ivan Neville - Around the Bend.wav

Peak level 100.0 %
Extraction speed 1.6 X
Track quality 100.0 %
Test CRC EB9F21BF
Copy CRC EB9F21BF
Accurately ripped (confidence 1) [D6144A20] (AR v2)
Copy OK

Track 8

Filename C:\EAC\Dropbox\Lyrics Born - Real People (2015) [FLAC]\08. Lyrics Born - Good Riddance.wav

Peak level 100.0 %
Extraction speed 1.6 X
Track quality 100.0 %
Test CRC 5B61E290
Copy CRC 5B61E290
Accurately ripped (confidence 1) [2447FD4E] (AR v2)
Copy OK

Track 9

Filename C:\EAC\Dropbox\Lyrics Born - Real People (2015) [FLAC]\09. Lyrics Born feat. Galactic - WTF.wav

Peak level 100.0 %
Extraction speed 1.8 X
Track quality 100.0 %
Test CRC B3F1E80C
Copy CRC B3F1E80C
Accurately ripped (confidence 1) [D4483C26] (AR v2)
Copy OK

Track 10

Filename C:\EAC\Dropbox\Lyrics Born - Real People (2015) [FLAC]\10. Lyrics Born feat. Corey Henry - Mr. D.I.L.L.I.G.A.F..wav

Peak level 100.0 %
Extraction speed 1.8 X
Track quality 100.0 %
Test CRC 695AD94B
Copy CRC 695AD94B
Accurately ripped (confidence 1) [DB0FC5A6] (AR v2)
Copy OK

Track 11

Filename C:\EAC\Dropbox\Lyrics Born - Real People (2015) [FLAC]\11. Lyrics Born - In Confidence.wav

Peak level 100.0 %
Extraction speed 1.9 X
Track quality 100.0 %
Test CRC 79F0F8D8
Copy CRC 79F0F8D8
Accurately ripped (confidence 1) [7013DDBE] (AR v2)
Copy OK

Track 12

Filename C:\EAC\Dropbox\Lyrics Born - Real People (2015) [FLAC]\12. Lyrics Born feat. Preservation Hall Jazz Band - That's It!.wav

Peak level 100.0 %
Extraction speed 1.7 X
Track quality 99.9 %
Test CRC 8B87F95B
Copy CRC 8B87F95B
Accurately ripped (confidence 1) [73429A49] (AR v2)
Copy OK

Track 13

Filename C:\EAC\Dropbox\Lyrics Born - Real People (2015) [FLAC]\13. Lyrics Born feat. Corey Glover & Trombone Shorty - 2nd Act (Phoenix Rising).wav

Peak level 100.0 %
Extraction speed 2.0 X
Track quality 100.0 %
Test CRC D7777B2F
Copy CRC D7777B2F
Accurately ripped (confidence 1) [77D6B292] (AR v2)
Copy OK


All tracks accurately ripped

No errors occurred

End of status report

–– CUETools DB Plugin V2.1.6

[CTDB TOCID: pppR1_v_OaUtfuNa9ad8bj486EM-] found
Submit result: pppR1_v_OaUtfuNa9ad8bj486EM- has been confirmed
Track | CTDB Status
1 | (3/3) Accurately ripped
2 | (3/3) Accurately ripped
3 | (3/3) Accurately ripped
4 | (3/3) Accurately ripped
5 | (3/3) Accurately ripped
6 | (3/3) Accurately ripped
7 | (3/3) Accurately ripped
8 | (3/3) Accurately ripped
9 | (3/3) Accurately ripped
10 | (3/3) Accurately ripped
11 | (3/3) Accurately ripped
12 | (3/3) Accurately ripped
13 | (3/3) Accurately ripped


==== Log checksum 081DFB258539B26F4E338746CE60D52CEE9CCF0AC30254EE059E4AEF5254E123 ====