Subcategories

Mahalia Jackson ‎- The Essential Mahalia Jackson (2004)

Posted By: delpotro
Mahalia Jackson ‎- The Essential Mahalia Jackson (2004)

Mahalia Jackson ‎- The Essential Mahalia Jackson (2004)
EAC Rip | FLAC (tracks+log+.cue) - 715 Mb | Digital booklet - 23 Mb | 02:27:41
Gospel, Female Vocal | Label: Columbia Records, Legacy Recordings

Mahalia Jackson rewrote the rules for singing gospel in the late '40s by bringing blues phrasing and other secular elements into sacred song, and with her powerful alto, she sang with an immediacy and conviction that are still startling when they break out of the speakers some 30 years after her death. This two-disc set collects tracks from Jackson's long stay at Columbia Records, as well as a few tracks from her previous label, Apollo Records, where she recorded from 1947 until signing with Columbia in 1954.

What makes this set feel like more than a greatest-hits collection is the inspired sequencing, which doesn't move chronologically but instead is paced like a concert, helped by the placement of key live tracks, including several from her historic appearance at the 1958 Newport Jazz Festival. Highlights are almost too many to mention, but her elegant version of "Come Sunday" with Duke Ellington & His Orchestra is majestic in scope, and her interpretations of a pair of Thomas A. Dorsey compositions, "It Didn't Cost Very Much" and "I'm Going to Live the Life I Sing About in My Song" are definitive. The funky "Let the Church Roll On," featuring some wonderful stop-start stuttering piano work from Mildred Falls, rocks the house, as does the rousing, jazzy version of "Joshua Fit the Battle of Jericho" that is included here. A beautiful and heartbreaking reading of "I've Been Buked" from Columbia's tape archives is another obvious high point. No one could worry over a note like Mahalia Jackson. The Essential Mahalia Jackson makes a marvelous introduction to the Colombia Records era of this powerful and soulful singer, and coupled with the earlier three-disc Apollo Sessions, paints a complete picture of an American treasure.
Tracklist:
1.1 How I Got Over (Mono) (Live)
1.2 Trouble Of The World (Mono)
1.3 He's Got The Whole World In His Hands (Live)
1.4 Walk In Jerusalem
1.5 Were You There? (Live)
1.6 Walk On By Faith
1.7 His Eye Is On The Sparrow
1.8 I Found The Answer
1.9 Take My Hand, Precious Lord (Mono)
1.10 Joshua Fit The Battle Of Jericho
1.11 The Lord's Prayer (Live)
1.12 Walk Over God's Heaven (Mono)
1.13 My God Is Real
1.14 Just A Little While To Stay Here
1.15 There Is A Balm In Gilead (Live)
1.16 When The Saints Go Marching In (Live)
1.17 Let The Church Roll On (Mono)
1.18 You'll Never Walk Alone (Live)

2.1 In The Upper Room
2.2 Nobody Knows The Trouble I've Seen
2.3 Calvary (Live)
2.4 Didn't It Rain (Live)
2.5 If I Can Help Somebody
2.6 I'm On My Way (Live)
2.7 I Can Put My Trust In Jesus
2.8 I Don't Cost Very Much
2.9 Part IV (Aka Come Sunday)
2.10 Down By The Riverside (Mono)
2.11 Dig A Little Deeper
2.12 Come On Children, Let's Sing
2.13 I've Been Buked
2.14 I Will Move On Up A Little Higher (Part 1)
2.15 I Will Move On Up A Little Higher (Part 2)
2.16 Great Gettin' Up Morning
2.17 I'm Goin' To Live The Life I Sing About In My Song (Live)
2.18 The Treasure Of Love (Mono)
2.19 Elijah Rock (Live)

Exact Audio Copy V1.0 beta 3 from 29. August 2011

EAC extraction logfile from 16. April 2013, 16:31

Mahalia Jackson / The Essential Mahalia Jackson Disc 1

Used drive : hp BD B DH8E2L Adapter: 0 ID: 1

Read mode : Secure
Utilize accurate stream : Yes
Defeat audio cache : Yes
Make use of C2 pointers : No

Read offset correction : 6
Overread into Lead-In and Lead-Out : No
Fill up missing offset samples with silence : Yes
Delete leading and trailing silent blocks : No
Null samples used in CRC calculations : Yes
Used interface : Native Win32 interface for Win NT & 2000
Gap handling : Appended to previous track

Used output format : User Defined Encoder
Selected bitrate : 1024 kBit/s
Quality : High
Add ID3 tag : No
Command line compressor : C:\Program Files (x86)\Exact Audio Copy\Flac\flac.exe
Additional command line options : -8 -V -T "ARTIST=%artist%" -T "TITLE=%title%" -T "ALBUM=%albumtitle%" -T "DATE=%year%" -T "TRACKNUMBER=%tracknr1%" -T "GENRE=%genre%" -T "PERFORMER=%albuminterpret%" -T "COMPOSER=%composer%" %haslyrics%–tag-from-file=LYRICS="%lyricsfile%"%haslyrics% -T "ALBUMARTIST=%albumartist%" -T "DISCNUMBER=%cdnumber%" -T "TOTALDISCS=%totalcds%" -T "TOTALTRACKS=%numtracks%" -T "COMMENT=%comment%" %source% -o %dest%


TOC of the extracted CD

Track | Start | Length | Start sector | End sector
––––––––––––––––––––––––––––-
1 | 0:00.00 | 7:18.57 | 0 | 32906
2 | 7:18.57 | 4:46.13 | 32907 | 54369
3 | 12:04.70 | 2:40.27 | 54370 | 66396
4 | 14:45.22 | 2:40.73 | 66397 | 78469
5 | 17:26.20 | 5:37.17 | 78470 | 103761
6 | 23:03.37 | 3:55.33 | 103762 | 121419
7 | 26:58.70 | 4:23.37 | 121420 | 141181
8 | 31:22.32 | 4:20.38 | 141182 | 160719
9 | 35:42.70 | 4:14.22 | 160720 | 179791
10 | 39:57.17 | 2:06.50 | 179792 | 189291
11 | 42:03.67 | 4:01.50 | 189292 | 207416
12 | 46:05.42 | 2:35.55 | 207417 | 219096
13 | 48:41.22 | 3:39.20 | 219097 | 235541
14 | 52:20.42 | 3:46.38 | 235542 | 252529
15 | 56:07.05 | 5:32.27 | 252530 | 277456
16 | 61:39.32 | 3:03.55 | 277457 | 291236
17 | 64:43.12 | 1:41.40 | 291237 | 298851
18 | 66:24.52 | 4:38.60 | 298852 | 319761


Track 1

Filename F:\Media Conversion\EAC Rips\Mahalia Jackson - The Essential Mahalia Jackson\Disc 1\01 - How I Got Over (Mono) (Live).wav

Pre-gap length 0:00:02.00

Peak level 94.1 %
Extraction speed 5.4 X
Track quality 100.0 %
Test CRC 13CD2EBE
Copy CRC 13CD2EBE
Accurately ripped (confidence 2) [26B8A957] (AR v1)
Copy OK

Track 2

Filename F:\Media Conversion\EAC Rips\Mahalia Jackson - The Essential Mahalia Jackson\Disc 1\02 - Trouble Of The World (Mono).wav

Pre-gap length 0:00:02.06

Peak level 88.0 %
Extraction speed 5.0 X
Track quality 99.9 %
Test CRC 8989F8F5
Copy CRC 8989F8F5
Accurately ripped (confidence 2) [86B31308] (AR v1)
Copy OK

Track 3

Filename F:\Media Conversion\EAC Rips\Mahalia Jackson - The Essential Mahalia Jackson\Disc 1\03 - He's Got The Whole World In His Hands (Live).wav

Pre-gap length 0:00:02.04

Peak level 84.6 %
Extraction speed 4.4 X
Track quality 99.9 %
Test CRC EE68C0C7
Copy CRC EE68C0C7
Accurately ripped (confidence 2) [2992A321] (AR v1)
Copy OK

Track 4

Filename F:\Media Conversion\EAC Rips\Mahalia Jackson - The Essential Mahalia Jackson\Disc 1\04 - Walk In Jerusalem.wav

Pre-gap length 0:00:03.29

Peak level 83.9 %
Extraction speed 4.5 X
Track quality 99.9 %
Test CRC 2204BA76
Copy CRC 2204BA76
Accurately ripped (confidence 2) [778659D0] (AR v1)
Copy OK

Track 5

Filename F:\Media Conversion\EAC Rips\Mahalia Jackson - The Essential Mahalia Jackson\Disc 1\05 - Were You There (Live).wav

Pre-gap length 0:00:02.40

Peak level 93.4 %
Extraction speed 7.1 X
Track quality 100.0 %
Test CRC 8CA8A3EC
Copy CRC 8CA8A3EC
Accurately ripped (confidence 2) [6CE169F5] (AR v1)
Copy OK

Track 6

Filename F:\Media Conversion\EAC Rips\Mahalia Jackson - The Essential Mahalia Jackson\Disc 1\06 - Walk On By Faith.wav

Pre-gap length 0:00:02.09

Peak level 90.6 %
Extraction speed 7.2 X
Track quality 100.0 %
Test CRC 9793978C
Copy CRC 9793978C
Accurately ripped (confidence 2) [8F80D67F] (AR v1)
Copy OK

Track 7

Filename F:\Media Conversion\EAC Rips\Mahalia Jackson - The Essential Mahalia Jackson\Disc 1\07 - His Eye Is On The Sparrow.wav

Pre-gap length 0:00:02.20

Peak level 78.0 %
Extraction speed 7.6 X
Track quality 100.0 %
Test CRC 47B485CC
Copy CRC 47B485CC
Accurately ripped (confidence 2) [6ED54B57] (AR v1)
Copy OK

Track 8

Filename F:\Media Conversion\EAC Rips\Mahalia Jackson - The Essential Mahalia Jackson\Disc 1\08 - I Found The Answer.wav

Pre-gap length 0:00:02.29

Peak level 100.0 %
Extraction speed 7.9 X
Track quality 100.0 %
Test CRC 7CCEBD45
Copy CRC 7CCEBD45
Accurately ripped (confidence 2) [6BCBC2AD] (AR v1)
Copy OK

Track 9

Filename F:\Media Conversion\EAC Rips\Mahalia Jackson - The Essential Mahalia Jackson\Disc 1\09 - Take My Hand, Precious Lord (Mono).wav

Pre-gap length 0:00:02.80

Peak level 60.1 %
Extraction speed 6.7 X
Track quality 99.9 %
Test CRC 4F9AF561
Copy CRC 4F9AF561
Accurately ripped (confidence 2) [6BD597ED] (AR v1)
Copy OK

Track 10

Filename F:\Media Conversion\EAC Rips\Mahalia Jackson - The Essential Mahalia Jackson\Disc 1\10 - Joshua Fit The Battle Of Jericho.wav

Pre-gap length 0:00:01.89

Peak level 71.7 %
Extraction speed 7.5 X
Track quality 100.0 %
Test CRC A06182D1
Copy CRC A06182D1
Accurately ripped (confidence 2) [4967A185] (AR v1)
Copy OK

Track 11

Filename F:\Media Conversion\EAC Rips\Mahalia Jackson - The Essential Mahalia Jackson\Disc 1\11 - The Lord's Prayer (Live).wav

Pre-gap length 0:00:01.66

Peak level 88.4 %
Extraction speed 6.9 X
Track quality 99.9 %
Test CRC 2D1163E1
Copy CRC 2D1163E1
Accurately ripped (confidence 2) [D7592FA6] (AR v1)
Copy OK

Track 12

Filename F:\Media Conversion\EAC Rips\Mahalia Jackson - The Essential Mahalia Jackson\Disc 1\12 - Walk Over God's Heaven (Mono).wav

Pre-gap length 0:00:02.26

Peak level 82.2 %
Extraction speed 8.1 X
Track quality 100.0 %
Test CRC 47B6EA3D
Copy CRC 47B6EA3D
Accurately ripped (confidence 2) [F544C737] (AR v1)
Copy OK

Track 13

Filename F:\Media Conversion\EAC Rips\Mahalia Jackson - The Essential Mahalia Jackson\Disc 1\13 - My God Is Real.wav

Pre-gap length 0:00:02.09

Peak level 79.7 %
Extraction speed 8.8 X
Track quality 100.0 %
Test CRC B34792D1
Copy CRC B34792D1
Accurately ripped (confidence 2) [5DBB3BAD] (AR v1)
Copy OK

Track 14

Filename F:\Media Conversion\EAC Rips\Mahalia Jackson - The Essential Mahalia Jackson\Disc 1\14 - Just A Little While To Stay Here.wav

Pre-gap length 0:00:01.93

Peak level 88.8 %
Extraction speed 9.0 X
Track quality 100.0 %
Test CRC E8AB81F4
Copy CRC E8AB81F4
Accurately ripped (confidence 2) [AAC6F994] (AR v1)
Copy OK

Track 15

Filename F:\Media Conversion\EAC Rips\Mahalia Jackson - The Essential Mahalia Jackson\Disc 1\15 - There Is a Balm In Gilead (Live).wav

Pre-gap length 0:00:02.44

Peak level 100.0 %
Extraction speed 8.2 X
Track quality 99.9 %
Test CRC C6E0DE92
Copy CRC C6E0DE92
Accurately ripped (confidence 2) [5FD42B1D] (AR v1)
Copy OK

Track 16

Filename F:\Media Conversion\EAC Rips\Mahalia Jackson - The Essential Mahalia Jackson\Disc 1\16 - When The Saints Go Marching In (Live).wav

Pre-gap length 0:00:02.02

Peak level 89.6 %
Extraction speed 9.2 X
Track quality 100.0 %
Test CRC D1999AC7
Copy CRC D1999AC7
Accurately ripped (confidence 2) [9575CCC3] (AR v1)
Copy OK

Track 17

Filename F:\Media Conversion\EAC Rips\Mahalia Jackson - The Essential Mahalia Jackson\Disc 1\17 - Let The Church Roll On (Mono).wav

Pre-gap length 0:00:02.49

Peak level 97.3 %
Extraction speed 8.2 X
Track quality 100.0 %
Test CRC 4864EB58
Copy CRC 4864EB58
Accurately ripped (confidence 2) [33BC4EB8] (AR v1)
Copy OK

Track 18

Filename F:\Media Conversion\EAC Rips\Mahalia Jackson - The Essential Mahalia Jackson\Disc 1\18 - You'll Never Walk Alone (Live).wav

Pre-gap length 0:00:02.62

Peak level 100.0 %
Extraction speed 10.1 X
Track quality 100.0 %
Test CRC 64CB0650
Copy CRC 64CB0650
Accurately ripped (confidence 2) [24EE6D51] (AR v1)
Copy OK


All tracks accurately ripped

No errors occurred

End of status report

==== Log checksum ACAC2EAAB141D57BB88CAB6D2349B6DE8AF7D3456A5817DA35A6A5173DC42DA9 ====

Exact Audio Copy V1.0 beta 3 from 29. August 2011

EAC extraction logfile from 16. April 2013, 17:22

Mahalia Jackson / The Essential Mahalia Jackson Disc 2

Used drive : hp BD B DH8E2L Adapter: 0 ID: 1

Read mode : Secure
Utilize accurate stream : Yes
Defeat audio cache : Yes
Make use of C2 pointers : No

Read offset correction : 6
Overread into Lead-In and Lead-Out : No
Fill up missing offset samples with silence : Yes
Delete leading and trailing silent blocks : No
Null samples used in CRC calculations : Yes
Used interface : Native Win32 interface for Win NT & 2000
Gap handling : Appended to previous track

Used output format : User Defined Encoder
Selected bitrate : 1024 kBit/s
Quality : High
Add ID3 tag : No
Command line compressor : C:\Program Files (x86)\Exact Audio Copy\Flac\flac.exe
Additional command line options : -8 -V -T "ARTIST=%artist%" -T "TITLE=%title%" -T "ALBUM=%albumtitle%" -T "DATE=%year%" -T "TRACKNUMBER=%tracknr1%" -T "GENRE=%genre%" -T "PERFORMER=%albuminterpret%" -T "COMPOSER=%composer%" %haslyrics%–tag-from-file=LYRICS="%lyricsfile%"%haslyrics% -T "ALBUMARTIST=%albumartist%" -T "DISCNUMBER=%cdnumber%" -T "TOTALDISCS=%totalcds%" -T "TOTALTRACKS=%numtracks%" -T "COMMENT=%comment%" %source% -o %dest%


TOC of the extracted CD

Track | Start | Length | Start sector | End sector
––––––––––––––––––––––––––––-
1 | 0:00.00 | 7:11.65 | 0 | 32389
2 | 7:11.65 | 3:47.22 | 32390 | 49436
3 | 10:59.12 | 3:47.23 | 49437 | 66484
4 | 14:46.35 | 3:45.22 | 66485 | 83381
5 | 18:31.57 | 3:46.55 | 83382 | 100386
6 | 22:18.37 | 2:41.13 | 100387 | 112474
7 | 24:59.50 | 3:18.47 | 112475 | 127371
8 | 28:18.22 | 3:18.50 | 127372 | 142271
9 | 31:36.72 | 7:58.60 | 142272 | 178181
10 | 39:35.57 | 2:18.73 | 178182 | 188604
11 | 41:54.55 | 2:57.22 | 188605 | 201901
12 | 44:52.02 | 1:56.25 | 201902 | 210626
13 | 46:48.27 | 6:31.63 | 210627 | 240014
14 | 53:20.15 | 2:41.52 | 240015 | 252141
15 | 56:01.67 | 3:21.45 | 252142 | 267261
16 | 59:23.37 | 3:44.13 | 267262 | 284074
17 | 63:07.50 | 4:18.65 | 284075 | 303489
18 | 67:26.40 | 4:18.20 | 303490 | 322859
19 | 71:44.60 | 4:52.70 | 322860 | 344829


Track 1

Filename F:\Media Conversion\EAC Rips\Mahalia Jackson - The Essential Mahalia Jackson\Disc 2\01 - In The Upper Room.wav

Pre-gap length 0:00:02.00

Peak level 94.0 %
Extraction speed 2.4 X
Track quality 100.0 %
Test CRC D33D2C6E
Copy CRC D33D2C6E
Accurately ripped (confidence 2) [026A94D4] (AR v1)
Copy OK

Track 2

Filename F:\Media Conversion\EAC Rips\Mahalia Jackson - The Essential Mahalia Jackson\Disc 2\02 - Nobody Knows The Trouble I've Seen.wav

Pre-gap length 0:00:01.46

Peak level 100.0 %
Extraction speed 2.5 X
Track quality 100.0 %
Test CRC 705D85CD
Copy CRC 705D85CD
Accurately ripped (confidence 2) [28FCAF8B] (AR v1)
Copy OK

Track 3

Filename F:\Media Conversion\EAC Rips\Mahalia Jackson - The Essential Mahalia Jackson\Disc 2\03 - Calvary (Live).wav

Pre-gap length 0:00:01.66

Peak level 93.7 %
Extraction speed 2.7 X
Track quality 100.0 %
Test CRC 20696218
Copy CRC 20696218
Accurately ripped (confidence 2) [D75E84BD] (AR v1)
Copy OK

Track 4

Filename F:\Media Conversion\EAC Rips\Mahalia Jackson - The Essential Mahalia Jackson\Disc 2\04 - Didn't It Rain (Live).wav

Pre-gap length 0:00:02.40

Peak level 94.9 %
Extraction speed 2.9 X
Track quality 100.0 %
Test CRC 904B667A
Copy CRC 904B667A
Accurately ripped (confidence 2) [16A64210] (AR v1)
Copy OK

Track 5

Filename F:\Media Conversion\EAC Rips\Mahalia Jackson - The Essential Mahalia Jackson\Disc 2\05 - If I Can Help Somebody.wav

Pre-gap length 0:00:02.60

Peak level 95.3 %
Extraction speed 2.2 X
Track quality 99.9 %
Test CRC A61315DB
Copy CRC A61315DB
Accurately ripped (confidence 2) [2B360BC2] (AR v1)
Copy OK

Track 6

Filename F:\Media Conversion\EAC Rips\Mahalia Jackson - The Essential Mahalia Jackson\Disc 2\06 - I'm On My Way (Live).wav

Pre-gap length 0:00:01.00

Peak level 94.9 %
Extraction speed 2.9 X
Track quality 100.0 %
Test CRC 7E24453A
Copy CRC 7E24453A
Accurately ripped (confidence 2) [92DB38FF] (AR v1)
Copy OK

Track 7

Filename F:\Media Conversion\EAC Rips\Mahalia Jackson - The Essential Mahalia Jackson\Disc 2\07 - I Can Put My Trust In Jesus.wav

Pre-gap length 0:00:02.10

Peak level 83.5 %
Extraction speed 3.2 X
Track quality 100.0 %
Test CRC D1477DBE
Copy CRC D1477DBE
Accurately ripped (confidence 2) [A7221FD1] (AR v1)
Copy OK

Track 8

Filename F:\Media Conversion\EAC Rips\Mahalia Jackson - The Essential Mahalia Jackson\Disc 2\08 - It Don't Cost Very Much.wav

Pre-gap length 0:00:03.06

Peak level 94.9 %
Extraction speed 3.3 X
Track quality 100.0 %
Test CRC 955FF80E
Copy CRC 955FF80E
Accurately ripped (confidence 2) [D0F402D2] (AR v1)
Copy OK

Track 9

Filename F:\Media Conversion\EAC Rips\Mahalia Jackson - The Essential Mahalia Jackson\Disc 2\09 - Part IV (aka Come Sunday).wav

Pre-gap length 0:00:02.76

Peak level 100.0 %
Extraction speed 3.8 X
Track quality 100.0 %
Test CRC EE8578C7
Copy CRC EE8578C7
Accurately ripped (confidence 2) [96223757] (AR v1)
Copy OK

Track 10

Filename F:\Media Conversion\EAC Rips\Mahalia Jackson - The Essential Mahalia Jackson\Disc 2\10 - Down By The Riverside (Mono).wav

Pre-gap length 0:00:02.53

Peak level 94.4 %
Extraction speed 3.4 X
Track quality 100.0 %
Test CRC 1BF9F4BB
Copy CRC 1BF9F4BB
Accurately ripped (confidence 2) [00FB3535] (AR v1)
Copy OK

Track 11

Filename F:\Media Conversion\EAC Rips\Mahalia Jackson - The Essential Mahalia Jackson\Disc 2\11 - Dig a Little Deeper.wav

Pre-gap length 0:00:02.53

Peak level 91.1 %
Extraction speed 2.4 X
Track quality 99.9 %
Test CRC 757EB143
Copy CRC 757EB143
Accurately ripped (confidence 2) [2197B63E] (AR v1)
Copy OK

Track 12

Filename F:\Media Conversion\EAC Rips\Mahalia Jackson - The Essential Mahalia Jackson\Disc 2\12 - Come On Children, Let's Sing.wav

Pre-gap length 0:00:01.60

Peak level 99.5 %
Extraction speed 3.4 X
Track quality 100.0 %
Test CRC 10219245
Copy CRC 10219245
Accurately ripped (confidence 2) [2513DEE4] (AR v1)
Copy OK

Track 13

Filename F:\Media Conversion\EAC Rips\Mahalia Jackson - The Essential Mahalia Jackson\Disc 2\13 - I've Been Buked.wav

Pre-gap length 0:00:01.66

Peak level 98.6 %
Extraction speed 4.3 X
Track quality 100.0 %
Test CRC DD18F3EB
Copy CRC DD18F3EB
Accurately ripped (confidence 2) [A62D92CD] (AR v1)
Copy OK

Track 14

Filename F:\Media Conversion\EAC Rips\Mahalia Jackson - The Essential Mahalia Jackson\Disc 2\14 - I Will Move On Up A Little Higher (Part 1).wav

Pre-gap length 0:00:01.77

Peak level 77.2 %
Extraction speed 2.5 X
Track quality 99.9 %
Test CRC 21937EC1
Copy CRC 21937EC1
Accurately ripped (confidence 2) [EB8BFE3B] (AR v1)
Copy OK

Track 15

Filename F:\Media Conversion\EAC Rips\Mahalia Jackson - The Essential Mahalia Jackson\Disc 2\15 - I Will Move On Up A Little Higher (Part 2).wav

Pre-gap length 0:00:01.40

Peak level 91.6 %
Extraction speed 4.1 X
Track quality 100.0 %
Test CRC 9FDF42A8
Copy CRC 9FDF42A8
Accurately ripped (confidence 2) [D200F505] (AR v1)
Copy OK

Track 16

Filename F:\Media Conversion\EAC Rips\Mahalia Jackson - The Essential Mahalia Jackson\Disc 2\16 - Great Gettin' Up Morning.wav

Pre-gap length 0:00:02.42

Peak level 100.0 %
Extraction speed 4.3 X
Track quality 100.0 %
Test CRC F17C0420
Copy CRC F17C0420
Accurately ripped (confidence 2) [BEDFE317] (AR v1)
Copy OK

Track 17

Filename F:\Media Conversion\EAC Rips\Mahalia Jackson - The Essential Mahalia Jackson\Disc 2\17 - I'm Goin' To Live The Life I Sing About In My Song (Live).wav

Pre-gap length 0:00:03.33

Peak level 100.0 %
Extraction speed 4.5 X
Track quality 100.0 %
Test CRC D525DAEC
Copy CRC D525DAEC
Accurately ripped (confidence 2) [8EA91058] (AR v1)
Copy OK

Track 18

Filename F:\Media Conversion\EAC Rips\Mahalia Jackson - The Essential Mahalia Jackson\Disc 2\18 - The Treasure Of Love (Mono).wav

Pre-gap length 0:00:02.44

Peak level 69.1 %
Extraction speed 3.4 X
Track quality 99.9 %
Test CRC 64060623
Copy CRC 64060623
Accurately ripped (confidence 2) [E42DC1DE] (AR v1)
Copy OK

Track 19

Filename F:\Media Conversion\EAC Rips\Mahalia Jackson - The Essential Mahalia Jackson\Disc 2\19 - Elijah Rock (Live).wav

Peak level 89.1 %
Extraction speed 4.7 X
Track quality 100.0 %
Test CRC DF398095
Copy CRC DF398095
Accurately ripped (confidence 2) [99DFFA0D] (AR v1)
Copy OK


All tracks accurately ripped

No errors occurred

End of status report

==== Log checksum A4D786590A0845AF5155CAD057DFD721B388442A4F274CFEA92688FC3430F361 ====

Thanks to the Original ripper leontrotsky !