Tags
Language
Tags

Marc Almond - Open All Night (2010) {Expanded 2-Disc Collectors Edition rec 1999}

Posted By: ruskaval
Marc Almond - Open All Night (2010) {Expanded 2-Disc Collectors Edition rec 1999}

Marc Almond - Open All Night (2010) {Expanded 2-Disc Collectors Edition rec 1999}
EAC rip (secure mode) | FLAC (tracks)+CUE+LOG -> 750 Mb | MP3 @320 -> 314 Mb
Full Artwork @ 300 dpi (jpg) -> 25 Mb | 5% repair rar
© 1999, 2010 Cherry Red Records / Strike Force Entertainment | SFE002
Pop / Adult Alternative Pop / New Romantic / Alternative / Torch Songs / Vocal Pop

Deluxe Special Edition Double Disc Reissue. The first of a series of Marc Almond expanded re-issue CD s, Open All Night was originally released in 1999 and pays respect to the sound of Soft Cell whilst mixing in elements of R&B, gospel, Latin and trip-hop. Features duets with Siouxsie Sioux ( Threat Of Love ) and with former Sneaker Pimps vocalist Kelly Ally ( Almost Diamonds ). Features an 18-track bonus disc, curated by Marc Almond himself of original song demos, film soundtrack rarities and alternative versions of tracks recorded at the time of the 1999 Open All Night Sessions.
Marc Almond - Open All Night (2010) {Expanded 2-Disc Collectors Edition rec 1999}

This is the album that Marc Almond has been trying to make since leaving Soft Cell. He has managed to fuse together all of his influences: pop, disco, dance, electronic, R&B and cabaret all thrown into the mix to produce this incredibly diverse and entertaining album. Perhaps it was the freedom of recording and releasing the CD as a semi-independent release. It was initially to be released in 1998 on the British label Echo, and in fact the first single release from the album, "Black Kiss," was released on that label. Echo released Almond from his contract and he decided to go the independent route; for him, this was a good move. He has produced a very original work that still falls into the Marc Almond mold. Although fans will love this CD, it is accessible enough to attract new listeners as well. Almond has surrounded himself with very talented guests on this album, including Siouxsie Sioux (of Siouxsie and the Banshees and the Creatures), who duets with Almond on the brilliant "Threat of Love." Song topics are the usual for Almond (death, sleaze, love, lust and the like) but what makes this album so interesting is the music: beautiful, well-crafted melodies with heavy dance beats. Not an easy task, but he does it very well. Almond is very talented and a great deal deeper than he has been given credit for. This is a great example of just how creative he is when given the artistic freedom.
Marc Almond - Open All Night (2010) {Expanded 2-Disc Collectors Edition rec 1999}


tracklist:

Disc-1~

1. Night & Dark
2. Bedroom Shrine
3. Tragedy (Take a Look and See)
4. Black Kiss
5. Almost Diamonds (featuring Kelli Ali)
6. Scarlet Bedroom
7. My Love
8. Heart in Velvet
9. Open All Night
10. Threat of Love (featuring Siouxsie)
11. Bad People Kiss
12. Sleepwalker
13. Midnight Soul

Marc Almond - Open All Night (2010) {Expanded 2-Disc Collectors Edition rec 1999}


Disc-2~
1. Scarlet Bedroom (Full Demo Version)
2. Beautiful Light Of Madness (Alternative Version)
3. Beautiful Losers
4. Lonely Go-Go Dancer
5. One Big Soul
6. Rhythm And Blues
7. My Porno Star
8. Half World (Demo)
9. Heart In Velvet (Demo Version)
10. Sleepwalker (Demo Version)
11. Tragedy (Demo Version)
12. Almost Diamonds (Original Demo)
13. Threat Of Love (Neal X Remix) (featuring Siouxsie)
14. Tale Of A Tart (Hell)
15. When Bad People Kiss (Original Version)
16. Black Kiss (Live At The Almeida Theatre)
17. Satan's Child
18. Sequins And Stars

Marc Almond - Open All Night (2010) {Expanded 2-Disc Collectors Edition rec 1999}


Exact Audio Copy V1.0 beta 4 from 7. December 2014

EAC extraction logfile from 23. November 2016, 21:27

Marc almond / Open All Night - Disc 1

Used drive : MATSHITADVD-RAM UJ8D2Q Adapter: 1 ID: 0

Read mode : Secure
Utilize accurate stream : Yes
Defeat audio cache : Yes
Make use of C2 pointers : No

Read offset correction : 103
Overread into Lead-In and Lead-Out : No
Fill up missing offset samples with silence : Yes
Delete leading and trailing silent blocks : No
Null samples used in CRC calculations : Yes
Used interface : Native Win32 interface for Win NT & 2000
Gap handling : Appended to previous track

Used output format : User Defined Encoder
Selected bitrate : 896 kBit/s
Quality : High
Add ID3 tag : No
Command line compressor : C:\Program Files (x86)\Exact Audio Copy\Flac\flac.exe
Additional command line options : -8 -V -T "ARTIST=%artist%" -T "TITLE=%title%" -T "ALBUM=%albumtitle%" -T "DATE=%year%" -T "TRACKNUMBER=%tracknr%" -T "TOTALTRACKS=%numtracks%" -T "GENRE=%genre%" -T "ALBUMARTIST=%albumartist%" -T "ALBUM ARTIST=%albumartist%" -T "COMMENT=EAC Secure Mode, Test & Copy, AccurateRip, FLAC -8" %source%


TOC of the extracted CD

Track | Start | Length | Start sector | End sector
––––––––––––––––––––––––––––-
1 | 0:00.00 | 6:11.60 | 0 | 27884
2 | 6:11.60 | 4:32.53 | 27885 | 48337
3 | 10:44.38 | 4:59.22 | 48338 | 70784
4 | 15:43.60 | 3:36.53 | 70785 | 87037
5 | 19:20.38 | 5:14.66 | 87038 | 110653
6 | 24:35.29 | 3:05.16 | 110654 | 124544
7 | 27:40.45 | 3:44.44 | 124545 | 141388
8 | 31:25.14 | 4:12.21 | 141389 | 160309
9 | 35:37.35 | 5:21.33 | 160310 | 184417
10 | 40:58.68 | 4:40.56 | 184418 | 205473
11 | 45:39.49 | 3:34.48 | 205474 | 221571
12 | 49:14.22 | 4:17.35 | 221572 | 240881
13 | 53:31.57 | 3:47.17 | 240882 | 257923


Track 1

Filename C:\Users\paul\AppData\Local\VirtualStore\Program Files (x86)\Exact Audio Copy\Flac\01 - Night & Dark.wav

Pre-gap length 0:00:02.00

Peak level 100.0 %
Extraction speed 2.6 X
Track quality 100.0 %
Test CRC 0D19D9A6
Copy CRC 0D19D9A6
Accurately ripped (confidence 6) [30238559] (AR v2)
Copy OK

Track 2

Filename C:\Users\paul\AppData\Local\VirtualStore\Program Files (x86)\Exact Audio Copy\Flac\02 - Bedroom Shrine.wav

Pre-gap length 0:00:00.74

Peak level 99.7 %
Extraction speed 2.8 X
Track quality 100.0 %
Test CRC 6A478FFB
Copy CRC 6A478FFB
Accurately ripped (confidence 6) [8B825EB5] (AR v2)
Copy OK

Track 3

Filename C:\Users\paul\AppData\Local\VirtualStore\Program Files (x86)\Exact Audio Copy\Flac\03 - Tragedy (Take A Look And See).wav

Pre-gap length 0:00:01.00

Peak level 99.1 %
Extraction speed 3.1 X
Track quality 100.0 %
Test CRC 12055F73
Copy CRC 12055F73
Accurately ripped (confidence 6) [8531070A] (AR v2)
Copy OK

Track 4

Filename C:\Users\paul\AppData\Local\VirtualStore\Program Files (x86)\Exact Audio Copy\Flac\04 - Black Kiss.wav

Pre-gap length 0:00:00.74

Peak level 99.8 %
Extraction speed 3.2 X
Track quality 100.0 %
Test CRC A6B2BC67
Copy CRC A6B2BC67
Accurately ripped (confidence 6) [163E71D2] (AR v2)
Copy OK

Track 5

Filename C:\Users\paul\AppData\Local\VirtualStore\Program Files (x86)\Exact Audio Copy\Flac\05 - Almost Diamonds.wav

Pre-gap length 0:00:01.00

Peak level 98.8 %
Extraction speed 3.5 X
Track quality 100.0 %
Test CRC 41D4AE24
Copy CRC 41D4AE24
Accurately ripped (confidence 6) [F98A84EB] (AR v2)
Copy OK

Track 6

Filename C:\Users\paul\AppData\Local\VirtualStore\Program Files (x86)\Exact Audio Copy\Flac\06 - Scarlet Bedroom.wav

Pre-gap length 0:00:01.00

Peak level 83.6 %
Extraction speed 3.5 X
Track quality 100.0 %
Test CRC 8849292C
Copy CRC 8849292C
Accurately ripped (confidence 6) [B59973E6] (AR v2)
Copy OK

Track 7

Filename C:\Users\paul\AppData\Local\VirtualStore\Program Files (x86)\Exact Audio Copy\Flac\07 - My Love.wav

Pre-gap length 0:00:01.00

Peak level 99.4 %
Extraction speed 3.7 X
Track quality 100.0 %
Test CRC 442348BA
Copy CRC 442348BA
Accurately ripped (confidence 6) [48517145] (AR v2)
Copy OK

Track 8

Filename C:\Users\paul\AppData\Local\VirtualStore\Program Files (x86)\Exact Audio Copy\Flac\08 - Heart In Velvet.wav

Pre-gap length 0:00:01.00

Peak level 94.9 %
Extraction speed 3.9 X
Track quality 100.0 %
Test CRC B9CC9B78
Copy CRC B9CC9B78
Accurately ripped (confidence 6) [59A718DF] (AR v2)
Copy OK

Track 9

Filename C:\Users\paul\AppData\Local\VirtualStore\Program Files (x86)\Exact Audio Copy\Flac\09 - Open All Night.wav

Pre-gap length 0:00:01.00

Peak level 100.0 %
Extraction speed 4.2 X
Track quality 100.0 %
Test CRC 855D943E
Copy CRC 855D943E
Accurately ripped (confidence 6) [01C35249] (AR v2)
Copy OK

Track 10

Filename C:\Users\paul\AppData\Local\VirtualStore\Program Files (x86)\Exact Audio Copy\Flac\10 - Threat Of Love.wav

Pre-gap length 0:00:01.00

Peak level 99.0 %
Extraction speed 4.3 X
Track quality 100.0 %
Test CRC 34F72FEF
Copy CRC 34F72FEF
Accurately ripped (confidence 7) [48968281] (AR v2)
Copy OK

Track 11

Filename C:\Users\paul\AppData\Local\VirtualStore\Program Files (x86)\Exact Audio Copy\Flac\11 - Bad People Kiss.wav

Pre-gap length 0:00:01.00

Peak level 99.7 %
Extraction speed 4.3 X
Track quality 100.0 %
Test CRC 5005B93E
Copy CRC 5005B93E
Accurately ripped (confidence 7) [83ECFA64] (AR v2)
Copy OK

Track 12

Filename C:\Users\paul\AppData\Local\VirtualStore\Program Files (x86)\Exact Audio Copy\Flac\12 - Sleep Walker.wav

Pre-gap length 0:00:01.00

Peak level 94.2 %
Extraction speed 4.5 X
Track quality 100.0 %
Test CRC 6BC4087C
Copy CRC 6BC4087C
Accurately ripped (confidence 7) [00D6225A] (AR v2)
Copy OK

Track 13

Filename C:\Users\paul\AppData\Local\VirtualStore\Program Files (x86)\Exact Audio Copy\Flac\13 - Midnight Soul.wav

Pre-gap length 0:00:01.00

Peak level 98.9 %
Extraction speed 4.6 X
Track quality 100.0 %
Test CRC 6F34F253
Copy CRC 6F34F253
Accurately ripped (confidence 7) [65972E14] (AR v2)
Copy OK


All tracks accurately ripped

No errors occurred

End of status report

–– CUETools DB Plugin V2.1.4

[CTDB TOCID: OVui8EQIF_UNHaRRalIqMZwidOc-] found
Submit result: OVui8EQIF_UNHaRRalIqMZwidOc- has been confirmed
Track | CTDB Status
1 | (3/3) Accurately ripped
2 | (3/3) Accurately ripped
3 | (3/3) Accurately ripped
4 | (3/3) Accurately ripped
5 | (3/3) Accurately ripped
6 | (3/3) Accurately ripped
7 | (3/3) Accurately ripped
8 | (3/3) Accurately ripped
9 | (3/3) Accurately ripped
10 | (3/3) Accurately ripped
11 | (3/3) Accurately ripped
12 | (3/3) Accurately ripped
13 | (3/3) Accurately ripped


==== Log checksum 751C38A36DE73C321B804298EE2F1CC847930996A4D3D85F16C52F0F919795BA ====

Exact Audio Copy V1.0 beta 4 from 7. December 2014

EAC extraction logfile from 23. November 2016, 20:38

Marc Almond / Open All Night - Disc 2

Used drive : MATSHITADVD-RAM UJ8D2Q Adapter: 1 ID: 0

Read mode : Secure
Utilize accurate stream : Yes
Defeat audio cache : Yes
Make use of C2 pointers : No

Read offset correction : 103
Overread into Lead-In and Lead-Out : No
Fill up missing offset samples with silence : Yes
Delete leading and trailing silent blocks : No
Null samples used in CRC calculations : Yes
Used interface : Native Win32 interface for Win NT & 2000
Gap handling : Appended to previous track

Used output format : User Defined Encoder
Selected bitrate : 896 kBit/s
Quality : High
Add ID3 tag : No
Command line compressor : C:\Program Files (x86)\Exact Audio Copy\Flac\flac.exe
Additional command line options : -8 -V -T "ARTIST=%artist%" -T "TITLE=%title%" -T "ALBUM=%albumtitle%" -T "DATE=%year%" -T "TRACKNUMBER=%tracknr%" -T "TOTALTRACKS=%numtracks%" -T "GENRE=%genre%" -T "ALBUMARTIST=%albumartist%" -T "ALBUM ARTIST=%albumartist%" -T "COMMENT=EAC Secure Mode, Test & Copy, AccurateRip, FLAC -8" %source%


TOC of the extracted CD

Track | Start | Length | Start sector | End sector
––––––––––––––––––––––––––––-
1 | 0:00.00 | 3:08.33 | 0 | 14132
2 | 3:08.33 | 5:15.56 | 14133 | 37813
3 | 8:24.14 | 4:37.15 | 37814 | 58603
4 | 13:01.29 | 3:55.47 | 58604 | 76275
5 | 16:57.01 | 4:32.48 | 76276 | 96723
6 | 21:29.49 | 3:12.10 | 96724 | 111133
7 | 24:41.59 | 2:26.25 | 111134 | 122108
8 | 27:08.09 | 4:18.31 | 122109 | 141489
9 | 31:26.40 | 3:56.27 | 141490 | 159216
10 | 35:22.67 | 3:52.06 | 159217 | 176622
11 | 39:14.73 | 4:59.41 | 176623 | 199088
12 | 44:14.39 | 4:36.58 | 199089 | 219846
13 | 48:51.22 | 5:05.34 | 219847 | 242755
14 | 53:56.56 | 4:54.14 | 242756 | 264819
15 | 58:50.70 | 3:33.63 | 264820 | 280857
16 | 62:24.58 | 5:52.27 | 280858 | 307284
17 | 68:17.10 | 2:54.47 | 307285 | 320381
18 | 71:11.57 | 3:37.00 | 320382 | 336656


Track 1

Filename C:\Users\paul\AppData\Local\VirtualStore\Program Files (x86)\Exact Audio Copy\Flac\01 - Scarlet Bedroom [Full Version Demo].wav

Pre-gap length 0:00:02.00

Peak level 100.0 %
Extraction speed 2.3 X
Track quality 100.0 %
Test CRC D801D611
Copy CRC D801D611
Accurately ripped (confidence 6) [66F00838] (AR v2)
Copy OK

Track 2

Filename C:\Users\paul\AppData\Local\VirtualStore\Program Files (x86)\Exact Audio Copy\Flac\02 - Beautifull Light Of Madness [Alternative Version].wav

Pre-gap length 0:00:01.00

Peak level 95.7 %
Extraction speed 2.1 X
Track quality 99.9 %
Test CRC F68A9437
Copy CRC F68A9437
Accurately ripped (confidence 6) [59B8ED0E] (AR v2)
Copy OK

Track 3

Filename C:\Users\paul\AppData\Local\VirtualStore\Program Files (x86)\Exact Audio Copy\Flac\03 - Beautiful Losers.wav

Pre-gap length 0:00:01.00

Peak level 100.0 %
Extraction speed 2.3 X
Track quality 99.9 %
Test CRC D720B3A9
Copy CRC D720B3A9
Accurately ripped (confidence 6) [3C14AB5F] (AR v2)
Copy OK

Track 4

Filename C:\Users\paul\AppData\Local\VirtualStore\Program Files (x86)\Exact Audio Copy\Flac\04 - Lonely Go Go Dancer.wav

Pre-gap length 0:00:01.00

Peak level 98.9 %
Extraction speed 3.1 X
Track quality 100.0 %
Test CRC 5E6EB2AD
Copy CRC 5E6EB2AD
Accurately ripped (confidence 6) [2F567BF5] (AR v2)
Copy OK

Track 5

Filename C:\Users\paul\AppData\Local\VirtualStore\Program Files (x86)\Exact Audio Copy\Flac\05 - One Big Soul.wav

Pre-gap length 0:00:01.00

Peak level 100.0 %
Extraction speed 3.4 X
Track quality 100.0 %
Test CRC ED476AD6
Copy CRC ED476AD6
Accurately ripped (confidence 6) [28481E58] (AR v2)
Copy OK

Track 6

Filename C:\Users\paul\AppData\Local\VirtualStore\Program Files (x86)\Exact Audio Copy\Flac\06 - Rhythm & Blues.wav

Pre-gap length 0:00:01.00

Peak level 86.1 %
Extraction speed 3.3 X
Track quality 100.0 %
Test CRC 2DDC112C
Copy CRC 2DDC112C
Accurately ripped (confidence 6) [5C87B4BB] (AR v2)
Copy OK

Track 7

Filename C:\Users\paul\AppData\Local\VirtualStore\Program Files (x86)\Exact Audio Copy\Flac\07 - My Porno Star.wav

Pre-gap length 0:00:01.00

Peak level 100.0 %
Extraction speed 3.3 X
Track quality 100.0 %
Test CRC DB5DC23F
Copy CRC DB5DC23F
Accurately ripped (confidence 6) [960BC48A] (AR v2)
Copy OK

Track 8

Filename C:\Users\paul\AppData\Local\VirtualStore\Program Files (x86)\Exact Audio Copy\Flac\08 - Half World [Demo].wav

Pre-gap length 0:00:01.00

Peak level 93.2 %
Extraction speed 3.7 X
Track quality 100.0 %
Test CRC 618A0BEB
Copy CRC 618A0BEB
Accurately ripped (confidence 6) [5E54A7F1] (AR v2)
Copy OK

Track 9

Filename C:\Users\paul\AppData\Local\VirtualStore\Program Files (x86)\Exact Audio Copy\Flac\09 - Heart In Velvet [Demo Version].wav

Pre-gap length 0:00:01.00

Peak level 94.2 %
Extraction speed 2.9 X
Track quality 99.9 %
Test CRC CA0FD00E
Copy CRC CA0FD00E
Accurately ripped (confidence 6) [BA647E23] (AR v2)
Copy OK

Track 10

Filename C:\Users\paul\AppData\Local\VirtualStore\Program Files (x86)\Exact Audio Copy\Flac\10 - Sleepwalker [Demo Version].wav

Pre-gap length 0:00:01.00

Peak level 53.7 %
Extraction speed 2.9 X
Track quality 99.9 %
Test CRC 2DD4FA60
Copy CRC 2DD4FA60
Accurately ripped (confidence 6) [2EB39685] (AR v2)
Copy OK

Track 11

Filename C:\Users\paul\AppData\Local\VirtualStore\Program Files (x86)\Exact Audio Copy\Flac\11 - Tragedy [Demo Version].wav

Pre-gap length 0:00:01.00

Peak level 84.3 %
Extraction speed 4.2 X
Track quality 100.0 %
Test CRC 0352B545
Copy CRC 0352B545
Accurately ripped (confidence 6) [CDA7D9E2] (AR v2)
Copy OK

Track 12

Filename C:\Users\paul\AppData\Local\VirtualStore\Program Files (x86)\Exact Audio Copy\Flac\12 - Almost Diamonds [Original Demo].wav

Pre-gap length 0:00:01.00

Peak level 100.0 %
Extraction speed 4.3 X
Track quality 100.0 %
Test CRC 8E36B117
Copy CRC 8E36B117
Accurately ripped (confidence 6) [2945E76A] (AR v2)
Copy OK

Track 13

Filename C:\Users\paul\AppData\Local\VirtualStore\Program Files (x86)\Exact Audio Copy\Flac\13 - Threat Of Love [Featuring Siouxsie Sioux - Neal X Remix].wav

Pre-gap length 0:00:01.00

Peak level 100.0 %
Extraction speed 3.5 X
Track quality 99.9 %
Test CRC 0FD23458
Copy CRC 0FD23458
Accurately ripped (confidence 6) [AC47285C] (AR v2)
Copy OK

Track 14

Filename C:\Users\paul\AppData\Local\VirtualStore\Program Files (x86)\Exact Audio Copy\Flac\14 - Tale Of A Tart (Hell).wav

Pre-gap length 0:00:01.00

Peak level 92.1 %
Extraction speed 4.7 X
Track quality 100.0 %
Test CRC 73250EAE
Copy CRC 73250EAE
Accurately ripped (confidence 6) [6A433237] (AR v2)
Copy OK

Track 15

Filename C:\Users\paul\AppData\Local\VirtualStore\Program Files (x86)\Exact Audio Copy\Flac\15 - When Bad People Kiss [Original Version].wav

Pre-gap length 0:00:01.00

Peak level 95.6 %
Extraction speed 4.6 X
Track quality 100.0 %
Test CRC 72AB85CB
Copy CRC 72AB85CB
Accurately ripped (confidence 6) [7CC758B9] (AR v2)
Copy OK

Track 16

Filename C:\Users\paul\AppData\Local\VirtualStore\Program Files (x86)\Exact Audio Copy\Flac\16 - Black Kiss [Live At The Almeida Theatre 1999].wav

Pre-gap length 0:00:01.00

Peak level 100.0 %
Extraction speed 5.0 X
Track quality 100.0 %
Test CRC E6BCBF56
Copy CRC E6BCBF56
Accurately ripped (confidence 6) [F9E22EBB] (AR v2)
Copy OK

Track 17

Filename C:\Users\paul\AppData\Local\VirtualStore\Program Files (x86)\Exact Audio Copy\Flac\17 - Satan's Child.wav

Pre-gap length 0:00:00.74

Peak level 100.0 %
Extraction speed 3.2 X
Track quality 99.9 %
Test CRC A73D8087
Copy CRC A73D8087
Accurately ripped (confidence 6) [BAB6D274] (AR v2)
Copy OK

Track 18

Filename C:\Users\paul\AppData\Local\VirtualStore\Program Files (x86)\Exact Audio Copy\Flac\18 - Sequins & Stars.wav

Pre-gap length 0:00:01.00

Peak level 100.0 %
Extraction speed 4.9 X
Track quality 100.0 %
Test CRC 85623F14
Copy CRC 85623F14
Accurately ripped (confidence 6) [418A3B13] (AR v2)
Copy OK


All tracks accurately ripped

No errors occurred

End of status report

–– CUETools DB Plugin V2.1.4

[CTDB TOCID: 1H_H6gGD7mEWBEXynOzioKBqz.s-] found
Submit result: 1H_H6gGD7mEWBEXynOzioKBqz.s- has been confirmed
Track | CTDB Status
1 | (3/3) Accurately ripped
2 | (3/3) Accurately ripped
3 | (3/3) Accurately ripped
4 | (3/3) Accurately ripped
5 | (3/3) Accurately ripped
6 | (3/3) Accurately ripped
7 | (3/3) Accurately ripped
8 | (3/3) Accurately ripped
9 | (3/3) Accurately ripped
10 | (3/3) Accurately ripped
11 | (3/3) Accurately ripped
12 | (3/3) Accurately ripped
13 | (3/3) Accurately ripped
14 | (3/3) Accurately ripped
15 | (3/3) Accurately ripped
16 | (3/3) Accurately ripped
17 | (3/3) Accurately ripped
18 | (3/3) Accurately ripped


==== Log checksum 3D692B3AECC4A2CB68AB868A584849C54F217001ACED788DF233DAD18AC46962 ====


Marc Almond - Open All Night (2010) {Expanded 2-Disc Collectors Edition rec 1999}



===