Subcategories

Maria João Pires - Complete Concerto Recordings on Deutsche Grammophon (2015)

Posted By: delpotro
Maria João Pires - Complete Concerto Recordings on Deutsche Grammophon (2015)

Maria João Pires - Complete Concerto Recordings on Deutsche Grammophon (2015)
EAC Rip | FLAC (tracks+log+.cue) | 05:12:01 | 1,15 Gb
Classical | Label: Deutsche Grammophon

Deutsche Grammophon's five-CD trimline box set of the complete concerto recordings by Maria João Pires, packaged in separate sleeves with their original cover art, focuses quite appropriately on her area of specialization, the piano concertos of Wolfgang Amadeus Mozart. The first CD offers her eloquent performances of Frédéric Chopin's Piano Concertos No. 1 and No. 2, in performances conducted by Emmanuel Krivine and André Previn, respectively, and Disc 5 closes with her refined reading of Robert Schumann's Piano Concerto in A minor. Between them are seven piano concertos by Mozart, with six of those performances conducted by Pires' longtime collaborator, Claudio Abbado, who also led the Schumann, while one of the Mozart performances was directed by Frans Brüggen. Understandably, collectors of Pires' much larger box set of her solo recordings on DG will want these concertos to round out that section of their libraries, but others may be more selective. These recordings were made between 1990 and 2011, and many listeners will already own some, if not all of these discs, which still are listed in the catalog. This set is a great introduction of Pires, one of the finest interpreters of the age, and newcomers will appreciate the convenience and affordability of this reissue.
Tracklist:
CD 1 : Chopin
01 - Piano Concerto No. 1 In E Mineur Op 11 - I. Allegro Maestoso. Risoluto (Emmanuel Krivine)
02 - Piano Concerto No. 1 In E Mineur Op 11 - II. Romance. Larghetto (Emmanuel Krivine)
03 - Piano Concerto No. 1 In E Mineur Op 11 - III. Rondo. Vivace (Emmanuel Krivine)
04 - Piano Concerto No. 2 In F Mineur Op 21 - I. Maestoso (André Previn)
05 - Piano Concerto No. 2 In F Mineur Op 21 - II. Larghetto (André Previn)
06 - Piano Concerto No. 2 In F Mineur Op 21 - III. Allegro Vivace (André Previn)

CD 2 : Mozart
01 - Piano Concerto No. 14 In E Flat Major, K.449 - I. Allegro Vivace
02 - Piano Concerto No. 14 In E Flat Major, K.449 - II. Andantino
03 - Piano Concerto No. 14 In E Flat Major, K.449 - III. Allegro Ma Non Troppo
04 - Piano Concerto No. 26 In D Major, K.537 'Coronation' - I. Allegro
05 - Piano Concerto No. 26 In D Major, K.537 'Coronation' - II. (Larghetto)
06 - Piano Concerto No. 26 In D Major, K.537 'Coronation' - III. (Allegretto)
07 - Ch'io Mi Scordi Di Te… Non Temer, Amato Bene, K.505 (Christine Schäfer, Berliner Philharmoniker, Claudio Abbado)

CD 3 : Mozart
01 - Piano Concerto No.17 In G Major, K.453 - I. Allegro
02 - Piano Concerto No.17 In G Major, K.453 - II. Andante
03 - Piano Concerto No.17 In G Major, K.453 - III. Allegretto
04 - Piano Concerto No.21 In C Major, K.467 - I. Allegro
05 - Piano Concerto No.21 In C Major, K.467 - II. Andante
06 - Piano Concerto No.21 In C Major, K.467 - III. Allegro Vivace Assai (Chamber Orchestra Of Europe, Claudio Abbado)

CD 4 : Mozart
01 - Piano Concerto No.27 in B Flat Major, K.595 - I. Allegro
02 - Piano Concerto No.27 in B Flat Major, K.595 - II. Larghetto
03 - Piano Concerto No.27 in B Flat Major, K.595 - III. Allegro
04 - Piano Concerto No. 20 in D Minor, K.466 - I. Allegro
05 - Piano Concerto No. 20 in D Minor, K.466 - II. Romance
06 - Piano Concerto No. 20 in D Minor, K.466 - III. Rondo (Allegro assai) (Orchestra Mozart, Claudio Abbado

CD 5 : Mozart ; Schumann
01 - Piano Concerto No. 23 In A Major, K.488 - I. Allegro (Mozarteum-Orchester Salzburg, Frans Brüggen)
02 - Piano Concerto No. 23 In A Major, K.488 - II. Adagio (Mozarteum-Orchester Salzburg, Frans Brüggen)
03 - Piano Concerto No. 23 In A Major, K.488 - III. Allegro Assai (Mozarteum-Orchester Salzburg, Frans Brüggen)
04 - Piano Concerto In A Minor, Op.54 - I. Allegro Affettuoso (Chamber Orchestra Of Europe, Claudio Abbado)
05 - Piano Concerto In A Minor, Op.54 - II. Intermezzo (Andantino Grazioso) (Chamber Orchestra Of Europe, Claudio Abbado)
06 - Piano Concerto In A Minor, Op.54 - III. Allegro Vivace (Chamber Orchestra Of Europe, Claudio Abbado)

Exact Audio Copy V1.0 beta 3 from 29. August 2011

EAC extraction logfile from 25. July 2017, 18:05

Maria João Pires / Complete Concerto Recordings On DG, Dsc 1 - Chopin

Used drive : TSSTcorpCDDVDW SE-218CB Adapter: 1 ID: 0

Read mode : Secure
Utilize accurate stream : Yes
Defeat audio cache : Yes
Make use of C2 pointers : No

Read offset correction : 6
Overread into Lead-In and Lead-Out : No
Fill up missing offset samples with silence : Yes
Delete leading and trailing silent blocks : No
Null samples used in CRC calculations : Yes
Used interface : Native Win32 interface for Win NT & 2000
Gap handling : Appended to previous track

Used output format : User Defined Encoder
Selected bitrate : 1024 kBit/s
Quality : High
Add ID3 tag : No
Command line compressor : C:\Program Files (x86)\Exact Audio Copy\Flac\flac.exe
Additional command line options : -8 -V -T "ARTIST=%artist%" -T "TITLE=%title%" -T "ALBUM=%albumtitle%" -T "DATE=%year%" -T "TRACKNUMBER=%tracknr%" -T "GENRE=%genre%" -T "PERFORMER=%albuminterpret%" -T "COMPOSER=%composer%" %haslyrics%–tag-from-file=LYRICS="%lyricsfile%"%haslyrics% -T "ALBUMARTIST=%albumartist%" -T "DISCNUMBER=%cdnumber%" -T "TOTALDISCS=%totalcds%" -T "TOTALTRACKS=%numtracks%" -T "COMMENT=%comment%" %source% -o %dest%


TOC of the extracted CD

Track | Start | Length | Start sector | End sector
––––––––––––––––––––––––––––-
1 | 0:00.00 | 20:44.51 | 0 | 93350
2 | 20:44.51 | 10:15.12 | 93351 | 139487
3 | 30:59.63 | 10:54.41 | 139488 | 188578
4 | 41:54.29 | 14:34.29 | 188579 | 254157
5 | 56:28.58 | 9:09.34 | 254158 | 295366
6 | 65:38.17 | 8:47.32 | 295367 | 334923


Track 1

Filename C:\EAC\Maria João Pires - Complete Concerto Recordings On DG, Dsc 1 - Chopin - 2015 - FLAC - CD\01. Piano Concerto No. 1 In E Mineur Op 11 - I. Allegro Maestoso. Risoluto (Emmanuel Krivine).wav

Pre-gap length 0:00:02.00

Peak level 99.3 %
Extraction speed 3.6 X
Track quality 99.9 %
Test CRC 9B620F6B
Copy CRC 9B620F6B
Accurately ripped (confidence 17) [DBC9C3EE] (AR v2)
Copy OK

Track 2

Filename C:\EAC\Maria João Pires - Complete Concerto Recordings On DG, Dsc 1 - Chopin - 2015 - FLAC - CD\02. Piano Concerto No. 1 In E Mineur Op 11 - II. Romance. Larghetto (Emmanuel Krivine).wav

Peak level 79.8 %
Extraction speed 4.1 X
Track quality 99.9 %
Test CRC 981E8984
Copy CRC 981E8984
Accurately ripped (confidence 16) [1B7B2E0D] (AR v2)
Copy OK

Track 3

Filename C:\EAC\Maria João Pires - Complete Concerto Recordings On DG, Dsc 1 - Chopin - 2015 - FLAC - CD\03. Piano Concerto No. 1 In E Mineur Op 11 - III. Rondo. Vivace (Emmanuel Krivine).wav

Peak level 99.9 %
Extraction speed 5.0 X
Track quality 100.0 %
Test CRC 89D27B84
Copy CRC 89D27B84
Accurately ripped (confidence 16) [94D22D9B] (AR v2)
Copy OK

Track 4

Filename C:\EAC\Maria João Pires - Complete Concerto Recordings On DG, Dsc 1 - Chopin - 2015 - FLAC - CD\04. Piano Concerto No. 2 In F Mineur Op 21 - I. Maestoso (André Previn).wav

Pre-gap length 0:00:10.04

Peak level 98.1 %
Extraction speed 5.5 X
Track quality 100.0 %
Test CRC 2ECE304D
Copy CRC 2ECE304D
Accurately ripped (confidence 17) [8896A278] (AR v2)
Copy OK

Track 5

Filename C:\EAC\Maria João Pires - Complete Concerto Recordings On DG, Dsc 1 - Chopin - 2015 - FLAC - CD\05. Piano Concerto No. 2 In F Mineur Op 21 - II. Larghetto (André Previn).wav

Peak level 68.1 %
Extraction speed 5.2 X
Track quality 99.9 %
Test CRC B8851AF4
Copy CRC B8851AF4
Accurately ripped (confidence 17) [08F46E1C] (AR v2)
Copy OK

Track 6

Filename C:\EAC\Maria João Pires - Complete Concerto Recordings On DG, Dsc 1 - Chopin - 2015 - FLAC - CD\06. Piano Concerto No. 2 In F Mineur Op 21 - III. Allegro Vivace (André Previn).wav

Peak level 90.2 %
Extraction speed 6.0 X
Track quality 100.0 %
Test CRC E69C611C
Copy CRC E69C611C
Accurately ripped (confidence 17) [02CB7F2B] (AR v2)
Copy OK


All tracks accurately ripped

No errors occurred

End of status report

==== Log checksum E927D67498211E0206B4AD187C580042DB7DB4DAE73E7D598336ABD5FEEC8FE3 ====

Exact Audio Copy V1.0 beta 3 from 29. August 2011

EAC extraction logfile from 25. July 2017, 18:40

Maria João Pires / Complete Concerto Recordings On DG, Dsc 2 - Mozart

Used drive : TSSTcorpCDDVDW SE-218CB Adapter: 1 ID: 0

Read mode : Secure
Utilize accurate stream : Yes
Defeat audio cache : Yes
Make use of C2 pointers : No

Read offset correction : 6
Overread into Lead-In and Lead-Out : No
Fill up missing offset samples with silence : Yes
Delete leading and trailing silent blocks : No
Null samples used in CRC calculations : Yes
Used interface : Native Win32 interface for Win NT & 2000
Gap handling : Appended to previous track

Used output format : User Defined Encoder
Selected bitrate : 1024 kBit/s
Quality : High
Add ID3 tag : No
Command line compressor : C:\Program Files (x86)\Exact Audio Copy\Flac\flac.exe
Additional command line options : -8 -V -T "ARTIST=%artist%" -T "TITLE=%title%" -T "ALBUM=%albumtitle%" -T "DATE=%year%" -T "TRACKNUMBER=%tracknr%" -T "GENRE=%genre%" -T "PERFORMER=%albuminterpret%" -T "COMPOSER=%composer%" %haslyrics%–tag-from-file=LYRICS="%lyricsfile%"%haslyrics% -T "ALBUMARTIST=%albumartist%" -T "DISCNUMBER=%cdnumber%" -T "TOTALDISCS=%totalcds%" -T "TOTALTRACKS=%numtracks%" -T "COMMENT=%comment%" %source% -o %dest%


TOC of the extracted CD

Track | Start | Length | Start sector | End sector
––––––––––––––––––––––––––––-
1 | 0:00.32 | 8:34.00 | 32 | 38581
2 | 8:34.32 | 6:51.00 | 38582 | 69406
3 | 15:25.32 | 6:13.00 | 69407 | 97381
4 | 21:38.32 | 14:08.00 | 97382 | 160981
5 | 35:46.32 | 5:38.00 | 160982 | 186331
6 | 41:24.32 | 10:48.00 | 186332 | 234931
7 | 52:12.32 | 10:29.01 | 234932 | 282107


Track 1

Filename C:\EAC\Maria João Pires - Complete Concerto Recordings On DG, Dsc 2 - Mozart - 2015 - FLAC - CD\01. Piano Concerto No. 14 In E Flat Major, K.449 - I. Allegro Vivace.wav

Pre-gap length 0:00:02.42

Peak level 87.6 %
Extraction speed 3.1 X
Track quality 100.0 %
Test CRC 6777B46A
Copy CRC 6777B46A
Accurately ripped (confidence 10) [50CE0B04] (AR v2)
Copy OK

Track 2

Filename C:\EAC\Maria João Pires - Complete Concerto Recordings On DG, Dsc 2 - Mozart - 2015 - FLAC - CD\02. Piano Concerto No. 14 In E Flat Major, K.449 - II. Andantino.wav

Peak level 65.0 %
Extraction speed 3.1 X
Track quality 99.9 %
Test CRC F1F16941
Copy CRC F1F16941
Accurately ripped (confidence 10) [BA970904] (AR v2)
Copy OK

Track 3

Filename C:\EAC\Maria João Pires - Complete Concerto Recordings On DG, Dsc 2 - Mozart - 2015 - FLAC - CD\03. Piano Concerto No. 14 In E Flat Major, K.449 - III. Allegro Ma Non Troppo.wav

Peak level 88.1 %
Extraction speed 3.8 X
Track quality 100.0 %
Test CRC 30687228
Copy CRC 30687228
Accurately ripped (confidence 10) [6718A63C] (AR v2)
Copy OK

Track 4

Filename C:\EAC\Maria João Pires - Complete Concerto Recordings On DG, Dsc 2 - Mozart - 2015 - FLAC - CD\04. Piano Concerto No. 26 In D Major, K.537 ''Coronation'' - I. Allegro.wav

Pre-gap length 0:00:13.00

Peak level 97.2 %
Extraction speed 4.5 X
Track quality 100.0 %
Test CRC 0552EFE1
Copy CRC 0552EFE1
Accurately ripped (confidence 10) [B08982DE] (AR v2)
Copy OK

Track 5

Filename C:\EAC\Maria João Pires - Complete Concerto Recordings On DG, Dsc 2 - Mozart - 2015 - FLAC - CD\05. Piano Concerto No. 26 In D Major, K.537 ''Coronation'' - II. (Larghetto).wav

Peak level 58.8 %
Extraction speed 3.9 X
Track quality 99.9 %
Test CRC BDA137E6
Copy CRC BDA137E6
Accurately ripped (confidence 10) [C77E2F27] (AR v2)
Copy OK

Track 6

Filename C:\EAC\Maria João Pires - Complete Concerto Recordings On DG, Dsc 2 - Mozart - 2015 - FLAC - CD\06. Piano Concerto No. 26 In D Major, K.537 ''Coronation'' - III. (Allegretto).wav

Peak level 98.4 %
Extraction speed 5.1 X
Track quality 100.0 %
Test CRC F7BB1420
Copy CRC F7BB1420
Accurately ripped (confidence 10) [5FAE25BF] (AR v2)
Copy OK

Track 7

Filename C:\EAC\Maria João Pires - Complete Concerto Recordings On DG, Dsc 2 - Mozart - 2015 - FLAC - CD\07. Ch'io Mi Scordi Di Te… Non Temer, Amato Bene, K.505 (Christine Schäfer, Berliner Philharmoniker, Claudio Abbado).wav

Pre-gap length 0:00:12.00

Peak level 99.0 %
Extraction speed 5.0 X
Track quality 99.9 %
Test CRC D1990F29
Copy CRC D1990F29
Accurately ripped (confidence 10) [65FB704D] (AR v2)
Copy OK


All tracks accurately ripped

No errors occurred

End of status report

==== Log checksum 9B40164B20249D6A4F58DFBD91116C70CE8A3370705974F24DF87D1980D42845 ====

Exact Audio Copy V1.0 beta 3 from 29. August 2011

EAC extraction logfile from 25. July 2017, 19:45

Maria João Pires / Complete Concerto Recordings On DG, Dsc 3 - Mozart

Used drive : TSSTcorpCDDVDW SE-218CB Adapter: 1 ID: 0

Read mode : Secure
Utilize accurate stream : Yes
Defeat audio cache : Yes
Make use of C2 pointers : No

Read offset correction : 6
Overread into Lead-In and Lead-Out : No
Fill up missing offset samples with silence : Yes
Delete leading and trailing silent blocks : No
Null samples used in CRC calculations : Yes
Used interface : Native Win32 interface for Win NT & 2000
Gap handling : Appended to previous track

Used output format : User Defined Encoder
Selected bitrate : 1024 kBit/s
Quality : High
Add ID3 tag : No
Command line compressor : C:\Program Files (x86)\Exact Audio Copy\Flac\flac.exe
Additional command line options : -8 -V -T "ARTIST=%artist%" -T "TITLE=%title%" -T "ALBUM=%albumtitle%" -T "DATE=%year%" -T "TRACKNUMBER=%tracknr%" -T "GENRE=%genre%" -T "PERFORMER=%albuminterpret%" -T "COMPOSER=%composer%" %haslyrics%–tag-from-file=LYRICS="%lyricsfile%"%haslyrics% -T "ALBUMARTIST=%albumartist%" -T "DISCNUMBER=%cdnumber%" -T "TOTALDISCS=%totalcds%" -T "TOTALTRACKS=%numtracks%" -T "COMMENT=%comment%" %source% -o %dest%


TOC of the extracted CD

Track | Start | Length | Start sector | End sector
––––––––––––––––––––––––––––-
1 | 0:00.33 | 12:03.00 | 33 | 54257
2 | 12:03.33 | 9:53.00 | 54258 | 98732
3 | 21:56.33 | 7:32.00 | 98733 | 132632
4 | 29:28.33 | 14:04.00 | 132633 | 195932
5 | 43:32.33 | 6:10.00 | 195933 | 223682
6 | 49:42.33 | 6:42.00 | 223683 | 253832


Track 1

Filename C:\EAC\Maria João Pires - Complete Concerto Recordings On DG, Dsc 3 - Mozart - 2015 - FLAC - CD\01. Piano Concerto No.17 In G Major, K.453 - I. Allegro.wav

Pre-gap length 0:00:02.44

Peak level 74.2 %
Extraction speed 1.4 X
Track quality 100.0 %
Test CRC 3A79C36B
Copy CRC 3A79C36B
Accurately ripped (confidence 17) [725D4F18] (AR v2)
Copy OK

Track 2

Filename C:\EAC\Maria João Pires - Complete Concerto Recordings On DG, Dsc 3 - Mozart - 2015 - FLAC - CD\02. Piano Concerto No.17 In G Major, K.453 - II. Andante.wav

Peak level 78.8 %
Extraction speed 1.7 X
Track quality 100.0 %
Test CRC A361A9F6
Copy CRC A361A9F6
Accurately ripped (confidence 17) [47657E49] (AR v2)
Copy OK

Track 3

Filename C:\EAC\Maria João Pires - Complete Concerto Recordings On DG, Dsc 3 - Mozart - 2015 - FLAC - CD\03. Piano Concerto No.17 In G Major, K.453 - III. Allegretto.wav

Peak level 71.7 %
Extraction speed 1.9 X
Track quality 100.0 %
Test CRC FCD8536F
Copy CRC FCD8536F
Accurately ripped (confidence 17) [26F8F6C2] (AR v2)
Copy OK

Track 4

Filename C:\EAC\Maria João Pires - Complete Concerto Recordings On DG, Dsc 3 - Mozart - 2015 - FLAC - CD\04. Piano Concerto No.21 In C Major, K.467 - I. Allegro.wav

Pre-gap length 0:00:06.96

Peak level 89.8 %
Extraction speed 2.2 X
Track quality 100.0 %
Test CRC DB3FF429
Copy CRC DB3FF429
Accurately ripped (confidence 17) [BE06D129] (AR v2)
Copy OK

Track 5

Filename C:\EAC\Maria João Pires - Complete Concerto Recordings On DG, Dsc 3 - Mozart - 2015 - FLAC - CD\05. Piano Concerto No.21 In C Major, K.467 - II. Andante.wav

Peak level 46.4 %
Extraction speed 2.3 X
Track quality 100.0 %
Test CRC 6D124346
Copy CRC 6D124346
Accurately ripped (confidence 17) [DBE2C73C] (AR v2)
Copy OK

Track 6

Filename C:\EAC\Maria João Pires - Complete Concerto Recordings On DG, Dsc 3 - Mozart - 2015 - FLAC - CD\06. Piano Concerto No.21 In C Major, K.467 - III. Allegro Vivace Assai (Chamber Orchestra Of Europe, Claudio Abbado).wav

Peak level 95.4 %
Extraction speed 2.4 X
Track quality 100.0 %
Test CRC B752638C
Copy CRC B752638C
Accurately ripped (confidence 17) [52ACA8DF] (AR v2)
Copy OK


All tracks accurately ripped

No errors occurred

End of status report

==== Log checksum EA6FD774D88BF6C39061E7D40C7533BBAA6FCD705CD36ABE2DDCE26A79C8C8E8 ====

Exact Audio Copy V1.0 beta 3 from 29. August 2011

EAC extraction logfile from 25. July 2017, 20:24

Maria João Pires / Complete Concerto Recordings on DG, Dsc 4 - Mozart

Used drive : TSSTcorpCDDVDW SE-218CB Adapter: 1 ID: 0

Read mode : Secure
Utilize accurate stream : Yes
Defeat audio cache : Yes
Make use of C2 pointers : No

Read offset correction : 6
Overread into Lead-In and Lead-Out : No
Fill up missing offset samples with silence : Yes
Delete leading and trailing silent blocks : No
Null samples used in CRC calculations : Yes
Used interface : Native Win32 interface for Win NT & 2000
Gap handling : Appended to previous track

Used output format : User Defined Encoder
Selected bitrate : 1024 kBit/s
Quality : High
Add ID3 tag : No
Command line compressor : C:\Program Files (x86)\Exact Audio Copy\Flac\flac.exe
Additional command line options : -8 -V -T "ARTIST=%artist%" -T "TITLE=%title%" -T "ALBUM=%albumtitle%" -T "DATE=%year%" -T "TRACKNUMBER=%tracknr%" -T "GENRE=%genre%" -T "PERFORMER=%albuminterpret%" -T "COMPOSER=%composer%" %haslyrics%–tag-from-file=LYRICS="%lyricsfile%"%haslyrics% -T "ALBUMARTIST=%albumartist%" -T "DISCNUMBER=%cdnumber%" -T "TOTALDISCS=%totalcds%" -T "TOTALTRACKS=%numtracks%" -T "COMMENT=%comment%" %source% -o %dest%


TOC of the extracted CD

Track | Start | Length | Start sector | End sector
––––––––––––––––––––––––––––-
1 | 0:00.00 | 13:39.30 | 0 | 61454
2 | 13:39.30 | 6:23.69 | 61455 | 90248
3 | 20:03.24 | 8:51.15 | 90249 | 130088
4 | 28:54.39 | 14:48.10 | 130089 | 196698
5 | 43:42.49 | 8:24.44 | 196699 | 234542
6 | 52:07.18 | 8:07.10 | 234543 | 271077


Track 1

Filename C:\EAC\Maria João Pires - Complete Concerto Recordings on DG, Dsc 4 - Mozart - 2015 - FLAC - CD\01. Piano Concerto No.27 in B Flat Major, K.595 - I. Allegro.wav

Pre-gap length 0:00:02.00

Peak level 75.1 %
Extraction speed 3.3 X
Track quality 100.0 %
Test CRC 98B3A761
Copy CRC 98B3A761
Accurately ripped (confidence 53) [7CF66EBD] (AR v2)
Copy OK

Track 2

Filename C:\EAC\Maria João Pires - Complete Concerto Recordings on DG, Dsc 4 - Mozart - 2015 - FLAC - CD\02. Piano Concerto No.27 in B Flat Major, K.595 - II. Larghetto.wav

Peak level 53.5 %
Extraction speed 3.8 X
Track quality 100.0 %
Test CRC 1A2A98C4
Copy CRC 1A2A98C4
Accurately ripped (confidence 53) [8318811F] (AR v2)
Copy OK

Track 3

Filename C:\EAC\Maria João Pires - Complete Concerto Recordings on DG, Dsc 4 - Mozart - 2015 - FLAC - CD\03. Piano Concerto No.27 in B Flat Major, K.595 - III. Allegro.wav

Peak level 71.7 %
Extraction speed 3.8 X
Track quality 99.9 %
Test CRC B35A22AB
Copy CRC B35A22AB
Accurately ripped (confidence 52) [754AE3DE] (AR v2)
Copy OK

Track 4

Filename C:\EAC\Maria João Pires - Complete Concerto Recordings on DG, Dsc 4 - Mozart - 2015 - FLAC - CD\04. Piano Concerto No. 20 in D Minor, K.466 - I. Allegro.wav

Pre-gap length 0:00:06.04

Peak level 98.4 %
Extraction speed 4.8 X
Track quality 100.0 %
Test CRC F20B246D
Copy CRC F20B246D
Accurately ripped (confidence 55) [5CF9E643] (AR v2)
Copy OK

Track 5

Filename C:\EAC\Maria João Pires - Complete Concerto Recordings on DG, Dsc 4 - Mozart - 2015 - FLAC - CD\05. Piano Concerto No. 20 in D Minor, K.466 - II. Romance.wav

Peak level 82.4 %
Extraction speed 5.1 X
Track quality 100.0 %
Test CRC C50006CF
Copy CRC C50006CF
Accurately ripped (confidence 54) [66971E04] (AR v2)
Copy OK

Track 6

Filename C:\EAC\Maria João Pires - Complete Concerto Recordings on DG, Dsc 4 - Mozart - 2015 - FLAC - CD\06. Piano Concerto No. 20 in D Minor, K.466 - III. Rondo (Allegro assai) (Orchestra Mozart, Claudio Abbado.wav

Peak level 100.0 %
Extraction speed 5.4 X
Track quality 100.0 %
Test CRC 9963745C
Copy CRC 9963745C
Accurately ripped (confidence 53) [D8D9C008] (AR v2)
Copy OK


All tracks accurately ripped

No errors occurred

End of status report

==== Log checksum EF6A9BF5A3B565D98D70279801B3B98658ECBEAF16235EDA8536B1500B2837CE ====

Exact Audio Copy V1.0 beta 3 from 29. August 2011

EAC extraction logfile from 25. July 2017, 21:11

Maria João Pires / Complete Concerto Recordings On DG, Dsc 5 - Mozart ; Schumann

Used drive : TSSTcorpCDDVDW SE-218CB Adapter: 1 ID: 0

Read mode : Secure
Utilize accurate stream : Yes
Defeat audio cache : Yes
Make use of C2 pointers : No

Read offset correction : 6
Overread into Lead-In and Lead-Out : No
Fill up missing offset samples with silence : Yes
Delete leading and trailing silent blocks : No
Null samples used in CRC calculations : Yes
Used interface : Native Win32 interface for Win NT & 2000
Gap handling : Appended to previous track

Used output format : User Defined Encoder
Selected bitrate : 1024 kBit/s
Quality : High
Add ID3 tag : No
Command line compressor : C:\Program Files (x86)\Exact Audio Copy\Flac\flac.exe
Additional command line options : -8 -V -T "ARTIST=%artist%" -T "TITLE=%title%" -T "ALBUM=%albumtitle%" -T "DATE=%year%" -T "TRACKNUMBER=%tracknr%" -T "GENRE=%genre%" -T "PERFORMER=%albuminterpret%" -T "COMPOSER=%composer%" %haslyrics%–tag-from-file=LYRICS="%lyricsfile%"%haslyrics% -T "ALBUMARTIST=%albumartist%" -T "DISCNUMBER=%cdnumber%" -T "TOTALDISCS=%totalcds%" -T "TOTALTRACKS=%numtracks%" -T "COMMENT=%comment%" %source% -o %dest%


TOC of the extracted CD

Track | Start | Length | Start sector | End sector
––––––––––––––––––––––––––––-
1 | 0:00.00 | 11:15.62 | 0 | 50686
2 | 11:15.62 | 6:29.06 | 50687 | 79867
3 | 17:44.68 | 8:38.02 | 79868 | 118719
4 | 26:22.70 | 15:35.00 | 118720 | 188844
5 | 41:57.70 | 5:03.73 | 188845 | 211642
6 | 47:01.68 | 11:14.06 | 211643 | 262198


Track 1

Filename C:\EAC\Maria João Pires - Complete Concerto Recordings On DG, Dsc 5 - Mozart ; Schumann - 2015 - FLAC - CD\01. Piano Concerto No. 23 In A Major, K.488 - I. Allegro (Mozarteum-Orchester Salzburg, Frans Brüggen).wav

Pre-gap length 0:00:02.00

Peak level 91.5 %
Extraction speed 3.2 X
Track quality 100.0 %
Test CRC 2DB8B8F6
Copy CRC 2DB8B8F6
Accurately ripped (confidence 28) [CCFB985E] (AR v2)
Copy OK

Track 2

Filename C:\EAC\Maria João Pires - Complete Concerto Recordings On DG, Dsc 5 - Mozart ; Schumann - 2015 - FLAC - CD\02. Piano Concerto No. 23 In A Major, K.488 - II. Adagio (Mozarteum-Orchester Salzburg, Frans Brüggen).wav

Peak level 46.1 %
Extraction speed 3.1 X
Track quality 99.9 %
Test CRC BF4C6ABE
Copy CRC BF4C6ABE
Accurately ripped (confidence 28) [30AE5210] (AR v2)
Copy OK

Track 3

Filename C:\EAC\Maria João Pires - Complete Concerto Recordings On DG, Dsc 5 - Mozart ; Schumann - 2015 - FLAC - CD\03. Piano Concerto No. 23 In A Major, K.488 - III. Allegro Assai (Mozarteum-Orchester Salzburg, Frans Brüggen).wav

Peak level 91.6 %
Extraction speed 4.1 X
Track quality 100.0 %
Test CRC 103F46BC
Copy CRC 103F46BC
Accurately ripped (confidence 28) [BF2F3F63] (AR v2)
Copy OK

Track 4

Filename C:\EAC\Maria João Pires - Complete Concerto Recordings On DG, Dsc 5 - Mozart ; Schumann - 2015 - FLAC - CD\04. Piano Concerto In A Minor, Op.54 - I. Allegro Affettuoso (Chamber Orchestra Of Europe, Claudio Abbado).wav

Pre-gap length 0:00:05.69

Peak level 100.0 %
Extraction speed 4.7 X
Track quality 100.0 %
Test CRC C1F33F38
Copy CRC C1F33F38
Accurately ripped (confidence 27) [0D8B66E8] (AR v2)
Copy OK

Track 5

Filename C:\EAC\Maria João Pires - Complete Concerto Recordings On DG, Dsc 5 - Mozart ; Schumann - 2015 - FLAC - CD\05. Piano Concerto In A Minor, Op.54 - II. Intermezzo (Andantino Grazioso) (Chamber Orchestra Of Europe, Claudio Abbado).wav

Peak level 39.0 %
Extraction speed 4.7 X
Track quality 100.0 %
Test CRC F7A51518
Copy CRC F7A51518
Accurately ripped (confidence 27) [D6F39BE5] (AR v2)
Copy OK

Track 6

Filename C:\EAC\Maria João Pires - Complete Concerto Recordings On DG, Dsc 5 - Mozart ; Schumann - 2015 - FLAC - CD\06. Piano Concerto In A Minor, Op.54 - III. Allegro Vivace (Chamber Orchestra Of Europe, Claudio Abbado).wav

Peak level 100.0 %
Extraction speed 5.3 X
Track quality 100.0 %
Test CRC DFCDB3ED
Copy CRC DFCDB3ED
Accurately ripped (confidence 27) [6AA8E28C] (AR v2)
Copy OK


All tracks accurately ripped

No errors occurred

End of status report

==== Log checksum 2DB533DDE6C1305F06E1ECBA97DD4200C13F325E0F77A1866A78C1C9D5DE80B8 ====

Thanks to the Original ripper worldleader !