Subcategories
Tags
Language
Tags

Mary Chapin Carpenter - One Night Lonely (2021) {2CD Set, Lambent Light Records LLR004 rec 2020}

Posted By: ruskaval
Mary Chapin Carpenter - One Night Lonely (2021) {2CD Set, Lambent Light Records LLR004 rec 2020}

Mary Chapin Carpenter - One Night Lonely (2021) {2CD Set, Lambent Light Records LLR004 rec 2020}
XLD rip (secure mode) | FLAC (tracks)+CUE+LOG -> 662 Mb | MP3 @320 -> 293 Mb | Cover | 5% repair rar
© 2021 Lambent Light Records | LLR004
Contemporary Singer-Songwriter / Country / Country-Folk / Contemporary Country

One Night Lonely: a rare solo performance from Mary Chapin Carpenter, recorded with no audience at the Filene Center at Wolf Trap, in Vienna, VA.

Of the performance, Carpenter shared, “Strange yet magical, those are my words to describe this feeling of being alone on this hometown stage at Wolf Trap. I am struck by the stillness of the empty seats and the lonely echo of all this space. While I miss seeing the audience and feeling that connection, I am grateful for the opportunity to play a solo show, which I haven’t done for a very long time. As we enter the holiday season, so many of us are apart from the ones we love. I hope this concert—which will include songs from my first record to my most recent release—will bring us a little closer, until we can gather again, shoulder to shoulder, celebrating live music once more. The fact that this new performance comes 25 years after the release of my live special, Jubilee: Live from Wolf Trap, only makes the occasion sweeter.”
Mary Chapin Carpenter - One Night Lonely (2021) {2CD Set, Lambent Light Records LLR004 rec 2020}


mary-chapin-carpenter.myshopify.com INFO

Track Listing:

CD1

01 The Age Of Miracles
02 Chasing What's Already Gone
03 Farther Along And Further In
04 Sometimes Just The Sky
05 I Have A Need For Solitude
06 Something Tamed, Something Wild
07 Houston
08 I Take My Chances
09 Grand Central Station
10 All Broken Hearts Break Differently
11 This Shirt
12 I Am A Town
13 Stones In The Road
14 Heroes And Heroines

CD2
01 Old D-35
02 This Is Love
03 John Doe No. 24
04 Don't Need Much To Be Happy
05 He Thinks He'll Keep Her
06 Why Shouldn't We
07 Twilight
08 Late For Your Life
09 The Hard Way
10 Between The Dirt And The Stars
11 The Things That We Are Made Of
12 Traveler's Prayer

X Lossless Decoder version 20181019 (151.1)

XLD extraction logfile from 2021-05-25 14:54:34 -0400

Mary Chapin Carpenter / One Night Lonely

Used drive : HL-DT-ST DVDRAM GP65NS60 (revision PF00)
Media type : Pressed CD

Ripper mode : XLD Secure Ripper
Disable audio cache : OK for the drive with a cache less than 1375KiB
Make use of C2 pointers : NO
Read offset correction : 6
Max retry count : 100
Gap status : Analyzed, Appended (except HTOA)

TOC of the extracted CD
Track | Start | Length | Start sector | End sector
––––––––––––––––––––––––––––-
1 | 00:00:00 | 04:59:44 | 0 | 22468
2 | 04:59:44 | 04:47:36 | 22469 | 44029
3 | 09:47:05 | 03:42:66 | 44030 | 60745
4 | 13:29:71 | 05:12:37 | 60746 | 84182
5 | 18:42:33 | 04:50:33 | 84183 | 105965
6 | 23:32:66 | 03:58:07 | 105966 | 123822
7 | 27:30:73 | 05:20:01 | 123823 | 147823
8 | 32:50:74 | 03:53:68 | 147824 | 165366
9 | 36:44:67 | 04:14:37 | 165367 | 184453
10 | 40:59:29 | 03:53:08 | 184454 | 201936
11 | 44:52:37 | 04:57:57 | 201937 | 224268
12 | 49:50:19 | 05:02:48 | 224269 | 246966
13 | 54:52:67 | 04:17:11 | 246967 | 266252
14 | 59:10:03 | 04:08:45 | 266253 | 284897

AccurateRip Summary
Disc not found in AccurateRip DB.

All Tracks
Album gain : -4.96 dB
Peak : 0.965973
Statistics
Read error : 0
Jitter error (maybe fixed) : 0
Retry sector count : 0
Damaged sector count : 0

Track 01
Filename : /Users/mydrive/Music/Mary Chapin Carpenter - One Night Lonely (2020) [FLAC]/01 The Age Of Miracles.flac
Pre-gap length : 00:02:00

Track gain : -4.90 dB
Peak : 0.965973
CRC32 hash (test run) : E64C374F
CRC32 hash : E64C374F
CRC32 hash (skip zero) : 1FF1077C
AccurateRip v1 signature : AA9EDE2F
AccurateRip v2 signature : F28EA50B
->Track not present in AccurateRip database.
Statistics
Read error : 0
Jitter error (maybe fixed) : 0
Retry sector count : 0
Damaged sector count : 0

Track 02
Filename : /Users/mydrive/Music/Mary Chapin Carpenter - One Night Lonely (2020) [FLAC]/02 Chasing What's Already Gone.flac

Track gain : -4.92 dB
Peak : 0.965973
CRC32 hash (test run) : 24A84ED9
CRC32 hash : 24A84ED9
CRC32 hash (skip zero) : D885CB8E
AccurateRip v1 signature : E1DF9907
AccurateRip v2 signature : 64D85F54
->Track not present in AccurateRip database.
Statistics
Read error : 0
Jitter error (maybe fixed) : 0
Retry sector count : 0
Damaged sector count : 0

Track 03
Filename : /Users/mydrive/Music/Mary Chapin Carpenter - One Night Lonely (2020) [FLAC]/03 Farther Along And Further In.flac

Track gain : -4.35 dB
Peak : 0.965973
CRC32 hash (test run) : 69B645E6
CRC32 hash : 69B645E6
CRC32 hash (skip zero) : FE19ABDB
AccurateRip v1 signature : 62674019
AccurateRip v2 signature : 00547ABA
->Track not present in AccurateRip database.
Statistics
Read error : 0
Jitter error (maybe fixed) : 0
Retry sector count : 0
Damaged sector count : 0

Track 04
Filename : /Users/mydrive/Music/Mary Chapin Carpenter - One Night Lonely (2020) [FLAC]/04 Sometimes Just The Sky.flac

Track gain : -3.60 dB
Peak : 0.965973
CRC32 hash (test run) : 7B70E75E
CRC32 hash : 7B70E75E
CRC32 hash (skip zero) : 36F0C0B2
AccurateRip v1 signature : 1BDFF3D2
AccurateRip v2 signature : 6738EC0D
->Track not present in AccurateRip database.
Statistics
Read error : 0
Jitter error (maybe fixed) : 0
Retry sector count : 0
Damaged sector count : 0

Track 05
Filename : /Users/mydrive/Music/Mary Chapin Carpenter - One Night Lonely (2020) [FLAC]/05 I Have A Need For Solitude.flac

Track gain : -4.77 dB
Peak : 0.965973
CRC32 hash (test run) : 36BE48DE
CRC32 hash : 36BE48DE
CRC32 hash (skip zero) : 929A1231
AccurateRip v1 signature : 49C593AD
AccurateRip v2 signature : B0FDB35B
->Track not present in AccurateRip database.
Statistics
Read error : 0
Jitter error (maybe fixed) : 0
Retry sector count : 0
Damaged sector count : 0

Track 06
Filename : /Users/mydrive/Music/Mary Chapin Carpenter - One Night Lonely (2020) [FLAC]/06 Something Tamed, Something Wild.flac

Track gain : -6.40 dB
Peak : 0.965973
CRC32 hash (test run) : 7D65310F
CRC32 hash : 7D65310F
CRC32 hash (skip zero) : 46AC5E6F
AccurateRip v1 signature : 05665DC5
AccurateRip v2 signature : A1B4EA12
->Track not present in AccurateRip database.
Statistics
Read error : 0
Jitter error (maybe fixed) : 0
Retry sector count : 0
Damaged sector count : 0

Track 07
Filename : /Users/mydrive/Music/Mary Chapin Carpenter - One Night Lonely (2020) [FLAC]/07 Houston.flac

Track gain : -4.83 dB
Peak : 0.965973
CRC32 hash (test run) : DAD7FE39
CRC32 hash : DAD7FE39
CRC32 hash (skip zero) : 4E544B86
AccurateRip v1 signature : A79B1306
AccurateRip v2 signature : D52DBF41
->Track not present in AccurateRip database.
Statistics
Read error : 0
Jitter error (maybe fixed) : 0
Retry sector count : 0
Damaged sector count : 0

Track 08
Filename : /Users/mydrive/Music/Mary Chapin Carpenter - One Night Lonely (2020) [FLAC]/08 I Take My Chances.flac

Track gain : -5.57 dB
Peak : 0.965973
CRC32 hash (test run) : 0FD0DDF1
CRC32 hash : 0FD0DDF1
CRC32 hash (skip zero) : F65CE288
AccurateRip v1 signature : 28314449
AccurateRip v2 signature : FCC720EE
->Track not present in AccurateRip database.
Statistics
Read error : 0
Jitter error (maybe fixed) : 0
Retry sector count : 0
Damaged sector count : 0

Track 09
Filename : /Users/mydrive/Music/Mary Chapin Carpenter - One Night Lonely (2020) [FLAC]/09 Grand Central Station.flac

Track gain : -5.31 dB
Peak : 0.965973
CRC32 hash (test run) : 5350712A
CRC32 hash : 5350712A
CRC32 hash (skip zero) : 20CEAE81
AccurateRip v1 signature : C444FA67
AccurateRip v2 signature : 2FDB4E3D
->Track not present in AccurateRip database.
Statistics
Read error : 0
Jitter error (maybe fixed) : 0
Retry sector count : 0
Damaged sector count : 0

Track 10
Filename : /Users/mydrive/Music/Mary Chapin Carpenter - One Night Lonely (2020) [FLAC]/10 All Broken Hearts Break Differently.flac

Track gain : -4.21 dB
Peak : 0.965973
CRC32 hash (test run) : FC32CDF8
CRC32 hash : FC32CDF8
CRC32 hash (skip zero) : 86AB4DF2
AccurateRip v1 signature : 781DED7C
AccurateRip v2 signature : A6199827
->Track not present in AccurateRip database.
Statistics
Read error : 0
Jitter error (maybe fixed) : 0
Retry sector count : 0
Damaged sector count : 0

Track 11
Filename : /Users/mydrive/Music/Mary Chapin Carpenter - One Night Lonely (2020) [FLAC]/11 This Shirt.flac

Track gain : -4.71 dB
Peak : 0.965973
CRC32 hash (test run) : 2AAD433B
CRC32 hash : 2AAD433B
CRC32 hash (skip zero) : 439B4272
AccurateRip v1 signature : 315A0BB7
AccurateRip v2 signature : 4F6C8137
->Track not present in AccurateRip database.
Statistics
Read error : 0
Jitter error (maybe fixed) : 0
Retry sector count : 0
Damaged sector count : 0

Track 12
Filename : /Users/mydrive/Music/Mary Chapin Carpenter - One Night Lonely (2020) [FLAC]/12 I Am A Town.flac

Track gain : -4.74 dB
Peak : 0.965973
CRC32 hash (test run) : E4263B3E
CRC32 hash : E4263B3E
CRC32 hash (skip zero) : FEF55262
AccurateRip v1 signature : C9C539B4
AccurateRip v2 signature : C455E7A9
->Track not present in AccurateRip database.
Statistics
Read error : 0
Jitter error (maybe fixed) : 0
Retry sector count : 0
Damaged sector count : 0

Track 13
Filename : /Users/mydrive/Music/Mary Chapin Carpenter - One Night Lonely (2020) [FLAC]/13 Stones In The Road.flac

Track gain : -5.78 dB
Peak : 0.965973
CRC32 hash (test run) : 3036B929
CRC32 hash : 3036B929
CRC32 hash (skip zero) : CF9A270B
AccurateRip v1 signature : 9EA56CBF
AccurateRip v2 signature : F7C4D08A
->Track not present in AccurateRip database.
Statistics
Read error : 0
Jitter error (maybe fixed) : 0
Retry sector count : 0
Damaged sector count : 0

Track 14
Filename : /Users/mydrive/Music/Mary Chapin Carpenter - One Night Lonely (2020) [FLAC]/14 Heroes And Heroines.flac

Track gain : -4.97 dB
Peak : 0.965973
CRC32 hash (test run) : 69B40DA8
CRC32 hash : 69B40DA8
CRC32 hash (skip zero) : FBDEBC84
AccurateRip v1 signature : 88559A3A
AccurateRip v2 signature : 743D7297
->Track not present in AccurateRip database.
Statistics
Read error : 0
Jitter error (maybe fixed) : 0
Retry sector count : 0
Damaged sector count : 0

No errors occurred

End of status report

––-BEGIN XLD SIGNATURE––-
k1KsYyvKapSVxnWQ57QuXLOkVlvdjfF3sB56qP3YBhlygPBxBwuqOkK6UIj9h3VE3Z2UsmbSddIToZtGxtcdjH6Q2YmDtC0WoKVKQtW
––-END XLD SIGNATURE––-
X Lossless Decoder version 20181019 (151.1)

XLD extraction logfile from 2021-05-25 15:18:25 -0400

Mary Chapin Carpenter / One Night Lonely

Used drive : HL-DT-ST DVDRAM GP65NS60 (revision PF00)
Media type : Pressed CD

Ripper mode : XLD Secure Ripper
Disable audio cache : OK for the drive with a cache less than 1375KiB
Make use of C2 pointers : NO
Read offset correction : 6
Max retry count : 100
Gap status : Analyzed, Appended (except HTOA)

TOC of the extracted CD
Track | Start | Length | Start sector | End sector
––––––––––––––––––––––––––––-
1 | 00:00:00 | 05:35:26 | 0 | 25150
2 | 05:35:26 | 05:09:48 | 25151 | 48373
3 | 10:44:74 | 06:15:42 | 48374 | 76540
4 | 17:00:41 | 04:24:63 | 76541 | 96403
5 | 21:25:29 | 03:53:67 | 96404 | 113945
6 | 25:19:21 | 05:03:64 | 113946 | 136734
7 | 30:23:10 | 04:28:44 | 136735 | 156878
8 | 34:51:54 | 04:24:21 | 156879 | 176699
9 | 39:16:00 | 04:14:72 | 176700 | 195821
10 | 43:30:72 | 04:31:42 | 195822 | 216188
11 | 48:02:39 | 05:21:39 | 216189 | 240302
12 | 53:24:03 | 04:44:59 | 240303 | 261661

AccurateRip Summary
Disc not found in AccurateRip DB.

All Tracks
Album gain : -4.66 dB
Peak : 0.965973
Statistics
Read error : 0
Jitter error (maybe fixed) : 0
Retry sector count : 1
Damaged sector count : 0

Track 01
Filename : /Users/mydrive/Music/Mary Chapin Carpenter - One Night Lonely (2020) [FLAC]/01 Old D-35.flac
Pre-gap length : 00:02:00

Track gain : -5.02 dB
Peak : 0.965973
CRC32 hash (test run) : 4D5EEAE2
CRC32 hash : 4D5EEAE2
CRC32 hash (skip zero) : CE11DBFA
AccurateRip v1 signature : 4B9533FD
AccurateRip v2 signature : E26DCC37
->Track not present in AccurateRip database.
Statistics
Read error : 0
Jitter error (maybe fixed) : 0
Retry sector count : 0
Damaged sector count : 0

Track 02
Filename : /Users/mydrive/Music/Mary Chapin Carpenter - One Night Lonely (2020) [FLAC]/02 This Is Love.flac

Track gain : -4.89 dB
Peak : 0.965973
CRC32 hash (test run) : 4B3BB958
CRC32 hash : 4B3BB958
CRC32 hash (skip zero) : 70A383D0
AccurateRip v1 signature : D0AD4A73
AccurateRip v2 signature : 1CB0FECE
->Track not present in AccurateRip database.
Statistics
Read error : 0
Jitter error (maybe fixed) : 0
Retry sector count : 0
Damaged sector count : 0

Track 03
Filename : /Users/mydrive/Music/Mary Chapin Carpenter - One Night Lonely (2020) [FLAC]/03 John Doe No. 24.flac

Track gain : -3.97 dB
Peak : 0.965973
CRC32 hash (test run) : D8716CFB
CRC32 hash : D8716CFB
CRC32 hash (skip zero) : FDFECDB5
AccurateRip v1 signature : 2D27AD5F
AccurateRip v2 signature : 7F1765A9
->Track not present in AccurateRip database.
Statistics
Read error : 0
Jitter error (maybe fixed) : 0
Retry sector count : 0
Damaged sector count : 0

Track 04
Filename : /Users/mydrive/Music/Mary Chapin Carpenter - One Night Lonely (2020) [FLAC]/04 Don't Need Much To Be Happy.flac

Track gain : -3.73 dB
Peak : 0.965973
CRC32 hash (test run) : ECED599A
CRC32 hash : ECED599A
CRC32 hash (skip zero) : 4D3EF785
AccurateRip v1 signature : 67D86A9C
AccurateRip v2 signature : 79C457D2
->Track not present in AccurateRip database.
Statistics
Read error : 0
Jitter error (maybe fixed) : 0
Retry sector count : 0
Damaged sector count : 0

Track 05
Filename : /Users/mydrive/Music/Mary Chapin Carpenter - One Night Lonely (2020) [FLAC]/05 He Thinks He'll Keep Her.flac

Track gain : -5.04 dB
Peak : 0.965973
CRC32 hash (test run) : 10DC8551
CRC32 hash : 10DC8551
CRC32 hash (skip zero) : E827EEED
AccurateRip v1 signature : 8870AD44
AccurateRip v2 signature : D52C6EA8
->Track not present in AccurateRip database.
Statistics
Read error : 0
Jitter error (maybe fixed) : 0
Retry sector count : 0
Damaged sector count : 0

Track 06
Filename : /Users/mydrive/Music/Mary Chapin Carpenter - One Night Lonely (2020) [FLAC]/06 Why Shouldn't We.flac

Track gain : -4.39 dB
Peak : 0.965973
CRC32 hash (test run) : CB07D5CE
CRC32 hash : CB07D5CE
CRC32 hash (skip zero) : CB2BAF93
AccurateRip v1 signature : 3789C707
AccurateRip v2 signature : ECCDAFE1
->Track not present in AccurateRip database.
Statistics
Read error : 0
Jitter error (maybe fixed) : 0
Retry sector count : 0
Damaged sector count : 0

Track 07
Filename : /Users/mydrive/Music/Mary Chapin Carpenter - One Night Lonely (2020) [FLAC]/07 Twilight.flac

Track gain : -3.84 dB
Peak : 0.965973
CRC32 hash (test run) : 83746BBB
CRC32 hash : 83746BBB
CRC32 hash (skip zero) : 08FBF4BD
AccurateRip v1 signature : 702DB592
AccurateRip v2 signature : 05D09D43
->Track not present in AccurateRip database.
Statistics
Read error : 0
Jitter error (maybe fixed) : 0
Retry sector count : 0
Damaged sector count : 0

Track 08
Filename : /Users/mydrive/Music/Mary Chapin Carpenter - One Night Lonely (2020) [FLAC]/08 Late For Your Life.flac

Track gain : -3.76 dB
Peak : 0.965973
CRC32 hash (test run) : 8CF91907
CRC32 hash : 8CF91907
CRC32 hash (skip zero) : 6C41E6AC
AccurateRip v1 signature : 065D82EF
AccurateRip v2 signature : 65D16AE0
->Track not present in AccurateRip database.
Statistics
Read error : 0
Jitter error (maybe fixed) : 0
Retry sector count : 0
Damaged sector count : 0

Track 09
Filename : /Users/mydrive/Music/Mary Chapin Carpenter - One Night Lonely (2020) [FLAC]/09 The Hard Way.flac

Track gain : -5.53 dB
Peak : 0.965973
CRC32 hash (test run) : 22DFD0FD
CRC32 hash : 22DFD0FD
CRC32 hash (skip zero) : E05F92C8
AccurateRip v1 signature : 73314909
AccurateRip v2 signature : 747E41EF
->Track not present in AccurateRip database.
Statistics
Read error : 0
Jitter error (maybe fixed) : 0
Retry sector count : 0
Damaged sector count : 0

Track 10
Filename : /Users/mydrive/Music/Mary Chapin Carpenter - One Night Lonely (2020) [FLAC]/10 Between The Dirt And The Stars.flac

Track gain : -4.25 dB
Peak : 0.965973
CRC32 hash (test run) : 6371DB6D
CRC32 hash : 6371DB6D
CRC32 hash (skip zero) : A8F0645C
AccurateRip v1 signature : 990987C3
AccurateRip v2 signature : 2EBE0445
->Track not present in AccurateRip database.
Statistics
Read error : 0
Jitter error (maybe fixed) : 0
Retry sector count : 0
Damaged sector count : 0

Track 11
Filename : /Users/mydrive/Music/Mary Chapin Carpenter - One Night Lonely (2020) [FLAC]/11 The Things That We Are Made Of.flac

Track gain : -4.74 dB
Peak : 0.965973
CRC32 hash (test run) : 3B5EAE3E
CRC32 hash : 3B5EAE3E
CRC32 hash (skip zero) : DAE70478
AccurateRip v1 signature : 4949491D
AccurateRip v2 signature : 1976E75D
->Track not present in AccurateRip database.
Statistics
Read error : 0
Jitter error (maybe fixed) : 0
Retry sector count : 1
Damaged sector count : 0

Track 12
Filename : /Users/mydrive/Music/Mary Chapin Carpenter - One Night Lonely (2020) [FLAC]/12 Traveler's Prayer.flac

Track gain : -6.04 dB
Peak : 0.965973
CRC32 hash (test run) : 25A6506B
CRC32 hash : 25A6506B
CRC32 hash (skip zero) : 3C61DB3A
AccurateRip v1 signature : 806DA1CC
AccurateRip v2 signature : 107AE5AC
->Track not present in AccurateRip database.
Statistics
Read error : 0
Jitter error (maybe fixed) : 0
Retry sector count : 0
Damaged sector count : 0

No errors occurred

End of status report

––-BEGIN XLD SIGNATURE––-
gyewARbd10aZSQn2MTwUkyUFdBplsp.w5A1_uVVsBwJICr8CyBTxqmhpuGdCVsX62SWFV7nDmzq5ApPtHMGrv6CkBg.WxSsC25wew1W
––-END XLD SIGNATURE––-



===