Subcategories

Massimo Ranieri - Napoli e le mie canzoni (3CD, 2011) [Repost]

Posted By: Speedyclick
Massimo Ranieri - Napoli e le mie canzoni (3CD, 2011) [Repost]

Massimo Ranieri - Napoli e le mie canzoni (3CD, 2011)
EAC Rip | FLAC (image & cue & log) & mp3 @ 320 kbps | tracks: 36 | Scans | 2:21:29 | ~ 891 Mb & 330 Mb
Label: SONY Music | 5% recovery record | Genre: Canzone Napoletane, folk

A very beautiful collection of well known songs from Napoli, interpreted by a native Napolitan singer, the great Massimo Ranieri. Expressive voice, romantic melodies, unique performance. Enjoy 36 beloved songs in lossless.

TRACKLIST

CD01 (49:46 | ~ 331 Mb & 118 Mb
01. Reginella
02. Dicitincello vuje
03. Maruzzella
04. La panse
05. Scetate
06. E spingule francese
07. Fenesta vascia
08. Caravan petrol
09. O' guarracino
10. I' te vurria vasa'
11. Guapparia
12. Marechiare

Exact Audio Copy V1.0 beta 3 from 29. August 2011

EAC extraction logfile from 16. May 2012, 4:23

Massimo Ranieri / Napoli e le mie canzoni CD1

Used drive : HL-DT-STDVDRAM GH10N Adapter: 1 ID: 1

Read mode : Secure
Utilize accurate stream : Yes
Defeat audio cache : Yes
Make use of C2 pointers : No

Read offset correction : 667
Overread into Lead-In and Lead-Out : No
Fill up missing offset samples with silence : Yes
Delete leading and trailing silent blocks : No
Null samples used in CRC calculations : Yes
Used interface : Native Win32 interface for Win NT & 2000

Used output format : User Defined Encoder
Selected bitrate : 1024 kBit/s
Quality : High
Add ID3 tag : Yes
Command line compressor : C:\Program Files\Exact Audio Copy New\Flac\flac.exe
Additional command line options : -V -5 -T "artist=%artist%" -T "title=%title%" -T "album=%albumtitle%" -T "tracknumber=%tracknr2%" -T "genre=%genre%" -5 %source%


TOC of the extracted CD

Track | Start | Length | Start sector | End sector
––––––––––––––––––––––––––––-
1 | 0:00.00 | 4:18.37 | 0 | 19386
2 | 4:18.37 | 4:01.14 | 19387 | 37475
3 | 8:19.51 | 3:51.60 | 37476 | 54860
4 | 12:11.36 | 4:46.62 | 54861 | 76372
5 | 16:58.23 | 5:47.40 | 76373 | 102437
6 | 22:45.63 | 3:59.40 | 102438 | 120402
7 | 26:45.28 | 3:18.70 | 120403 | 135322
8 | 30:04.23 | 3:20.37 | 135323 | 150359
9 | 33:24.60 | 4:11.63 | 150360 | 169247
10 | 37:36.48 | 5:31.21 | 169248 | 194093
11 | 43:07.69 | 3:22.30 | 194094 | 209273
12 | 46:30.24 | 3:15.56 | 209274 | 223954


Range status and errors

Selected range

Filename R:\EAC Rips\Massimo Ranieri - Napoli e le mie canzoni [3 CD]\Massimo1\Massimo Ranieri - Napoli e le mie canzoni CD1.wav

Peak level 100.0 %
Extraction speed 5.6 X
Range quality 100.0 %
Test CRC 02BD562F
Copy CRC 02BD562F
Copy OK

No errors occurred


AccurateRip summary

Track 1 not present in database
Track 2 not present in database
Track 3 not present in database
Track 4 not present in database
Track 5 not present in database
Track 6 not present in database
Track 7 not present in database
Track 8 not present in database
Track 9 not present in database
Track 10 not present in database
Track 11 not present in database
Track 12 not present in database

None of the tracks are present in the AccurateRip database

End of status report

–– CUETools DB Plugin V2.1.3

[CTDB TOCID: x_heP.giHh5D29hoW13OSbr3hes-] disk not present in database, Submit result: x_heP.giHh5D29hoW13OSbr3hes- has been uploaded


==== Log checksum B9F33C0AEDB9A8FE50E75CC390877C116658A98516B847076A119092E11629C6 ====

CD02 (48:54 | ~ 305 Mb & 113 Mb
01. O surdato 'nnammurato
02. Catari
03. Scalinatella
04. Luna rossa
05. Malafemmena
06. 'A rumba de scugnizzi
07. Lazzarella
08. O' marenariello
09. 'E ccerase
10. Pigliate 'na pastiglia
11. Agata
12. Nuttata e' sentimento

Exact Audio Copy V1.0 beta 3 from 29. August 2011

EAC extraction logfile from 16. May 2012, 5:05

Massimo Ranieri / Napoli e le mie canzoni CD2

Used drive : HL-DT-STDVDRAM GH10N Adapter: 1 ID: 1

Read mode : Secure
Utilize accurate stream : Yes
Defeat audio cache : Yes
Make use of C2 pointers : No

Read offset correction : 667
Overread into Lead-In and Lead-Out : No
Fill up missing offset samples with silence : Yes
Delete leading and trailing silent blocks : No
Null samples used in CRC calculations : Yes
Used interface : Native Win32 interface for Win NT & 2000

Used output format : User Defined Encoder
Selected bitrate : 1024 kBit/s
Quality : High
Add ID3 tag : Yes
Command line compressor : C:\Program Files\Exact Audio Copy New\Flac\flac.exe
Additional command line options : -V -5 -T "artist=%artist%" -T "title=%title%" -T "album=%albumtitle%" -T "tracknumber=%tracknr2%" -T "genre=%genre%" -5 %source%


TOC of the extracted CD

Track | Start | Length | Start sector | End sector
––––––––––––––––––––––––––––-
1 | 0:00.00 | 3:57.27 | 0 | 17801
2 | 3:57.27 | 4:20.40 | 17802 | 37341
3 | 8:17.67 | 3:57.06 | 37342 | 55122
4 | 12:14.73 | 4:41.37 | 55123 | 76234
5 | 16:56.35 | 4:22.18 | 76235 | 95902
6 | 21:18.53 | 2:28.70 | 95903 | 107072
7 | 23:47.48 | 3:16.62 | 107073 | 121834
8 | 27:04.35 | 5:06.19 | 121835 | 144803
9 | 32:10.54 | 4:56.62 | 144804 | 167065
10 | 37:07.41 | 3:57.23 | 167066 | 184863
11 | 41:04.64 | 4:21.23 | 184864 | 204461
12 | 45:26.12 | 3:28.44 | 204462 | 220105


Range status and errors

Selected range

Filename R:\EAC Rips\Massimo Ranieri - Napoli e le mie canzoni [3 CD]\Massimo2\Massimo Ranieri - Napoli e le mie canzoni CD2.wav

Peak level 100.0 %
Extraction speed 5.7 X
Range quality 100.0 %
Test CRC 3B6D98B3
Copy CRC 3B6D98B3
Copy OK

No errors occurred


AccurateRip summary

Track 1 not present in database
Track 2 not present in database
Track 3 not present in database
Track 4 not present in database
Track 5 not present in database
Track 6 not present in database
Track 7 not present in database
Track 8 not present in database
Track 9 not present in database
Track 10 not present in database
Track 11 not present in database
Track 12 not present in database

None of the tracks are present in the AccurateRip database

End of status report

–– CUETools DB Plugin V2.1.3

[CTDB TOCID: QCM54XyhIXPmGOf3a1VGTK.ylJQ-] disk not present in database, Submit result: QCM54XyhIXPmGOf3a1VGTK.ylJQ- has been uploaded


==== Log checksum 753CBA98935B8B38BA9D5F551C27DB0F65FD4479FE486CCC3EECD4E196422B80 ====

CD03 (42:49 | ~ 255 Mb & 99 Mb
01. Suonne suonnate
02. Torero
03. Napulitanata
04. Piscatore 'e pusilleco
05. Te vojo bene assai
06. O ccafe
07. La palummella
08. Giacca rossa
09. 'A casciaforte
10. 'Na mmasciata
11. Era de maggio
12. Tu si na cosa grande

Exact Audio Copy V1.0 beta 3 from 29. August 2011

EAC extraction logfile from 16. May 2012, 5:59

Massimo Ranieri / Napoli e le mie canzoni CD3

Used drive : HL-DT-STDVDRAM GH10N Adapter: 1 ID: 1

Read mode : Secure
Utilize accurate stream : Yes
Defeat audio cache : Yes
Make use of C2 pointers : No

Read offset correction : 667
Overread into Lead-In and Lead-Out : No
Fill up missing offset samples with silence : Yes
Delete leading and trailing silent blocks : No
Null samples used in CRC calculations : Yes
Used interface : Native Win32 interface for Win NT & 2000

Used output format : User Defined Encoder
Selected bitrate : 1024 kBit/s
Quality : High
Add ID3 tag : Yes
Command line compressor : C:\Program Files\Exact Audio Copy New\Flac\flac.exe
Additional command line options : -V -5 -T "artist=%artist%" -T "title=%title%" -T "album=%albumtitle%" -T "tracknumber=%tracknr2%" -T "genre=%genre%" -5 %source%


TOC of the extracted CD

Track | Start | Length | Start sector | End sector
––––––––––––––––––––––––––––-
1 | 0:00.00 | 3:29.09 | 0 | 15683
2 | 3:29.09 | 3:20.33 | 15684 | 30716
3 | 6:49.42 | 4:17.27 | 30717 | 50018
4 | 11:06.69 | 3:49.39 | 50019 | 67232
5 | 14:56.33 | 3:17.22 | 67233 | 82029
6 | 18:13.55 | 2:52.27 | 82030 | 94956
7 | 21:06.07 | 2:56.74 | 94957 | 108230
8 | 24:03.06 | 4:58.26 | 108231 | 130606
9 | 29:01.32 | 2:39.10 | 130607 | 142541
10 | 31:40.42 | 3:23.43 | 142542 | 157809
11 | 35:04.10 | 4:02.46 | 157810 | 176005
12 | 39:06.56 | 3:42.48 | 176006 | 192703


Range status and errors

Selected range

Filename R:\EAC Rips\Massimo Ranieri - Napoli e le mie canzoni [3 CD]\Massimo3\Massimo Ranieri - Napoli e le mie canzoni CD3.wav

Peak level 100.0 %
Extraction speed 5.4 X
Range quality 99.9 %
Test CRC 22EE92DC
Copy CRC 22EE92DC
Copy OK

No errors occurred


AccurateRip summary

Track 1 not present in database
Track 2 not present in database
Track 3 not present in database
Track 4 not present in database
Track 5 not present in database
Track 6 not present in database
Track 7 not present in database
Track 8 not present in database
Track 9 not present in database
Track 10 not present in database
Track 11 not present in database
Track 12 not present in database

None of the tracks are present in the AccurateRip database

End of status report

–– CUETools DB Plugin V2.1.3

[CTDB TOCID: ITnV.j1mH4_jpO3bDgFt57dsTR4-] disk not present in database, Submit result: ITnV.j1mH4_jpO3bDgFt57dsTR4- has been uploaded


==== Log checksum 03C1D192246F2219D4A2D8D5D6F79A5DF4112BDDE44D6C7334730562879790F4 ====